Subcategories

Beethoven - The Piano Trios [5CD Box Set] - Beaux Arts Trio (2001)

Posted By: Goodspeed
Beethoven - The Piano Trios [5CD Box Set] - Beaux Arts Trio (2001)

Beethoven - The Piano Trios [5CD Box Set] - Beaux Arts Trio (2001)
EAC+LOG+CUE | FLAC (image) | 5 CD | RAR size: 321+322+291+210+258 MB | scans @ 600dpi: 106 MB | TT 356:24 | 5% recovery | FP/UL
Classical | label: Philips Classics | release date: 2001 | catalog # 468 411-2

Despite a series of personnel switches, the group’s approach to Beethoven has remained outstandingly consistent for more than 40 years. The first-ever Beaux Arts Beethoven set is currently available in Philips’ “The Early Years” series. It was produced during the mid-1960s and did not include transcriptions of the Op. 20 Septet or Second symphony. When Isidore Cohen replaced violinist Daniel Guillet in 1968, the group (which also included the pianist Menahem Pressler, founder and longest serving member of the ensemble, and cellist Bernard Greenhouse) would not return to Beethoven for another decade.

The trio’s next traversal, heard here, was recorded between 1979 and 1983. This magnificent cycle still has but one serious rival at this price, in the shape of Vol. 9 of DG’s “Complete Beethoven Edition”, which includes performances by the Kempff-Szeryng-Fournier trio. DG’s recordings were acceptable, but unlike Philips’ they never were in the demonstration category. Now that the Beaux Arts Trio’s second cycle is available again, DG’s set seems less attractive, though its superbly illustrated booklet is well worth having anyway.

Philips’ mid-priced boxes don’t go the extra mile with presentation, however this one at least offers a useful reprint of Hans Christoph Worbs’ original notes along with comprehensive track listings–but that’s about it. These performances originally were issued as a boxed set back in 1991 (432 281-2). A decade later, these superb interpretations haven’t been superseded. The only caveats are Philips’ rather drab packaging and the bother of having to extract each disc from unwieldy mini LP-style sleeves.

Tracklist:

Beethoven - The Piano Trios [5CD Box Set] - Beaux Arts Trio (2001)


CD 1:
Trio No.1 in E flat Major, Op.1 no.1

[01] - I. Allegro
[02] - II. Adagio Cantabile
[03] - III. Scherzo: Allegro assai
[04] - IV. Finale: Presto Trio No.2 in G Major, Op.1 no.2 [05] - I. Adagio - Allegro vivace [06] - II. Largo con Espressione [07] - III. Scherzo: Allegro [08] - IV. Finale: Presto [09] Trio No.8 in een beweging in B flat Major, WoO 39 - Allegretto

Exact Audio Copy V1.0 beta 3 from 29. August 2011

EAC extraction logfile from 2. June 2013, 15:46

Beaux Arts Trio / Beethoven: The Piano Trios - CD1

Used drive : _NEC DVD_RW ND-2500A Adapter: 3 ID: 1

Read mode : Secure
Utilize accurate stream : Yes
Defeat audio cache : Yes
Make use of C2 pointers : No

Read offset correction : 48
Overread into Lead-In and Lead-Out : No
Fill up missing offset samples with silence : Yes
Delete leading and trailing silent blocks : No
Null samples used in CRC calculations : Yes
Used interface : Native Win32 interface for Win NT & 2000

Used output format : User Defined Encoder
Selected bitrate : 768 kBit/s
Quality : High
Add ID3 tag : No
Command line compressor : C:\Program Files\Exact Audio Copy\FLAC\FLAC.EXE
Additional command line options : -6 -V -T "ARTIST=%artist%" -T "TITLE=%title%" -T "ALBUM=%albumtitle%" -T "DATE=%year%" -T "TRACKNUMBER=%tracknr%" -T "GENRE=%genre%" -T "COMMENT=%comment%" -T "BAND=%albuminterpret%" -T "ALBUMARTIST=%albuminterpret%" -T "COMPOSER=%composer%" %haslyrics%–tag-from-file=LYRICS="%lyricsfile%"%haslyrics% -T "DISCNUMBER=%cdnumber%" -T "TOTALDISCS=%totalcds%" -T "TOTALTRACKS=%numtracks%" %hascover%–picture="%coverfile%"%hascover% %source% -o %dest%


TOC of the extracted CD

Track | Start | Length | Start sector | End sector
––––––––––––––––––––––––––––-
1 | 0:00.33 | 10:10.00 | 33 | 45782
2 | 10:10.33 | 9:28.00 | 45783 | 88382
3 | 19:38.33 | 4:49.00 | 88383 | 110057
4 | 24:27.33 | 6:19.00 | 110058 | 138482
5 | 30:46.33 | 9:53.00 | 138483 | 182957
6 | 40:39.33 | 12:10.00 | 182958 | 237707
7 | 52:49.33 | 3:26.00 | 237708 | 253157
8 | 56:15.33 | 8:02.00 | 253158 | 289307
9 | 64:17.33 | 7:39.00 | 289308 | 323732


Range status and errors

Selected range

Filename C:\EAC Extractions\Beethoven - The Piano Trios - Beaux Arts Trio - CD1.wav

Peak level 96.3 %
Extraction speed 5.5 X
Range quality 99.9 %
Test CRC F09A8022
Copy CRC EFEC82BA
Copy OK

No errors occurred


AccurateRip summary

Track 1 accurately ripped (confidence 23) [25347CB1] (AR v1)
Track 2 accurately ripped (confidence 22) [898A43A2] (AR v1)
Track 3 accurately ripped (confidence 23) [54E524A2] (AR v1)
Track 4 accurately ripped (confidence 23) [9D122644] (AR v1)
Track 5 accurately ripped (confidence 24) [7CCA9415] (AR v1)
Track 6 accurately ripped (confidence 21) [537302C5] (AR v1)
Track 7 accurately ripped (confidence 23) [4E3FDB6F] (AR v1)
Track 8 accurately ripped (confidence 23) [2E1456C3] (AR v1)
Track 9 accurately ripped (confidence 21) [991D6174] (AR v1)

All tracks accurately ripped

End of status report

==== Log checksum CEFF442D856E97F0843B7C50EBF5D1FA95351A70D5A7BA16B6A202E34EDF4032 ====


Beethoven - The Piano Trios [5CD Box Set] - Beaux Arts Trio (2001)


CD 2:
Trio No.3 in C Minor, Op.1 no.3

[01] - I. Allegro con Brio
[02] - II. Andante Cantabile con Variazioni
[03] - III. Menuetto: Quasi allegro
[04] - IV. Finale: Prestissimo Trio No.6 in E flat Major, op.70 no.2 [05] - I. Poco sostenuto - Allegro ma non troppo [06] - II. Allegretto [07] - III. Allegretto ma non troppo [08] - IV. Finale: Allegro [09] Trio No.10 in E flat Major, Op.44 - 14 Variaties op een origineel thema - Tema (Andante) con Variazioni

Exact Audio Copy V1.0 beta 3 from 29. August 2011

EAC extraction logfile from 2. June 2013, 16:14

Beaux Arts Trio / Beethoven: The Piano Trios - CD2

Used drive : _NEC DVD_RW ND-2500A Adapter: 3 ID: 1

Read mode : Secure
Utilize accurate stream : Yes
Defeat audio cache : Yes
Make use of C2 pointers : No

Read offset correction : 48
Overread into Lead-In and Lead-Out : No
Fill up missing offset samples with silence : Yes
Delete leading and trailing silent blocks : No
Null samples used in CRC calculations : Yes
Used interface : Native Win32 interface for Win NT & 2000

Used output format : User Defined Encoder
Selected bitrate : 768 kBit/s
Quality : High
Add ID3 tag : No
Command line compressor : C:\Program Files\Exact Audio Copy\FLAC\FLAC.EXE
Additional command line options : -6 -V -T "ARTIST=%artist%" -T "TITLE=%title%" -T "ALBUM=%albumtitle%" -T "DATE=%year%" -T "TRACKNUMBER=%tracknr%" -T "GENRE=%genre%" -T "COMMENT=%comment%" -T "BAND=%albuminterpret%" -T "ALBUMARTIST=%albuminterpret%" -T "COMPOSER=%composer%" %haslyrics%–tag-from-file=LYRICS="%lyricsfile%"%haslyrics% -T "DISCNUMBER=%cdnumber%" -T "TOTALDISCS=%totalcds%" -T "TOTALTRACKS=%numtracks%" %hascover%–picture="%coverfile%"%hascover% %source% -o %dest%


TOC of the extracted CD

Track | Start | Length | Start sector | End sector
––––––––––––––––––––––––––––-
1 | 0:00.32 | 9:02.00 | 32 | 40681
2 | 9:02.32 | 9:37.00 | 40682 | 83956
3 | 18:39.32 | 3:32.38 | 83957 | 99894
4 | 22:11.70 | 5:44.37 | 99895 | 125731
5 | 27:56.32 | 10:27.00 | 125732 | 172756
6 | 38:23.32 | 5:40.00 | 172757 | 198256
7 | 44:03.32 | 5:33.00 | 198257 | 223231
8 | 49:36.32 | 8:09.00 | 223232 | 259906
9 | 57:45.32 | 14:37.00 | 259907 | 325681


Range status and errors

Selected range

Filename C:\EAC Extractions\Beethoven - The Piano Trios - Beaux Arts Trio - CD2.wav

Peak level 95.3 %
Extraction speed 7.1 X
Range quality 100.0 %
Test CRC E1EBF781
Copy CRC E1EBF781
Copy OK

No errors occurred


AccurateRip summary

Track 1 accurately ripped (confidence 29) [E178AB56] (AR v1)
Track 2 accurately ripped (confidence 29) [C4C68C01] (AR v1)
Track 3 accurately ripped (confidence 29) [896D495B] (AR v1)
Track 4 accurately ripped (confidence 29) [A5ACB7ED] (AR v1)
Track 5 accurately ripped (confidence 29) [45C413BA] (AR v1)
Track 6 accurately ripped (confidence 28) [2515982D] (AR v1)
Track 7 accurately ripped (confidence 29) [7E0A81A4] (AR v1)
Track 8 accurately ripped (confidence 28) [82C7E77E] (AR v1)
Track 9 accurately ripped (confidence 27) [15A14908] (AR v1)

All tracks accurately ripped

End of status report

==== Log checksum 130FB036DD53226DDC814C7B48A9A9CCC4BCE0E4DFE7C4C996BE6C26D38C3F6F ====


Beethoven - The Piano Trios [5CD Box Set] - Beaux Arts Trio (2001)


CD 3:
Trio No.7 in B flat Major, Op.97 'Aartshertog'

[01] - I. Allegro moderato
[02] - II. Scherzo: Allegro
[03] - III. Andante Cantabile, ma pero con moto - Poco adagio PIU
[04] - IV. Allegro moderato Trio No.9 in E flat Major, WoO 38 [05] - I. Allegro moderato [06] - II. Scherzo: Allegro ma non troppo [07] - III. Rondo: Allegretto [08] Trio No.11 in G Major, op.121a - 10 Variaties op Wenzel Muller's Song 'Ich bin der Schneider Kakadu " - Introduzione (Adagio assai) - Tema (Alegretto) con Variazioni

Exact Audio Copy V1.0 beta 3 from 29. August 2011

EAC extraction logfile from 2. June 2013, 16:50

Beaux Arts Trio / Beethoven: The Piano Trios - CD3

Used drive : _NEC DVD_RW ND-2500A Adapter: 3 ID: 1

Read mode : Secure
Utilize accurate stream : Yes
Defeat audio cache : Yes
Make use of C2 pointers : No

Read offset correction : 48
Overread into Lead-In and Lead-Out : No
Fill up missing offset samples with silence : Yes
Delete leading and trailing silent blocks : No
Null samples used in CRC calculations : Yes
Used interface : Native Win32 interface for Win NT & 2000

Used output format : User Defined Encoder
Selected bitrate : 768 kBit/s
Quality : High
Add ID3 tag : No
Command line compressor : C:\Program Files\Exact Audio Copy\FLAC\FLAC.EXE
Additional command line options : -6 -V -T "ARTIST=%artist%" -T "TITLE=%title%" -T "ALBUM=%albumtitle%" -T "DATE=%year%" -T "TRACKNUMBER=%tracknr%" -T "GENRE=%genre%" -T "COMMENT=%comment%" -T "BAND=%albuminterpret%" -T "ALBUMARTIST=%albuminterpret%" -T "COMPOSER=%composer%" %haslyrics%–tag-from-file=LYRICS="%lyricsfile%"%haslyrics% -T "DISCNUMBER=%cdnumber%" -T "TOTALDISCS=%totalcds%" -T "TOTALTRACKS=%numtracks%" %hascover%–picture="%coverfile%"%hascover% %source% -o %dest%


TOC of the extracted CD

Track | Start | Length | Start sector | End sector
––––––––––––––––––––––––––––-
1 | 0:00.33 | 14:10.00 | 33 | 63782
2 | 14:10.33 | 6:42.00 | 63783 | 93932
3 | 20:52.33 | 13:33.07 | 93933 | 154914
4 | 34:25.40 | 6:57.68 | 154915 | 186257
5 | 41:23.33 | 4:53.00 | 186258 | 208232
6 | 46:16.33 | 5:35.00 | 208233 | 233357
7 | 51:51.33 | 5:34.00 | 233358 | 258407
8 | 57:25.33 | 18:59.00 | 258408 | 343832


Range status and errors

Selected range

Filename C:\EAC Extractions\Disc 3\Beethoven - The Piano Trios - Beaux Arts Trio - CD3.wav

Peak level 97.2 %
Extraction speed 6.9 X
Range quality 99.9 %
Test CRC 9D1BA61C
Copy CRC 9D1BA61C
Copy OK

No errors occurred


AccurateRip summary

Track 1 accurately ripped (confidence 23) [7F3BDED1] (AR v1)
Track 2 accurately ripped (confidence 23) [77FFE1D1] (AR v1)
Track 3 accurately ripped (confidence 22) [55DCB3C6] (AR v1)
Track 4 accurately ripped (confidence 23) [D7C819B5] (AR v1)
Track 5 accurately ripped (confidence 21) [E0D3DB8A] (AR v1)
Track 6 accurately ripped (confidence 21) [967522AE] (AR v1)
Track 7 accurately ripped (confidence 20) [8073472F] (AR v1)
Track 8 accurately ripped (confidence 21) [CBC6C929] (AR v1)

All tracks accurately ripped

End of status report

==== Log checksum 792794E912AB918E5186BDC3921A6D37D58DB2ECE9284E8D0FFA932E72AE7DB2 ====


Beethoven - The Piano Trios [5CD Box Set] - Beaux Arts Trio (2001)


CD 4:
Trio in E flat Major, Op.38 (na Septet, Op.20)

[01] - I. Adagio - Allegro con Brio
[02] - II. Adagio Cantabile
[03] - III. Tempo di Menuetto
[04] - IV. Andante con Variazioni
[05] - V. Scherzo: Allegro molto e vivace
[06] - VI. Andante con moto alla marcia - Presto Trio No.5 in D Major, op.70 no.1 'Ghost' [07] - I. Allegro vivace e con Brio [08] - II. Largo assai Espressivo ED [09] - III. Presto

Exact Audio Copy V1.0 beta 3 from 29. August 2011

EAC extraction logfile from 2. June 2013, 17:20

Beaux Arts Trio / Beethoven: The Piano Trios - CD4

Used drive : _NEC DVD_RW ND-2500A Adapter: 3 ID: 1

Read mode : Secure
Utilize accurate stream : Yes
Defeat audio cache : Yes
Make use of C2 pointers : No

Read offset correction : 48
Overread into Lead-In and Lead-Out : No
Fill up missing offset samples with silence : Yes
Delete leading and trailing silent blocks : No
Null samples used in CRC calculations : Yes
Used interface : Native Win32 interface for Win NT & 2000

Used output format : User Defined Encoder
Selected bitrate : 768 kBit/s
Quality : High
Add ID3 tag : No
Command line compressor : C:\Program Files\Exact Audio Copy\FLAC\FLAC.EXE
Additional command line options : -6 -V -T "ARTIST=%artist%" -T "TITLE=%title%" -T "ALBUM=%albumtitle%" -T "DATE=%year%" -T "TRACKNUMBER=%tracknr%" -T "GENRE=%genre%" -T "COMMENT=%comment%" -T "BAND=%albuminterpret%" -T "ALBUMARTIST=%albuminterpret%" -T "COMPOSER=%composer%" %haslyrics%–tag-from-file=LYRICS="%lyricsfile%"%haslyrics% -T "DISCNUMBER=%cdnumber%" -T "TOTALDISCS=%totalcds%" -T "TOTALTRACKS=%numtracks%" %hascover%–picture="%coverfile%"%hascover% %source% -o %dest%


TOC of the extracted CD

Track | Start | Length | Start sector | End sector
––––––––––––––––––––––––––––-
1 | 0:00.33 | 10:26.00 | 33 | 46982
2 | 10:26.33 | 10:10.00 | 46983 | 92732
3 | 20:36.33 | 3:26.00 | 92733 | 108182
4 | 24:02.33 | 7:55.00 | 108183 | 143807
5 | 31:57.33 | 3:15.00 | 143808 | 158432
6 | 35:12.33 | 8:00.00 | 158433 | 194432
7 | 43:12.33 | 10:17.00 | 194433 | 240707
8 | 53:29.33 | 11:41.00 | 240708 | 293282
9 | 65:10.33 | 8:11.00 | 293283 | 330107


Range status and errors

Selected range

Filename C:\EAC Extractions\Beethoven - The Piano Trios - BAT {5 CD Box Set} (2001)\Disc 4\Beethoven - The Piano Trios - Beaux Arts Trio - CD4.wav

Peak level 95.6 %
Extraction speed 6.8 X
Range quality 99.9 %
Test CRC E6C9B50F
Copy CRC E6C9B50F
Copy OK

No errors occurred


AccurateRip summary

Track 1 accurately ripped (confidence 20) [BDB3641E] (AR v1)
Track 2 accurately ripped (confidence 20) [97BA69EA] (AR v1)
Track 3 accurately ripped (confidence 20) [B4FDC506] (AR v1)
Track 4 accurately ripped (confidence 20) [F7E6220A] (AR v1)
Track 5 accurately ripped (confidence 20) [96B37A52] (AR v1)
Track 6 accurately ripped (confidence 20) [08667649] (AR v1)
Track 7 accurately ripped (confidence 21) [A47B52B7] (AR v1)
Track 8 accurately ripped (confidence 21) [F6BC483E] (AR v1)
Track 9 accurately ripped (confidence 21) [CE9B8420] (AR v1)

All tracks accurately ripped

End of status report

==== Log checksum 142DD1E86B7617163F81FBF4FB705A31944FC53AAE664301703C2A5294F8B521 ====


Beethoven - The Piano Trios [5CD Box Set] - Beaux Arts Trio (2001)


CD 5:
Trio in D Major (na Symphony No.2)

[01] - I. Adagio - Allegro con Brio
[02] - II. Larghetto quasi Andante
[03] - III. Scherzo
[04] - IV. Allegro molto
[05] Triosatz in E flat Major - Allegretto Trio No.4 in B flat Major, Op.11 'Gassenhauer' [06] - I. Allegro con Brio [07] - II. Adagio [08] - III. Tema: Pria ch'io l'impegno (Allegretto) con varizaioni

Exact Audio Copy V1.0 beta 3 from 29. August 2011

EAC extraction logfile from 2. June 2013, 17:44

Beaux Arts Trio / Beethoven: The Piano Trios - CD5

Used drive : _NEC DVD_RW ND-2500A Adapter: 3 ID: 1

Read mode : Secure
Utilize accurate stream : Yes
Defeat audio cache : Yes
Make use of C2 pointers : No

Read offset correction : 48
Overread into Lead-In and Lead-Out : No
Fill up missing offset samples with silence : Yes
Delete leading and trailing silent blocks : No
Null samples used in CRC calculations : Yes
Used interface : Native Win32 interface for Win NT & 2000

Used output format : User Defined Encoder
Selected bitrate : 768 kBit/s
Quality : High
Add ID3 tag : No
Command line compressor : C:\Program Files\Exact Audio Copy\FLAC\FLAC.EXE
Additional command line options : -6 -V -T "ARTIST=%artist%" -T "TITLE=%title%" -T "ALBUM=%albumtitle%" -T "DATE=%year%" -T "TRACKNUMBER=%tracknr%" -T "GENRE=%genre%" -T "COMMENT=%comment%" -T "BAND=%albuminterpret%" -T "ALBUMARTIST=%albuminterpret%" -T "COMPOSER=%composer%" %haslyrics%–tag-from-file=LYRICS="%lyricsfile%"%haslyrics% -T "DISCNUMBER=%cdnumber%" -T "TOTALDISCS=%totalcds%" -T "TOTALTRACKS=%numtracks%" %hascover%–picture="%coverfile%"%hascover% %source% -o %dest%


TOC of the extracted CD

Track | Start | Length | Start sector | End sector
––––––––––––––––––––––––––––-
1 | 0:00.32 | 13:30.00 | 32 | 60781
2 | 13:30.32 | 11:48.00 | 60782 | 113881
3 | 25:18.32 | 3:51.35 | 113882 | 131241
4 | 29:09.67 | 7:07.40 | 131242 | 163306
5 | 36:17.32 | 4:08.00 | 163307 | 181906
6 | 40:25.32 | 9:05.00 | 181907 | 222781
7 | 49:30.32 | 5:45.00 | 222782 | 248656
8 | 55:15.32 | 7:06.00 | 248657 | 280606


Range status and errors

Selected range

Filename C:\EAC Extractions\Beethoven - The Piano Trios - BAT {5 CD Box Set} (2001)\Disc 5\Beethoven - The Piano Trios - Beaux Arts Trio - CD5.wav

Peak level 93.7 %
Extraction speed 6.5 X
Range quality 100.0 %
Test CRC 87C1590D
Copy CRC 87C1590D
Copy OK

No errors occurred


AccurateRip summary

Track 1 accurately ripped (confidence 25) [FC827C8D] (AR v1)
Track 2 accurately ripped (confidence 25) [8A4FB9F7] (AR v1)
Track 3 accurately ripped (confidence 26) [795FE4DF] (AR v1)
Track 4 accurately ripped (confidence 24) [1966D717] (AR v1)
Track 5 accurately ripped (confidence 26) [636A9F9D] (AR v1)
Track 6 accurately ripped (confidence 26) [4A148D35] (AR v1)
Track 7 accurately ripped (confidence 27) [C1DB48E6] (AR v1)
Track 8 accurately ripped (confidence 27) [2EEE666C] (AR v1)

All tracks accurately ripped

End of status report

==== Log checksum 296C451787FB16673100D875B2F7DC15C66C972E26EB8BFC0BC3A5C5147D49AB ====


Info:
Formed: July 13, 1955, Lenox, MA, United States
Disbanded: September 06, 2008
Members:
Menahem Pressler (piano),
Daniel Guilet (violin, 1955-69),
Bernard Greenhouse (cello, 1955-87),
Isidore Cohen (violin, 1969-92),
Peter Wiley (cello, 1987-98),
Ida Kavafian (violin, 1992-98),
Antonio Meneses (cello, 1998-2008),
Yung Uck Kim (violin, 1998-2002),
Daniel Hope (violin, 2002-08)

Beethoven - The Piano Trios [5CD Box Set] - Beaux Arts Trio (2001)