Subcategories

Beethoven: The Symphonies / Bruggen, Orchestra Of The Eighteenth Century (2012)

Posted By: peotuvave
Beethoven: The Symphonies / Bruggen, Orchestra Of The Eighteenth Century (2012)

Beethoven: The Symphonies / Bruggen, Orchestra Of The Eighteenth Century (2012)
X Lossless Decoder | Flac (Tracks + cue + log) | 5 CDs | Full Scans | 1.56 GB
Genre: Classical | Label: Glossa | Catalog Number: 921116

Frans Brüggen first turned his attention to the music of Beethoven’s Nine Symphonies in the 1980s, using period instruments. Now, his quest undimmed, he returns to the glories of Beethoven’s orchestral music for a new cycle being issued in a sumptuous hybrid SACD box set on Glossa. Likewise undimmed is the rapport he shares with his orchestra for one of classical music’s greatest challenges by way of concert performances: Brüggen has long distanced himself from studio recordings.

Composer: Ludwig van Beethoven
Performer: Michael Tews, Marcel Beekman, Wilke te Brummelstroete, Rebecca Nash
Conductor: Frans Brüggen
Orchestra/Ensemble: Orchestra of the 18th Century, Laurens Collegium, Gulbenkian Foundation Chorus Lisbon

Reviews: It was some years after founding the Orchestra of the Eighteenth Century in 1981 that Frans Brüggen first turned his attention to the music of Beethoven’s It was some years after founding the Orchestra of the Eighteenth Century in 1981 that Frans Brüggen first turned his attention to the music of Beethoven’s Nine Symphonies and endeavored to perceive that special orchestral landscape, in order to transform it into musical sound, with the use of period instruments, rediscovering the historical tonal colours. Now, his quest undimmed, Brüggen has submerged himself once more into the glories of Beethoven’s orchestral music for a new cycle being issued in a sumptuous new hybrid SACD box set by Glossa. Likewise undimmed is the rapport he shares with his orchestra for one of classical music’s greatest challenges of realizing the intimate and the familiar in these symphonies, a challenge achieved here on record by way of concert performances. (Brüggen has long distanced himself from studio recordings).

As well as being a witness to Brüggen’s communing with the spirit of Beethoven, this Glossa edition comes with a series of powerful and elegant photographs of conductor and orchestra by Annelies van der Vegt (also one of the orchestra’s first violinists), taken during the tour which led up to the “Beethoven Experience” in the Rotterdam concert hall of de Doelen last year, where the symphonies were recorded. Joining orchestra and conductor, on the fifth and final disc, for the Ninth Symphony are soloists Rebecca Nash, Wilke te Brummelstroete, Marcel Beekman, Michael Tews and the choral forces of the Laurens Collegium and Cantorij from Rotterdam.

Tracklisting:

1. Symphony no 1 in C major, Op. 21 by Ludwig van Beethoven
Conductor: Frans Brüggen
Orchestra/Ensemble: Orchestra of the 18th Century
Period: Classical
Written: 1800; Vienna, Austria
Date of Recording: 10/2011
Venue: Live de Doelen, Rotterdam
Length: 32 Minutes 0 Secs.

2. Symphony no 2 in D major, Op. 36 by Ludwig van Beethoven
Conductor: Frans Brüggen
Orchestra/Ensemble: Orchestra of the 18th Century
Period: Classical
Written: 1801-1802; Vienna, Austria
Date of Recording: 10/2011
Venue: Live de Doelen, Rotterdam
Length: 32 Minutes 0 Secs.

3. Symphony no 3 in E flat major, Op. 55 "Eroica" by Ludwig van Beethoven
Conductor: Frans Brüggen
Orchestra/Ensemble: Orchestra of the 18th Century
Period: Classical
Written: 1803; Vienna, Austria
Date of Recording: 10/2011
Venue: Live de Doelen, Rotterdam
Length: 49 Minutes 16 Secs.

4. Symphony no 4 in B flat major, Op. 60 by Ludwig van Beethoven
Conductor: Frans Brüggen
Orchestra/Ensemble: Orchestra of the 18th Century
Period: Classical
Written: 1806; Vienna, Austria
Date of Recording: 10/2011
Venue: de Doelen, Rotterdam

5. Symphony no 5 in C minor, Op. 67 by Ludwig van Beethoven
Conductor: Frans Brüggen
Orchestra/Ensemble: Orchestra of the 18th Century
Period: Classical
Written: 1807-1808; Vienna, Austria
Date of Recording: 10/2011
Venue: Live de Doelen, Rotterdam

6. Symphony no 6 in F major, Op. 68 "Pastoral" by Ludwig van Beethoven
Conductor: Frans Brüggen
Orchestra/Ensemble: Orchestra of the 18th Century
Period: Classical
Written: 1808; Vienna, Austria
Date of Recording: 10/2011
Venue: de Doelen, Rotterdam

7. Symphony no 7 in A major, Op. 92 by Ludwig van Beethoven
Conductor: Frans Brüggen
Orchestra/Ensemble: Orchestra of the 18th Century
Period: Classical
Written: 1811-1812; Vienna, Austria
Date of Recording: 10/2011
Venue: de Doelen, Rotterdam

8. Symphony no 8 in F major, Op. 93 by Ludwig van Beethoven
Conductor: Frans Brüggen
Orchestra/Ensemble: Orchestra of the 18th Century, Laurens Collegium
Period: Classical
Written: 1812; Vienna, Austria
Date of Recording: 10/2011
Venue: de Doelen, Rotterdam

9. Symphony no 9 in D minor, Op. 125 "Choral" by Ludwig van Beethoven
Performer: Michael Tews (Bass), Marcel Beekman (Tenor), Wilke te Brummelstroete (Alto),
Rebecca Nash (Soprano)
Conductor: Frans Brüggen
Orchestra/Ensemble: Gulbenkian Foundation Chorus Lisbon, Orchestra of the 18th Century
Period: Classical
Written: 1822-1824; Vienna, Austria
Date of Recording: 10/2011
Venue: de Doelen, Rotterdam

X Lossless Decoder version 20121222 (142.2)

XLD extraction logfile from 2013-01-22 19:45:21 -0500

Orchestra of the Eighteenth Century, Frans Brüggen / Beethoven: The Symphonies

Used drive : HL-DT-ST DVDRW GSA-S10N (revision BP10)
Media type : Pressed CD

Ripper mode : XLD Secure Ripper
Disable audio cache : OK for the drive with a cache less than 1375KiB
Make use of C2 pointers : NO
Read offset correction : 667
Max retry count : 20
Gap status : Analyzed, Appended (except HTOA)

TOC of the extracted CD
Track | Start | Length | Start sector | End sector
––––––––––––––––––––––––––––-
1 | 00:00:00 | 10:21:36 | 0 | 46610
2 | 10:21:36 | 07:50:52 | 46611 | 81912
3 | 18:12:13 | 03:26:34 | 81913 | 97396
4 | 21:38:47 | 06:05:55 | 97397 | 124826
5 | 27:44:27 | 19:07:45 | 124827 | 210896
6 | 46:51:72 | 14:05:30 | 210897 | 274301
7 | 60:57:27 | 06:01:55 | 274302 | 301431
8 | 66:59:07 | 12:32:43 | 301432 | 357874

AccurateRip Summary
Disc not found in AccurateRip DB.

All Tracks
Album gain : 0.78 dB
Peak : 0.839661
Statistics
Read error : 0
Jitter error (maybe fixed) : 0
Retry sector count : 0
Damaged sector count : 0

Track 01
Filename : /Users/Hobbes/Desktop/Ludwig van Beethoven - Orchestra of the Eighteenth Century, Frans Brüggen - 2012 - Beethoven: The Symphonies [FLAC]/01/01 - Symphony No. 1 in C major (Opus 21, 1800): I. Adagio molto - Allegro con brio.flac
Pre-gap length : 00:02:00

Track gain : 1.80 dB
Peak : 0.671387
CRC32 hash (test run) : FDE7B3EF
CRC32 hash : FDE7B3EF
CRC32 hash (skip zero) : 38C6BA90
AccurateRip v1 signature : 66A96F98
AccurateRip v2 signature : FFF67E18
->Track not present in AccurateRip database.
Statistics
Read error : 0
Jitter error (maybe fixed) : 0
Retry sector count : 0
Damaged sector count : 0

Track 02
Filename : /Users/Hobbes/Desktop/Ludwig van Beethoven - Orchestra of the Eighteenth Century, Frans Brüggen - 2012 - Beethoven: The Symphonies [FLAC]/01/02 - Symphony No. 1 in C major (Opus 21, 1800): II. Andante.flac

Track gain : 5.07 dB
Peak : 0.565216
CRC32 hash (test run) : 4869BB81
CRC32 hash : 4869BB81
CRC32 hash (skip zero) : 9633E955
AccurateRip v1 signature : E01C36A1
AccurateRip v2 signature : 55E17820
->Track not present in AccurateRip database.
Statistics
Read error : 0
Jitter error (maybe fixed) : 0
Retry sector count : 0
Damaged sector count : 0

Track 03
Filename : /Users/Hobbes/Desktop/Ludwig van Beethoven - Orchestra of the Eighteenth Century, Frans Brüggen - 2012 - Beethoven: The Symphonies [FLAC]/01/03 - Symphony No. 1 in C major (Opus 21, 1800): III. Menuetto: Allegro molto e vivace.flac

Track gain : 0.02 dB
Peak : 0.710541
CRC32 hash (test run) : E1429586
CRC32 hash : E1429586
CRC32 hash (skip zero) : 808A4C5D
AccurateRip v1 signature : 407F0BA3
AccurateRip v2 signature : 3829F9C7
->Track not present in AccurateRip database.
Statistics
Read error : 0
Jitter error (maybe fixed) : 0
Retry sector count : 0
Damaged sector count : 0

Track 04
Filename : /Users/Hobbes/Desktop/Ludwig van Beethoven - Orchestra of the Eighteenth Century, Frans Brüggen - 2012 - Beethoven: The Symphonies [FLAC]/01/04 - Symphony No. 1 in C major (Opus 21, 1800): IV. Finale: Allegro molto e vivace.flac

Track gain : 0.25 dB
Peak : 0.793854
CRC32 hash (test run) : 42BD5EED
CRC32 hash : 42BD5EED
CRC32 hash (skip zero) : 00CB5668
AccurateRip v1 signature : 45A3C223
AccurateRip v2 signature : B2EA47B4
->Track not present in AccurateRip database.
Statistics
Read error : 0
Jitter error (maybe fixed) : 0
Retry sector count : 0
Damaged sector count : 0

Track 05
Filename : /Users/Hobbes/Desktop/Ludwig van Beethoven - Orchestra of the Eighteenth Century, Frans Brüggen - 2012 - Beethoven: The Symphonies [FLAC]/01/05 - Symphony No. 3 in E flat major, 'Eroica' (Opus 55, 1804): I. Allegro con brio.flac
Pre-gap length : 00:09:16

Track gain : 0.26 dB
Peak : 0.767944
CRC32 hash (test run) : E332EE0B
CRC32 hash : E332EE0B
CRC32 hash (skip zero) : E4164A32
AccurateRip v1 signature : 90E21CDA
AccurateRip v2 signature : 68450BC7
->Track not present in AccurateRip database.
Statistics
Read error : 0
Jitter error (maybe fixed) : 0
Retry sector count : 0
Damaged sector count : 0

Track 06
Filename : /Users/Hobbes/Desktop/Ludwig van Beethoven - Orchestra of the Eighteenth Century, Frans Brüggen - 2012 - Beethoven: The Symphonies [FLAC]/01/06 - Symphony No. 3 in E flat major, 'Eroica' (Opus 55, 1804): II. Marcia funebre: Adagio assai.flac

Track gain : 1.93 dB
Peak : 0.716705
CRC32 hash (test run) : 4FD173D2
CRC32 hash : 4FD173D2
CRC32 hash (skip zero) : 7B33A7ED
AccurateRip v1 signature : 687BFDC6
AccurateRip v2 signature : 1EF1FBA9
->Track not present in AccurateRip database.
Statistics
Read error : 0
Jitter error (maybe fixed) : 0
Retry sector count : 0
Damaged sector count : 0

Track 07
Filename : /Users/Hobbes/Desktop/Ludwig van Beethoven - Orchestra of the Eighteenth Century, Frans Brüggen - 2012 - Beethoven: The Symphonies [FLAC]/01/07 - Symphony No. 3 in E flat major, 'Eroica' (Opus 55, 1804): III. Scherzo: Allegro vivace.flac

Track gain : 0.02 dB
Peak : 0.691986
CRC32 hash (test run) : CD6EE88D
CRC32 hash : CD6EE88D
CRC32 hash (skip zero) : 82771275
AccurateRip v1 signature : BD1940EE
AccurateRip v2 signature : 43FB9F82
->Track not present in AccurateRip database.
Statistics
Read error : 0
Jitter error (maybe fixed) : 0
Retry sector count : 0
Damaged sector count : 0

Track 08
Filename : /Users/Hobbes/Desktop/Ludwig van Beethoven - Orchestra of the Eighteenth Century, Frans Brüggen - 2012 - Beethoven: The Symphonies [FLAC]/01/08 - Symphony No. 3 in E flat major, 'Eroica' (Opus 55, 1804): IV. Finale: Allegro molto.flac

Track gain : 0.82 dB
Peak : 0.839661
CRC32 hash (test run) : 55F1F660
CRC32 hash : 55F1F660
CRC32 hash (skip zero) : DB1A4191
AccurateRip v1 signature : 6CB28565
AccurateRip v2 signature : CF945721
->Track not present in AccurateRip database.
Statistics
Read error : 0
Jitter error (maybe fixed) : 0
Retry sector count : 0
Damaged sector count : 0

No errors occurred

End of status report

X Lossless Decoder version 20121222 (142.2)

XLD extraction logfile from 2013-01-22 20:19:53 -0500

Orchestra of the Eighteenth Century, Frans Brüggen / Beethoven: The Symphonies

Used drive : HL-DT-ST DVDRW GSA-S10N (revision BP10)
Media type : Pressed CD

Ripper mode : XLD Secure Ripper
Disable audio cache : OK for the drive with a cache less than 1375KiB
Make use of C2 pointers : NO
Read offset correction : 667
Max retry count : 20
Gap status : Analyzed, Appended (except HTOA)

TOC of the extracted CD
Track | Start | Length | Start sector | End sector
––––––––––––––––––––––––––––-
1 | 00:00:00 | 13:31:30 | 0 | 60854
2 | 13:31:30 | 11:19:62 | 60855 | 111841
3 | 24:51:17 | 03:52:33 | 111842 | 129274
4 | 28:43:50 | 06:35:57 | 129275 | 158956
5 | 35:19:32 | 11:44:64 | 158957 | 211820
6 | 47:04:21 | 09:26:07 | 211821 | 254277
7 | 56:30:28 | 05:30:29 | 254278 | 279056
8 | 62:00:57 | 06:51:72 | 279057 | 309953

AccurateRip Summary
Disc not found in AccurateRip DB.

All Tracks
Album gain : -0.66 dB
Peak : 1.000000
Statistics
Read error : 0
Jitter error (maybe fixed) : 0
Retry sector count : 0
Damaged sector count : 0

Track 01
Filename : /Users/Hobbes/Desktop/Ludwig van Beethoven - Orchestra of the Eighteenth Century, Frans Brüggen - 2012 - Beethoven: The Symphonies [FLAC]/02/01 - Symphony No. 2 in D major (Opus 36, 1802): Adagio molto – Allegro con brio.flac
Pre-gap length : 00:02:00

Track gain : -1.18 dB
Peak : 0.876007
CRC32 hash (test run) : 28572012
CRC32 hash : 28572012
CRC32 hash (skip zero) : 7AF2EC5B
AccurateRip v1 signature : 77459FB6
AccurateRip v2 signature : 9CD4DDF0
->Track not present in AccurateRip database.
Statistics
Read error : 0
Jitter error (maybe fixed) : 0
Retry sector count : 0
Damaged sector count : 0

Track 02
Filename : /Users/Hobbes/Desktop/Ludwig van Beethoven - Orchestra of the Eighteenth Century, Frans Brüggen - 2012 - Beethoven: The Symphonies [FLAC]/02/02 - Symphony No. 2 in D major (Opus 36, 1802): Larghetto quasi andante.flac

Track gain : 1.71 dB
Peak : 0.660431
CRC32 hash (test run) : 55B6EE41
CRC32 hash : 55B6EE41
CRC32 hash (skip zero) : 1A458A95
AccurateRip v1 signature : 6DE2F0F9
AccurateRip v2 signature : A0F880AA
->Track not present in AccurateRip database.
Statistics
Read error : 0
Jitter error (maybe fixed) : 0
Retry sector count : 0
Damaged sector count : 0

Track 03
Filename : /Users/Hobbes/Desktop/Ludwig van Beethoven - Orchestra of the Eighteenth Century, Frans Brüggen - 2012 - Beethoven: The Symphonies [FLAC]/02/03 - Symphony No. 2 in D major (Opus 36, 1802): Scherzo: Allegro.flac

Track gain : 0.03 dB
Peak : 0.838623
CRC32 hash (test run) : CEDDD483
CRC32 hash : CEDDD483
CRC32 hash (skip zero) : 89597853
AccurateRip v1 signature : 0416127B
AccurateRip v2 signature : FBA81D9D
->Track not present in AccurateRip database.
Statistics
Read error : 0
Jitter error (maybe fixed) : 0
Retry sector count : 0
Damaged sector count : 0

Track 04
Filename : /Users/Hobbes/Desktop/Ludwig van Beethoven - Orchestra of the Eighteenth Century, Frans Brüggen - 2012 - Beethoven: The Symphonies [FLAC]/02/04 - Symphony No. 2 in D major (Opus 36, 1802): Allegro molto.flac

Track gain : -1.42 dB
Peak : 0.991425
CRC32 hash (test run) : 923059E7
CRC32 hash : 923059E7
CRC32 hash (skip zero) : 4D09E388
AccurateRip v1 signature : 7A748CAD
AccurateRip v2 signature : 3844CF7A
->Track not present in AccurateRip database.
Statistics
Read error : 0
Jitter error (maybe fixed) : 0
Retry sector count : 0
Damaged sector count : 0

Track 05
Filename : /Users/Hobbes/Desktop/Ludwig van Beethoven - Orchestra of the Eighteenth Century, Frans Brüggen - 2012 - Beethoven: The Symphonies [FLAC]/02/05 - Symphony No. 4 in B flat major (Opus 60, 1806): Adagio – Allegro vivace.flac
Pre-gap length : 00:08:51

Track gain : -1.07 dB
Peak : 0.835846
CRC32 hash (test run) : A1F78611
CRC32 hash : A1F78611
CRC32 hash (skip zero) : 16B5FF4D
AccurateRip v1 signature : 20742D0E
AccurateRip v2 signature : 00C6E760
->Track not present in AccurateRip database.
Statistics
Read error : 0
Jitter error (maybe fixed) : 0
Retry sector count : 0
Damaged sector count : 0

Track 06
Filename : /Users/Hobbes/Desktop/Ludwig van Beethoven - Orchestra of the Eighteenth Century, Frans Brüggen - 2012 - Beethoven: The Symphonies [FLAC]/02/06 - Symphony No. 4 in B flat major (Opus 60, 1806): Adagio.flac

Track gain : 1.82 dB
Peak : 1.000000
CRC32 hash (test run) : 171ED736
CRC32 hash : 171ED736
CRC32 hash (skip zero) : 397A46C8
AccurateRip v1 signature : 082CD241
AccurateRip v2 signature : FD575FF1
->Track not present in AccurateRip database.
Statistics
Read error : 0
Jitter error (maybe fixed) : 0
Retry sector count : 0
Damaged sector count : 0

Track 07
Filename : /Users/Hobbes/Desktop/Ludwig van Beethoven - Orchestra of the Eighteenth Century, Frans Brüggen - 2012 - Beethoven: The Symphonies [FLAC]/02/07 - Symphony No. 4 in B flat major (Opus 60, 1806): Allegro vivace.flac

Track gain : -0.70 dB
Peak : 0.803528
CRC32 hash (test run) : EDC02D8B
CRC32 hash : EDC02D8B
CRC32 hash (skip zero) : CF7AA613
AccurateRip v1 signature : F1134F0D
AccurateRip v2 signature : 7EE59B2A
->Track not present in AccurateRip database.
Statistics
Read error : 0
Jitter error (maybe fixed) : 0
Retry sector count : 0
Damaged sector count : 0

Track 08
Filename : /Users/Hobbes/Desktop/Ludwig van Beethoven - Orchestra of the Eighteenth Century, Frans Brüggen - 2012 - Beethoven: The Symphonies [FLAC]/02/08 - Symphony No. 4 in B flat major (Opus 60, 1806): Allegro ma non troppo.flac

Track gain : -0.84 dB
Peak : 0.865814
CRC32 hash (test run) : 4622E3F9
CRC32 hash : 4622E3F9
CRC32 hash (skip zero) : 01B8FA90
AccurateRip v1 signature : FB30A110
AccurateRip v2 signature : 094B87F5
->Track not present in AccurateRip database.
Statistics
Read error : 0
Jitter error (maybe fixed) : 0
Retry sector count : 0
Damaged sector count : 0

No errors occurred

End of status report

X Lossless Decoder version 20121222 (142.2)

XLD extraction logfile from 2013-01-22 20:54:51 -0500

Orchestra of the Eighteenth Century, Frans Brüggen / Beethoven: The Symphonies

Used drive : HL-DT-ST DVDRW GSA-S10N (revision BP10)
Media type : Pressed CD

Ripper mode : XLD Secure Ripper
Disable audio cache : OK for the drive with a cache less than 1375KiB
Make use of C2 pointers : NO
Read offset correction : 667
Max retry count : 20
Gap status : Analyzed, Appended (except HTOA)

TOC of the extracted CD
Track | Start | Length | Start sector | End sector
––––––––––––––––––––––––––––-
1 | 00:00:00 | 11:30:12 | 0 | 51761
2 | 11:30:12 | 12:38:35 | 51762 | 108646
3 | 24:08:47 | 05:33:56 | 108647 | 133677
4 | 29:42:28 | 03:22:59 | 133678 | 148886
5 | 33:05:12 | 09:43:72 | 148887 | 192683
6 | 42:49:09 | 07:27:54 | 192684 | 226262
7 | 50:16:63 | 09:57:74 | 226263 | 271111
8 | 60:14:62 | 05:01:71 | 271112 | 293757
9 | 65:16:58 | 10:31:01 | 293758 | 341083

AccurateRip Summary
Disc not found in AccurateRip DB.

All Tracks
Album gain : 0.67 dB
Peak : 0.889465
Statistics
Read error : 0
Jitter error (maybe fixed) : 0
Retry sector count : 0
Damaged sector count : 0

Track 01
Filename : /Users/Hobbes/Desktop/Ludwig van Beethoven - Orchestra of the Eighteenth Century, Frans Brüggen - 2012 - Beethoven: The Symphonies [FLAC]/03/01 - Symphony No. 6 in F major, 'Pastorale' (Opus 68, 1806-1808): I. Allegro ma non troppo: ‘Erwachen heiterer Empfindungen bei der Ankunft auf dem Lande’.flac
Pre-gap length : 00:02:00

Track gain : 2.49 dB
Peak : 0.631317
CRC32 hash (test run) : 95A8874D
CRC32 hash : 95A8874D
CRC32 hash (skip zero) : 62C396CD
AccurateRip v1 signature : 1DB68F15
AccurateRip v2 signature : B551B707
->Track not present in AccurateRip database.
Statistics
Read error : 0
Jitter error (maybe fixed) : 0
Retry sector count : 0
Damaged sector count : 0

Track 02
Filename : /Users/Hobbes/Desktop/Ludwig van Beethoven - Orchestra of the Eighteenth Century, Frans Brüggen - 2012 - Beethoven: The Symphonies [FLAC]/03/02 - Symphony No. 6 in F major, 'Pastorale' (Opus 68, 1806-1808): II. Andante molto mosso: ‘Szene am Bach.flac

Track gain : 6.28 dB
Peak : 0.389740
CRC32 hash (test run) : DB2407AC
CRC32 hash : DB2407AC
CRC32 hash (skip zero) : 6B5BA7D6
AccurateRip v1 signature : 304646BD
AccurateRip v2 signature : 651DEA65
->Track not present in AccurateRip database.
Statistics
Read error : 0
Jitter error (maybe fixed) : 0
Retry sector count : 0
Damaged sector count : 0

Track 03
Filename : /Users/Hobbes/Desktop/Ludwig van Beethoven - Orchestra of the Eighteenth Century, Frans Brüggen - 2012 - Beethoven: The Symphonies [FLAC]/03/03 - Symphony No. 6 in F major, 'Pastorale' (Opus 68, 1806-1808): III. Allegro: ‘Lustiges Zusammensein der Landleute.flac

Track gain : 1.48 dB
Peak : 0.606445
CRC32 hash (test run) : 360A2865
CRC32 hash : 360A2865
CRC32 hash (skip zero) : 0BA010F1
AccurateRip v1 signature : C91FBF49
AccurateRip v2 signature : 432F8574
->Track not present in AccurateRip database.
Statistics
Read error : 0
Jitter error (maybe fixed) : 0
Retry sector count : 0
Damaged sector count : 0

Track 04
Filename : /Users/Hobbes/Desktop/Ludwig van Beethoven - Orchestra of the Eighteenth Century, Frans Brüggen - 2012 - Beethoven: The Symphonies [FLAC]/03/04 - Symphony No. 6 in F major, 'Pastorale' (Opus 68, 1806-1808): IV. Allegro: ‘Gewitter, Sturm.flac

Track gain : -1.21 dB
Peak : 0.889465
CRC32 hash (test run) : 6F97DD98
CRC32 hash : 6F97DD98
CRC32 hash (skip zero) : 4AD36761
AccurateRip v1 signature : 8F3E04DA
AccurateRip v2 signature : 216F5099
->Track not present in AccurateRip database.
Statistics
Read error : 0
Jitter error (maybe fixed) : 0
Retry sector count : 0
Damaged sector count : 0

Track 05
Filename : /Users/Hobbes/Desktop/Ludwig van Beethoven - Orchestra of the Eighteenth Century, Frans Brüggen - 2012 - Beethoven: The Symphonies [FLAC]/03/05 - Symphony No. 6 in F major, 'Pastorale' (Opus 68, 1806-1808): V. Allegretto: ‘Hirtensang, frohe und dankbare Gefühle nach dem Sturm’.flac

Track gain : 0.97 dB
Peak : 0.665100
CRC32 hash (test run) : CE9569DA
CRC32 hash : CE9569DA
CRC32 hash (skip zero) : 223F1F08
AccurateRip v1 signature : 05190A42
AccurateRip v2 signature : 205D7634
->Track not present in AccurateRip database.
Statistics
Read error : 0
Jitter error (maybe fixed) : 0
Retry sector count : 0
Damaged sector count : 0

Track 06
Filename : /Users/Hobbes/Desktop/Ludwig van Beethoven - Orchestra of the Eighteenth Century, Frans Brüggen - 2012 - Beethoven: The Symphonies [FLAC]/03/06 - Symphony No. 5 in C minor (Opus 67, 1808): I. Allegro con brio.flac
Pre-gap length : 00:08:09

Track gain : -0.34 dB
Peak : 0.888092
CRC32 hash (test run) : 0FE81269
CRC32 hash : 0FE81269
CRC32 hash (skip zero) : DE732315
AccurateRip v1 signature : 7805E291
AccurateRip v2 signature : 9F339FEA
->Track not present in AccurateRip database.
Statistics
Read error : 0
Jitter error (maybe fixed) : 0
Retry sector count : 0
Damaged sector count : 0

Track 07
Filename : /Users/Hobbes/Desktop/Ludwig van Beethoven - Orchestra of the Eighteenth Century, Frans Brüggen - 2012 - Beethoven: The Symphonies [FLAC]/03/07 - Symphony No. 5 in C minor (Opus 67, 1808): II. Andante con moto.flac

Track gain : 2.67 dB
Peak : 0.653595
CRC32 hash (test run) : 7B63202C
CRC32 hash : 7B63202C
CRC32 hash (skip zero) : 3F1E2788
AccurateRip v1 signature : C344C77F
AccurateRip v2 signature : 6819D6CB
->Track not present in AccurateRip database.
Statistics
Read error : 0
Jitter error (maybe fixed) : 0
Retry sector count : 0
Damaged sector count : 0

Track 08
Filename : /Users/Hobbes/Desktop/Ludwig van Beethoven - Orchestra of the Eighteenth Century, Frans Brüggen - 2012 - Beethoven: The Symphonies [FLAC]/03/08 - Symphony No. 5 in C minor (Opus 67, 1808): III. Allegro.flac

Track gain : 2.98 dB
Peak : 0.780396
CRC32 hash (test run) : 91F41109
CRC32 hash : 91F41109
CRC32 hash (skip zero) : 9319506C
AccurateRip v1 signature : 85D725CE
AccurateRip v2 signature : 2452B453
->Track not present in AccurateRip database.
Statistics
Read error : 0
Jitter error (maybe fixed) : 0
Retry sector count : 0
Damaged sector count : 0

Track 09
Filename : /Users/Hobbes/Desktop/Ludwig van Beethoven - Orchestra of the Eighteenth Century, Frans Brüggen - 2012 - Beethoven: The Symphonies [FLAC]/03/09 - Symphony No. 5 in C minor (Opus 67, 1808): IV. Allegro.flac

Track gain : -1.18 dB
Peak : 0.828369
CRC32 hash (test run) : 9E02474F
CRC32 hash : 9E02474F
CRC32 hash (skip zero) : 59C9B510
AccurateRip v1 signature : B71CA45A
AccurateRip v2 signature : D27114CE
->Track not present in AccurateRip database.
Statistics
Read error : 0
Jitter error (maybe fixed) : 0
Retry sector count : 0
Damaged sector count : 0

No errors occurred

End of status report

X Lossless Decoder version 20121222 (142.2)

XLD extraction logfile from 2013-01-22 21:28:52 -0500

Orchestra of the Eighteenth Century, Frans Brüggen / Beethoven: The Symphonies

Used drive : HL-DT-ST DVDRW GSA-S10N (revision BP10)
Media type : Pressed CD

Ripper mode : XLD Secure Ripper
Disable audio cache : OK for the drive with a cache less than 1375KiB
Make use of C2 pointers : NO
Read offset correction : 667
Max retry count : 20
Gap status : Analyzed, Appended (except HTOA)

TOC of the extracted CD
Track | Start | Length | Start sector | End sector
––––––––––––––––––––––––––––-
1 | 00:00:00 | 09:41:08 | 0 | 43582
2 | 09:41:08 | 04:15:41 | 43583 | 62748
3 | 13:56:49 | 04:41:71 | 62749 | 83894
4 | 18:38:45 | 07:49:18 | 83895 | 119087
5 | 26:27:63 | 15:02:21 | 119088 | 186758
6 | 41:30:09 | 08:49:28 | 186759 | 226461
7 | 50:19:37 | 09:26:08 | 226462 | 268919
8 | 59:45:45 | 09:01:28 | 268920 | 309522

AccurateRip Summary
Disc not found in AccurateRip DB.

All Tracks
Album gain : 0.84 dB
Peak : 0.860260
Statistics
Read error : 0
Jitter error (maybe fixed) : 0
Retry sector count : 0
Damaged sector count : 0

Track 01
Filename : /Users/Hobbes/Desktop/Ludwig van Beethoven - Orchestra of the Eighteenth Century, Frans Brüggen - 2012 - Beethoven: The Symphonies [FLAC]/04/01 - Symphony No. 8 in F major (Opus 93, 1812): I. Allegro vivace e con brio.flac
Pre-gap length : 00:02:00

Track gain : 0.87 dB
Peak : 0.844086
CRC32 hash (test run) : 44FE8F8C
CRC32 hash : 44FE8F8C
CRC32 hash (skip zero) : B1D15AF1
AccurateRip v1 signature : 3C5133B9
AccurateRip v2 signature : 1AA2C64C
->Track not present in AccurateRip database.
Statistics
Read error : 0
Jitter error (maybe fixed) : 0
Retry sector count : 0
Damaged sector count : 0

Track 02
Filename : /Users/Hobbes/Desktop/Ludwig van Beethoven - Orchestra of the Eighteenth Century, Frans Brüggen - 2012 - Beethoven: The Symphonies [FLAC]/04/02 - Symphony No. 8 in F major (Opus 93, 1812): II. Allegretto scherzando.flac

Track gain : 7.29 dB
Peak : 0.370483
CRC32 hash (test run) : B0FE7275
CRC32 hash : B0FE7275
CRC32 hash (skip zero) : E0122FA5
AccurateRip v1 signature : BC1044D1
AccurateRip v2 signature : 2093FC45
->Track not present in AccurateRip database.
Statistics
Read error : 0
Jitter error (maybe fixed) : 0
Retry sector count : 0
Damaged sector count : 0

Track 03
Filename : /Users/Hobbes/Desktop/Ludwig van Beethoven - Orchestra of the Eighteenth Century, Frans Brüggen - 2012 - Beethoven: The Symphonies [FLAC]/04/03 - Symphony No. 8 in F major (Opus 93, 1812): III. Tempo di menuetto e trio.flac

Track gain : 3.42 dB
Peak : 0.543121
CRC32 hash (test run) : 36425584
CRC32 hash : 36425584
CRC32 hash (skip zero) : CB80AD9E
AccurateRip v1 signature : 051A2581
AccurateRip v2 signature : BD42EE43
->Track not present in AccurateRip database.
Statistics
Read error : 0
Jitter error (maybe fixed) : 0
Retry sector count : 0
Damaged sector count : 0

Track 04
Filename : /Users/Hobbes/Desktop/Ludwig van Beethoven - Orchestra of the Eighteenth Century, Frans Brüggen - 2012 - Beethoven: The Symphonies [FLAC]/04/04 - Symphony No. 8 in F major (Opus 93, 1812): IV. Allegro vivace.flac

Track gain : 0.61 dB
Peak : 0.860260
CRC32 hash (test run) : D4698C1A
CRC32 hash : D4698C1A
CRC32 hash (skip zero) : E32486A2
AccurateRip v1 signature : 2F873E85
AccurateRip v2 signature : D6658226
->Track not present in AccurateRip database.
Statistics
Read error : 0
Jitter error (maybe fixed) : 0
Retry sector count : 0
Damaged sector count : 0

Track 05
Filename : /Users/Hobbes/Desktop/Ludwig van Beethoven - Orchestra of the Eighteenth Century, Frans Brüggen - 2012 - Beethoven: The Symphonies [FLAC]/04/05 - Symphony No. 7 in A major (Opus 92, 1812): I. Poco sostenuto - Vivace.flac
Pre-gap length : 00:09:18

Track gain : 0.30 dB
Peak : 0.827423
CRC32 hash (test run) : F62D37DC
CRC32 hash : F62D37DC
CRC32 hash (skip zero) : B1C99AD4
AccurateRip v1 signature : 6817CD34
AccurateRip v2 signature : 271E7469
->Track not present in AccurateRip database.
Statistics
Read error : 0
Jitter error (maybe fixed) : 0
Retry sector count : 0
Damaged sector count : 0

Track 06
Filename : /Users/Hobbes/Desktop/Ludwig van Beethoven - Orchestra of the Eighteenth Century, Frans Brüggen - 2012 - Beethoven: The Symphonies [FLAC]/04/06 - Symphony No. 7 in A major (Opus 92, 1812): II. Allegretto.flac

Track gain : 4.94 dB
Peak : 0.679291
CRC32 hash (test run) : C33CC36E
CRC32 hash : C33CC36E
CRC32 hash (skip zero) : E53E1AC8
AccurateRip v1 signature : 7586CFDC
AccurateRip v2 signature : ED63183F
->Track not present in AccurateRip database.
Statistics
Read error : 0
Jitter error (maybe fixed) : 0
Retry sector count : 0
Damaged sector count : 0

Track 07
Filename : /Users/Hobbes/Desktop/Ludwig van Beethoven - Orchestra of the Eighteenth Century, Frans Brüggen - 2012 - Beethoven: The Symphonies [FLAC]/04/07 - Symphony No. 7 in A major (Opus 92, 1812): III. Presto - Assai meno presto.flac

Track gain : 0.30 dB
Peak : 0.824402
CRC32 hash (test run) : F6CEC2B4
CRC32 hash : F6CEC2B4
CRC32 hash (skip zero) : D34D55D1
AccurateRip v1 signature : 4DCCDEFF
AccurateRip v2 signature : FEA99B21
->Track not present in AccurateRip database.
Statistics
Read error : 0
Jitter error (maybe fixed) : 0
Retry sector count : 0
Damaged sector count : 0

Track 08
Filename : /Users/Hobbes/Desktop/Ludwig van Beethoven - Orchestra of the Eighteenth Century, Frans Brüggen - 2012 - Beethoven: The Symphonies [FLAC]/04/08 - Symphony No. 7 in A major (Opus 92, 1812): IV. Allegro con brio.flac

Track gain : 0.21 dB
Peak : 0.798889
CRC32 hash (test run) : 821E8589
CRC32 hash : 821E8589
CRC32 hash (skip zero) : B65671D6
AccurateRip v1 signature : 8EB92B1C
AccurateRip v2 signature : CC373263
->Track not present in AccurateRip database.
Statistics
Read error : 0
Jitter error (maybe fixed) : 0
Retry sector count : 0
Damaged sector count : 0

No errors occurred

End of status report

X Lossless Decoder version 20121222 (142.2)

XLD extraction logfile from 2013-01-22 22:02:27 -0500

Orchestra of the Eighteenth Century; Frans Brüggen / Beethoven: The Symphonies

Used drive : HL-DT-ST DVDRW GSA-S10N (revision BP10)
Media type : Pressed CD

Ripper mode : XLD Secure Ripper
Disable audio cache : OK for the drive with a cache less than 1375KiB
Make use of C2 pointers : NO
Read offset correction : 667
Max retry count : 20
Gap status : Analyzed, Appended (except HTOA)

TOC of the extracted CD
Track | Start | Length | Start sector | End sector
––––––––––––––––––––––––––––-
1 | 00:00:00 | 14:39:70 | 0 | 65994
2 | 14:39:70 | 14:00:54 | 65995 | 129048
3 | 28:40:49 | 12:51:15 | 129049 | 186888
4 | 41:31:64 | 05:55:52 | 186889 | 213565
5 | 47:27:41 | 00:44:65 | 213566 | 216930
6 | 48:12:31 | 02:32:22 | 216931 | 228352
7 | 50:44:53 | 04:27:03 | 228353 | 248380
8 | 55:11:56 | 03:42:56 | 248381 | 265086
9 | 58:54:37 | 02:05:64 | 265087 | 274525
10 | 61:00:26 | 04:09:45 | 274526 | 293245

AccurateRip Summary
Disc not found in AccurateRip DB.

All Tracks
Album gain : 1.97 dB
Peak : 0.857208
Statistics
Read error : 0
Jitter error (maybe fixed) : 0
Retry sector count : 0
Damaged sector count : 0

Track 01
Filename : /Users/Hobbes/Desktop/Ludwig van Beethoven - Orchestra of the Eighteenth Century; Frans Brüggen - 2012 - Beethoven: The Symphonies [FLAC]/05/01 - Symphony No. 9 in D minor (Opus 125, 1824): I. Allegro ma non troppo, un poco maestoso.flac
Pre-gap length : 00:02:00

Track gain : 2.69 dB
Peak : 0.693542
CRC32 hash (test run) : C0889C3E
CRC32 hash : C0889C3E
CRC32 hash (skip zero) : 00C2E8B5
AccurateRip v1 signature : D4473B3C
AccurateRip v2 signature : 45B2FFE0
->Track not present in AccurateRip database.
Statistics
Read error : 0
Jitter error (maybe fixed) : 0
Retry sector count : 0
Damaged sector count : 0

Track 02
Filename : /Users/Hobbes/Desktop/Ludwig van Beethoven - Orchestra of the Eighteenth Century; Frans Brüggen - 2012 - Beethoven: The Symphonies [FLAC]/05/02 - Symphony No. 9 in D minor (Opus 125, 1824): II. Molto vivace.flac

Track gain : 2.75 dB
Peak : 0.663116
CRC32 hash (test run) : E63D7E8F
CRC32 hash : E63D7E8F
CRC32 hash (skip zero) : E2D3CA06
AccurateRip v1 signature : 78FFB04C
AccurateRip v2 signature : 37AF2AA2
->Track not present in AccurateRip database.
Statistics
Read error : 0
Jitter error (maybe fixed) : 0
Retry sector count : 0
Damaged sector count : 0

Track 03
Filename : /Users/Hobbes/Desktop/Ludwig van Beethoven - Orchestra of the Eighteenth Century; Frans Brüggen - 2012 - Beethoven: The Symphonies [FLAC]/05/03 - Symphony No. 9 in D minor (Opus 125, 1824): III. Adagio molto e cantabile.flac

Track gain : 9.18 dB
Peak : 0.493103
CRC32 hash (test run) : F557B97E
CRC32 hash : F557B97E
CRC32 hash (skip zero) : 2894DBBA
AccurateRip v1 signature : 3A2B6680
AccurateRip v2 signature : 083F5922
->Track not present in AccurateRip database.
Statistics
Read error : 0
Jitter error (maybe fixed) : 0
Retry sector count : 0
Damaged sector count : 0

Track 04
Filename : /Users/Hobbes/Desktop/Ludwig van Beethoven - Orchestra of the Eighteenth Century; Frans Brüggen - 2012 - Beethoven: The Symphonies [FLAC]/05/04 - Symphony No. 9 in D minor (Opus 125, 1824): IV. Presto.flac

Track gain : 3.76 dB
Peak : 0.510956
CRC32 hash (test run) : C8F20A61
CRC32 hash : C8F20A61
CRC32 hash (skip zero) : CD289C90
AccurateRip v1 signature : 5A3F19A0
AccurateRip v2 signature : 707C61C6
->Track not present in AccurateRip database.
Statistics
Read error : 0
Jitter error (maybe fixed) : 0
Retry sector count : 0
Damaged sector count : 0

Track 05
Filename : /Users/Hobbes/Desktop/Ludwig van Beethoven - Orchestra of the Eighteenth Century; Frans Brüggen - 2012 - Beethoven: The Symphonies [FLAC]/05/05 - Symphony No. 9 in D minor (Opus 125, 1824): V. 'O Freunde, nicht diese Töne!'.flac

Track gain : 2.54 dB
Peak : 0.489868
CRC32 hash (test run) : F343280A
CRC32 hash : F343280A
CRC32 hash (skip zero) : 0E9F9BC9
AccurateRip v1 signature : 8C2A07E1
AccurateRip v2 signature : C01FC9B7
->Track not present in AccurateRip database.
Statistics
Read error : 0
Jitter error (maybe fixed) : 0
Retry sector count : 0
Damaged sector count : 0

Track 06
Filename : /Users/Hobbes/Desktop/Ludwig van Beethoven - Orchestra of the Eighteenth Century; Frans Brüggen - 2012 - Beethoven: The Symphonies [FLAC]/05/06 - Symphony No. 9 in D minor (Opus 125, 1824): VI. Allegro assai: 'Ode an die Freude'.flac

Track gain : -0.38 dB
Peak : 0.693390
CRC32 hash (test run) : 63389716
CRC32 hash : 63389716
CRC32 hash (skip zero) : 73E37962
AccurateRip v1 signature : 984F58BA
AccurateRip v2 signature : E78FBF38
->Track not present in AccurateRip database.
Statistics
Read error : 0
Jitter error (maybe fixed) : 0
Retry sector count : 0
Damaged sector count : 0

Track 07
Filename : /Users/Hobbes/Desktop/Ludwig van Beethoven - Orchestra of the Eighteenth Century; Frans Brüggen - 2012 - Beethoven: The Symphonies [FLAC]/05/07 - Symphony No. 9 in D minor (Opus 125, 1824): VII. Alla marcia: Allegro vivace assai.flac

Track gain : 1.07 dB
Peak : 0.819061
CRC32 hash (test run) : 6385D408
CRC32 hash : 6385D408
CRC32 hash (skip zero) : C4F20FB5
AccurateRip v1 signature : B9346C4E
AccurateRip v2 signature : B5B198DE
->Track not present in AccurateRip database.
Statistics
Read error : 0
Jitter error (maybe fixed) : 0
Retry sector count : 0
Damaged sector count : 0

Track 08
Filename : /Users/Hobbes/Desktop/Ludwig van Beethoven - Orchestra of the Eighteenth Century; Frans Brüggen - 2012 - Beethoven: The Symphonies [FLAC]/05/08 - Symphony No. 9 in D minor (Opus 125, 1824): VIII. Andante maestoso - Adagio non troppo ma divoto.flac

Track gain : 1.93 dB
Peak : 0.567780
CRC32 hash (test run) : E69EE182
CRC32 hash : E69EE182
CRC32 hash (skip zero) : E4D0BE78
AccurateRip v1 signature : 1A19ED5E
AccurateRip v2 signature : 741BECB2
->Track not present in AccurateRip database.
Statistics
Read error : 0
Jitter error (maybe fixed) : 0
Retry sector count : 0
Damaged sector count : 0

Track 09
Filename : /Users/Hobbes/Desktop/Ludwig van Beethoven - Orchestra of the Eighteenth Century; Frans Brüggen - 2012 - Beethoven: The Symphonies [FLAC]/05/09 - Symphony No. 9 in D minor (Opus 125, 1824): IX. Allegro energico, sempre ben marcato.flac

Track gain : -0.46 dB
Peak : 0.694611
CRC32 hash (test run) : 6164B589
CRC32 hash : 6164B589
CRC32 hash (skip zero) : 11E1AEA1
AccurateRip v1 signature : 05964408
AccurateRip v2 signature : D7A5CBB7
->Track not present in AccurateRip database.
Statistics
Read error : 0
Jitter error (maybe fixed) : 0
Retry sector count : 0
Damaged sector count : 0

Track 10
Filename : /Users/Hobbes/Desktop/Ludwig van Beethoven - Orchestra of the Eighteenth Century; Frans Brüggen - 2012 - Beethoven: The Symphonies [FLAC]/05/10 - Symphony No. 9 in D minor (Opus 125, 1824): X. Allegro ma non tanto.flac

Track gain : -0.91 dB
Peak : 0.857208
CRC32 hash (test run) : 034B661F
CRC32 hash : 034B661F
CRC32 hash (skip zero) : 3346A072
AccurateRip v1 signature : 4DF564A6
AccurateRip v2 signature : F47D756F
->Track not present in AccurateRip database.
Statistics
Read error : 0
Jitter error (maybe fixed) : 0
Retry sector count : 0
Damaged sector count : 0

No errors occurred

End of status report


Thanks to the original releaser
Download:

Filepost

CD 1 | CD 2 | CD 3 | CD 4 | CD 5
Scans

Uploaded

CD 1 | CD 2 | CD 3 | CD 4 | CD 5
Scans