Subcategories

Bernard Haitink, Berliner Philharmoniker, Isabelle Faust - Beethoven: Violin Concerto & Symphony No.6 (2015) [Blu-Ray]

Posted By: Vilboa
Bernard Haitink, Berliner Philharmoniker, Isabelle Faust - Beethoven: Violin Concerto & Symphony No.6 (2015) [Blu-Ray]

Bernard Haitink, Berliner Philharmoniker, Isabelle Faust - Beethoven: Violin Concerto & Symphony No.6 (2015) [Blu-Ray]
BluRay | BDMV | MPEG-4 AVC Video / 24499 kbps / 1080i / 29,970 fps | 90 min | 20,6 Gb
Audio1: LPCM Audio / 2.0 / 24-bit | Audio2: DTS-HD Master Audio / 5.1 / 48 kHz / 3584 kbps / 24-bit

BluRay-rip | AVC | MKV 1920x1080 / 6215 kbps / 29,97 fps | 4,88 Gb
Audio: DTS / 6ch / 48.0 KHz / 24 bits
Classical | EuroArts

In 2015 the Berliner Philharmoniker dedicated an evening of their renowned Easter Festival in Baden-Baden to one of the most famous and beloved of German composers, Ludwig van Beethoven. Together with Bernard Haitink, a universally acclaimed authority on the works of that composer, they performed Beethoven’s exquisite expression of nature, his Symphony No. 6, the “Pastoral”. They were joined for Beethoven’s Violin Concerto by Isabelle Faust, whose interpretation of the work has enjoyed widespread acclaim.

Cast:
Isabelle Faust, violin
Berliner Philharmoniker
Conductor - Bernard Haitink

Track List:
01. Opening
Violin Concerto in D Major, Op. 61
02. I. Allegro ma non troppo
03. II. Larghetto
04. III. Rondo: Allegro
Symphony No. 6 in F major, Op. 68 "Pastoral"
05. I. Allegro ma non troppo
06. II. Andante molto mosso
07. III. Allegro
08. IV. Allegro
09. V. Allegretto
10. Applause & End Credits


Disc Title: EASTER_CONCERT_2015
Disc Size: 22 170 113 072 bytes
Protection: AACS
BD-Java: No
Playlist: 00000.MPLS
Size: 21 771 479 040 bytes
Length: 1:30:29.524
Total Bitrate: 32,08 Mbps
Video: MPEG-4 AVC Video / 24499 kbps / 1080i / 29,970 fps / 16:9 / High Profile 4.1
Audio: Undetermined / LPCM Audio / 2.0 / 48 kHz / 2304 kbps / 24-bit
Audio: Undetermined / DTS-HD Master Audio / 5.1 / 48 kHz / 3584 kbps / 24-bit (DTS Core: 5.1 / 48 kHz / 1509 kbps / 24-bit)


General
Unique ID : 208356875160268378051097306539989839501 (0x9CC013125E0183649BB46523B396AE8D)
Complete name : C:\Beethoven_Violin_Concerto_and_Symphony_No_6.mkv
Format : Matroska
Format version : Version 2
File size : 4.88 GiB
Duration : 1h 30mn
Overall bit rate : 7 725 Kbps
Movie name : Beethoven_Violin_Concerto_and_Symphony_No_6
Encoded date : UTC 2018-03-30 08:55:57
Writing application : DVDFab 9.1.6.8
Writing library : libebml v0.7.8 + libmatroska v0.8.1

Video
ID : 1
Format : AVC
Format/Info : Advanced Video Codec
Format profile : High@L4.1
Format settings, CABAC : Yes
Format settings, ReFrames : 2 frames
Codec ID : V_MPEG4/ISO/AVC
Duration : 1h 30mn
Bit rate : 6 215 Kbps
Width : 1 920 pixels
Height : 1 080 pixels
Display aspect ratio : 16:9
Frame rate mode : Constant
Frame rate : 29.970 fps
Color space : YUV
Chroma subsampling : 4:2:0
Bit depth : 8 bits
Scan type : Progressive
Bits/(Pixel*Frame) : 0.100
Stream size : 3.83 GiB (78%)
Writing library : x264 core 142
Encoding settings : cabac=1 / ref=1 / deblock=1:-1:-1 / analyse=0x3:0 / me=hex / subme=5 / psy=0 / mixed_ref=0 / me_range=16 / chroma_me=1 / trellis=0 / 8x8dct=1 / cqm=0 / deadzone=21,11 / fast_pskip=1 / chroma_qp_offset=0 / threads=8 / lookahead_threads=2 / sliced_threads=0 / nr=0 / decimate=1 / interlaced=0 / bluray_compat=0 / constrained_intra=0 / bframes=2 / b_pyramid=0 / b_adapt=1 / b_bias=0 / direct=1 / weightb=1 / open_gop=0 / weightp=0 / keyint=24 / keyint_min=13 / scenecut=40 / intra_refresh=0 / rc=abr / mbtree=0 / bitrate=6215 / ratetol=1.0 / qcomp=0.60 / qpmin=0 / qpmax=69 / qpstep=4 / ip_ratio=1.40 / pb_ratio=1.30 / aq=1:1.00
Default : Yes
Forced : No
Color primaries : BT.709
Transfer characteristics : BT.709
Matrix coefficients : BT.709
Color range : Limited

Audio
ID : 2
Format : DTS
Format/Info : Digital Theater Systems
Mode : 16
Format settings, Endianness : Big
Codec ID : A_DTS
Duration : 1h 30mn
Bit rate mode : Constant
Bit rate : 1 509 Kbps
Channel(s) : 6 channels
Channel positions : Front: L C R, Side: L R, LFE
Sampling rate : 48.0 KHz
Bit depth : 24 bits
Compression mode : Lossy
Stream size : 977 MiB (20%)
Default : Yes
Forced : No

Menu
00:00:00.000 : en:Chapter 01
00:00:55.388 : en:Chapter 02
00:24:17.556 : en:Chapter 03
00:33:11.990 : en:Chapter 04
00:44:14.918 : en:Chapter 05
00:56:38.027 : en:Chapter 06
01:08:36.078 : en:Chapter 07
01:14:13.081 : en:Chapter 08
01:18:12.154 : en:Chapter 09
01:28:05.079 : en:Chapter 10

All screenshots taken from BDRip

Bernard Haitink, Berliner Philharmoniker, Isabelle Faust - Beethoven: Violin Concerto & Symphony No.6 (2015) [Blu-Ray]