Believe - Seven Widows (2017)

Posted By: popsakov
Believe - Seven Widows (2017)

Believe - Seven Widows (2017)
EAC Rip | FLAC (Img) + Cue + Log ~ 483 Mb | MP3 CBR320 ~ 179 Mb
Scans Included (JPG, 300 dpi) | RAR 5% Recovery
Neo Progressive Rock | mmrecords.pl #5907222821008

BELIEVE is the project of former COLLAGE guitarist Mirek Gil, who together with Tomek Rozcki (vocals, guitars), Adam Milosz (keyboards, hidden harmonies), Przemas Zawadzki (bass), Vlodi Tafel (drums), Satomi (violin), and Robert Sieradzki (lyrics, vocals) create a rather unique form of Neo Progressive Rock. Mixing the often melancholic Neo-Prog shown on COLLAGE's "Moonshine" with a bit more of a harder, metal edge, BELIEVE form an intriguing style of experimental and unconventional progressive rock.

***************

Believe - Seven Widows (2017)

Track List:

01. I [10:50]
02. II [9:09]
03. II [8:13]
04. IV [11:43]
05. V [8:36]
06. VI [8:38]
07. VII [8:19]

Personnel:
Łukasz Ociepa - vocals
Mirek Gil - guitar
Przemas Zawadzki - bass guitar
Robert "Qba" Kubajek - drums
Satomi - violin, keyboards

Exact Audio Copy V1.0 beta 2 from 29. April 2011

EAC extraction logfile from 25. October 2017, 17:01

Believe / Seven Widows

Used drive : ASUS DRW-24B3ST Adapter: 0 ID: 0

Read mode : Secure
Utilize accurate stream : Yes
Defeat audio cache : Yes
Make use of C2 pointers : No

Read offset correction : 6
Overread into Lead-In and Lead-Out : No
Fill up missing offset samples with silence : Yes
Delete leading and trailing silent blocks : No
Null samples used in CRC calculations : Yes
Used interface : Native Win32 interface for Win NT & 2000

Used output format : User Defined Encoder
Selected bitrate : 1024 kBit/s
Quality : High
Add ID3 tag : No
Command line compressor : C:\Program Files (x86)\Exact Audio Copy\Flac\flac.exe
Additional command line options : -8 -V -T "ARTIST=%artist%" -T "TITLE=%title%" -T "ALBUM=%albumtitle%" -T "DATE=%year%" -T "TRACKNUMBER=%tracknr%" -T "TOTALTRACKS=%numtracks%" -T "GENRE=%genre%" -T "ALBUMARTIST=%albumartist%" -T "ALBUM ARTIST=%albumartist%


TOC of the extracted CD

Track | Start | Length | Start sector | End sector
––––––––––––––––––––––––––––-
1 | 0:00.00 | 10:49.51 | 0 | 48725
2 | 10:49.51 | 9:08.44 | 48726 | 89869
3 | 19:58.20 | 8:12.40 | 89870 | 126809
4 | 28:10.60 | 11:42.71 | 126810 | 179530
5 | 39:53.56 | 8:35.64 | 179531 | 218219
6 | 48:29.45 | 8:37.44 | 218220 | 257038
7 | 57:07.14 | 8:19.28 | 257039 | 294491


Range status and errors

Selected range

Filename D:\Yurek Private\Upy\BELIEVE (2017) - Seven Widows\Believe - Seven Widows.wav

Peak level 98.9 %
Extraction speed 6.0 X
Range quality 99.9 %
Test CRC 16B0246F
Copy CRC 16B0246F
Copy OK

No errors occurred


AccurateRip summary

Track 1 not present in database
Track 2 not present in database
Track 3 not present in database
Track 4 not present in database
Track 5 not present in database
Track 6 not present in database
Track 7 not present in database

None of the tracks are present in the AccurateRip database

End of status report

==== Log checksum 67692F0189B81EDE193BDE751598A1861570BB793D0C95615F848FAB9051DD90 ====

foobar2000 1.3.16 / Dynamic Range Meter 1.1.1
log date: 2017-11-17 01:59:33

––––––––––––––––––––––––––––––––––––––––
Analyzed: Believe / Seven Widows
––––––––––––––––––––––––––––––––––––––––

DR Peak RMS Duration Track
––––––––––––––––––––––––––––––––––––––––
DR7 -0.09 dB -9.35 dB 10:50 01-I
DR6 -0.09 dB -8.22 dB 9:09 02-II
DR6 -0.09 dB -7.79 dB 8:13 03-II
DR7 -0.09 dB -8.67 dB 11:43 04-IV
DR6 -0.09 dB -8.04 dB 8:36 05-V
DR6 -0.09 dB -8.03 dB 8:38 06-VI
DR6 -0.09 dB -7.68 dB 8:19 07-VII
––––––––––––––––––––––––––––––––––––––––

Number of tracks: 7
Official DR value: DR6

Samplerate: 44100 Hz
Channels: 2
Bits per sample: 16
Bitrate: 937 kbps
Codec: FLAC
================================================================================

[CUETools log; Date: 17.11.2017 1:59:35; Version: 2.1.5]
[CTDB TOCID: 8p0ltmHftlmtbD2sm6Kuu3ilibE-] found.
Track | CTDB Status
1 | (4/4) Accurately ripped
2 | (4/4) Accurately ripped
3 | (4/4) Accurately ripped
4 | (4/4) Accurately ripped
5 | (4/4) Accurately ripped
6 | (4/4) Accurately ripped
7 | (4/4) Accurately ripped
[AccurateRip ID: 001288e0-006e6b87-550f5607] disk not present in database.

Track Peak [ CRC32 ] [W/O NULL] [ LOG ]
– 98,9 [16B0246F] [12C05696] CRC32
01 98,9 [ECAF18ED] [EF8EEA05]
02 98,9 [09861FCC] [B112E779]
03 98,9 [72E3C516] [F4A17C4F]
04 98,9 [E5481C51] [496F557A]
05 98,9 [A8975EBF] [C9AC3947]
06 98,9 [B29D9570] [13B5E803]
07 98,9 [DA7A22CC] [50449829]

Believe - Seven Widows (2017)

All thanks go to ayurek & wurensh

>>> My Blog <<<

Download from icerbox.com: