Subcategories

Bellini - La Straniera (Anton Guadagno, Montserrat Caballe) [1994]

Posted By: Sowulo
Bellini - La Straniera (Anton Guadagno, Montserrat Caballe) [1994]

Bellini - La Straniera (Anton Guadagno, Montserrat Caballe) [1994]
EAC Rip | FLAC, IMG+CUE, LOG | Covers | 2cd, 283.46 MB
Classical | Label: Gala | Catalog Number: GL 100.516

Bellinis rare Oper "La Straniera" entstand unter großem Zeitdruck und kann deshalb nicht die dramatische Wirkung entfalten, wie es etwa "Norma" tut. Auch ist das Libretto nicht das Beste. Dennoch findet sich hier viel zauberhafte, mitreißende Musik, sodass sich die Anschaffung besonders für den Liebhaber lohnt. Diese Aufnahme hier einer (konzertanten?) Aufführung von 1969 profitiert vor allem von einer jungen Montserrat Caballe, die einfach alles gibt. Der Klang ist nicht perfekt, etwas dumpf und unscharf in den Höhen, aber auf jeden fall noch hörbar.

Performer:
Alaide, la Straniera - Montserrat Caballé
Il Barone di Valdeburgo - Vincente Sardinero
Il signore di Montelino – Don Yule
Isoletta – Maria Casoni
Arturo - Amadeo Zambon
Il Priore degli Spedalieri – Alan Ord
Osburgo – Clifford Billions
Coro e Orchestra della American Opera Society
Conductor – Anton Guadagno
New York, March 22, 1969

Bonus: Norma (Atto Secondo)
Norma - Montserrat Caballé
Adalgisa - Fiorenza Cossotto
Clotilde – Teresa Batlle
Orchestra of the Liceo, Barcelona
Conductor – Carlo Felice Cillario
Barcelona, January 11, 1970

Tracklisting:
CD1
01. Atto I. Voga, voga, il vento tace (Coro)
02. Triste e pensosa (Valdeburso, Isoletta)
03. La Straniera! (Coro, Isoletta, Valdeburgo, Montolino)
04. Oh tu che sai gli spasimi (Isoletta, Valdeburgo, Montolino, Osburgo)
05. E sgombro il loco (Arturo, Alaide)
06. Serba, serba i tuoi segreti (Arturo, Alaide)
07. Campi ai veltri (Coro, Osburgo)
08. Ti trovo alfin (Valdeburgo, Arturo)
09. Eccola! (Arturo, Alaide, Valdeburgo)
10. No, non ti sono rivale (Valdeburgo, Arturo, Alaide)
11. Che mai penso? (Arturo, Osburgo, coro)
12. Ah, non partir (Alaide, Valdeburgo, Arturo)
13. Leopoldo! (Arturo, Valdeburgo, Alaide, coro, Osburgo)
CD2
01. Atto II. T'appressa… e il ver rispondi (Priore, Alaide, Arturo, Valdeburgo)
02. Meco tu vieni, o misera (Valdeburgo, Alaide, Priore)
03. A tempio io giungo (Arturo, Valdeburgo)
04. Ne' alcun retorna (Isoletta, coro)
05. E dolce la vergine (Coro, Arturo, Valdeburgo, Isoletta)
06. Valdeburgo! (Priore, Montolino, Arturo)
07. Che far vuoi tu? (Valdeburgo, Arturo, Isoletta, Alaide)
08. Sono all'ara (Alaide)
09. Ciel pietoso (Alaide, coro)
10. Vaneggia (Coro, Arturo, Alaide, Priore, Valdeburgo)
11. NORMA (Atto II): Dormono entrambe - Mi chiami, O Norma!
12. Deh! con te
13. Mira, o Norma… Cedi, deh cedi

Exact Audio Copy V1.0 beta 1 from 15. November 2010

EAC extraction logfile from 17. July 2011, 15:50

Anton Guadagno, M.Caballe, A.Zambon, M.Casoni, V.Sardinero / Bellini - La Straniera CD1

Used drive : PIONEER DVD-RW DVR-218L Adapter: 1 ID: 0

Read mode : Secure
Utilize accurate stream : Yes
Defeat audio cache : Yes
Make use of C2 pointers : No

Read offset correction : 6
Overread into Lead-In and Lead-Out : No
Fill up missing offset samples with silence : Yes
Delete leading and trailing silent blocks : No
Null samples used in CRC calculations : Yes
Used interface : Native Win32 interface for Win NT & 2000

Used output format : User Defined Encoder
Selected bitrate : 192 kBit/s
Quality : High
Add ID3 tag : No
Command line compressor : C:\Program Files\Exact Audio Copy\Flac\flac.exe
Additional command line options : -T "DATE=%y" -T "GENRE=%m" -8 -V %s


TOC of the extracted CD

Track | Start | Length | Start sector | End sector
––––––––––––––––––––––––––––-
1 | 0:00.32 | 5:05.43 | 32 | 22949
2 | 5:06.00 | 4:33.15 | 22950 | 43439
3 | 9:39.15 | 1:17.22 | 43440 | 49236
4 | 10:56.37 | 2:21.08 | 49237 | 59819
5 | 13:17.45 | 10:42.35 | 59820 | 108004
6 | 24:00.05 | 6:33.15 | 108005 | 137494
7 | 30:33.20 | 3:10.65 | 137495 | 151809
8 | 33:44.10 | 2:50.02 | 151810 | 164561
9 | 36:34.12 | 3:11.58 | 164562 | 178944
10 | 39:45.70 | 5:50.72 | 178945 | 205266
11 | 45:36.67 | 6:00.63 | 205267 | 232329
12 | 51:37.55 | 4:25.20 | 232330 | 252224
13 | 56:03.00 | 8:41.00 | 252225 | 291299


Range status and errors

Selected range

Filename C:\Bellini - La Straniera CD1.wav

Peak level 97.9 %
Extraction speed 0.2 X
Range quality 100.0 %
Test CRC BC442541
Copy CRC BC442541
Copy OK

No errors occurred


AccurateRip summary

Track 1 accurately ripped (confidence 2) [1BEE6BA5]
Track 2 accurately ripped (confidence 2) [6155E6A5]
Track 3 accurately ripped (confidence 2) [F09D46AD]
Track 4 accurately ripped (confidence 2) [B9440A43]
Track 5 accurately ripped (confidence 2) [B3F356FE]
Track 6 accurately ripped (confidence 2) [35F1AD08]
Track 7 accurately ripped (confidence 2) [22F68842]
Track 8 accurately ripped (confidence 2) [18CFEA44]
Track 9 accurately ripped (confidence 2) [611727E9]
Track 10 accurately ripped (confidence 2) [716461BC]
Track 11 accurately ripped (confidence 2) [55FEAAB9]
Track 12 accurately ripped (confidence 2) [8DC1FBD3]
Track 13 accurately ripped (confidence 2) [C8DEE4A6]

All tracks accurately ripped

End of status report

==== Log checksum A94F24F5A757D4714E24CC727140DE49A64D2042BDD9D7C105B9435B8BE7656A ====

Exact Audio Copy V1.0 beta 1 from 15. November 2010

EAC extraction logfile from 17. July 2011, 17:43

Anton Guadagno, M.Caballe, A.Zambon, M.Casoni, V.Sardinero / Bellini - La Straniera CD2

Used drive : PIONEER DVD-RW DVR-218L Adapter: 1 ID: 0

Read mode : Secure
Utilize accurate stream : Yes
Defeat audio cache : Yes
Make use of C2 pointers : No

Read offset correction : 6
Overread into Lead-In and Lead-Out : No
Fill up missing offset samples with silence : Yes
Delete leading and trailing silent blocks : No
Null samples used in CRC calculations : Yes
Used interface : Native Win32 interface for Win NT & 2000

Used output format : User Defined Encoder
Selected bitrate : 192 kBit/s
Quality : High
Add ID3 tag : No
Command line compressor : C:\Program Files\Exact Audio Copy\Flac\flac.exe
Additional command line options : -T "DATE=%y" -T "GENRE=%m" -8 -V %s


TOC of the extracted CD

Track | Start | Length | Start sector | End sector
––––––––––––––––––––––––––––-
1 | 0:00.32 | 6:22.18 | 32 | 28699
2 | 6:22.50 | 4:04.47 | 28700 | 47046
3 | 10:27.22 | 7:04.58 | 47047 | 78904
4 | 17:32.05 | 9:27.27 | 78905 | 121456
5 | 26:59.32 | 2:19.10 | 121457 | 131891
6 | 29:18.42 | 1:25.65 | 131892 | 138331
7 | 30:44.32 | 3:13.38 | 138332 | 152844
8 | 33:57.70 | 1:29.70 | 152845 | 159589
9 | 35:27.65 | 5:17.62 | 159590 | 183426
10 | 40:45.52 | 4:42.33 | 183427 | 204609
11 | 45:28.10 | 10:18.45 | 204610 | 251004
12 | 55:46.55 | 3:59.12 | 251005 | 268941
13 | 59:45.67 | 7:22.08 | 268942 | 302099


Range status and errors

Selected range

Filename C:\Bellini - La Straniera CD2.wav

Peak level 100.0 %
Extraction speed 0.1 X
Range quality 100.0 %
Test CRC CBF2C366
Copy CRC CBF2C366
Copy OK

No errors occurred


AccurateRip summary

Track 1 not present in database
Track 2 not present in database
Track 3 not present in database
Track 4 not present in database
Track 5 not present in database
Track 6 not present in database
Track 7 not present in database
Track 8 not present in database
Track 9 not present in database
Track 10 not present in database
Track 11 not present in database
Track 12 not present in database
Track 13 not present in database

None of the tracks are present in the AccurateRip database

End of status report

==== Log checksum 258AEE1BE323D629EA57E2A0E0139DE6347A16AE8045603A39791AD5BD9CFD8C ====