Subcategories

Bellowhead - Albums Collection 2006-2012 [4CD]

Posted By: Designol
Bellowhead - Albums Collection 2006-2012 [4CD]

Bellowhead - Albums Collection 2006-2012 [4CD]
EAC | FLAC | Tracks (Cue&Log) ~ 1.6 Gb (incl 5%) | Mp3 (CBR320/Stereo) ~ 694 Mb (incl 5%) | Scans included
Genre: British Folk, Indie Folk, Folk Rock | Time: 03:46:13

Although they began and continued to work as a duo, John Spiers (melodeon) and Jon Boden (fiddle and vocals) had a vision of a larger sound for their music. In 2004 they put together Bellowhead (the name derived from their album Bellow) to play the Oxford Folk Festival. The 11-piece group was an immediate success, its mix of strings and brass virtually unprecedented in traditional English folk music. They took the band into the studio that autumn to record a five-track teaser, E.P.onymous, which proved very popular with fans as well as industry folk, and settled into playing festival gigs (about the only ones that could afford them), increasing their repertoire and bedding in as a group. Something of a bidding war ensued to sign Bellowhead, with German label Westpark the eventual winners, and Burlesque, the full-length debut, appeared in 2006. The tighter Matachin, released in 2008, veered from dark cabaret to a mad New Orleans band. Umbrellowhead (2009) and Hedonism (2010) followed. The band also recorded the theme tune to BBC Radio 4’s iconic show The Archers' spin-off show Ambridge Extra. In 2011, they released a live DVD of their performance at Bournemouth’s O2 Academy, entitled Hedonism Live. A fourth album called Broadside was released in 2012, produced by John Leckie and recorded at Rockfields Studio, it was met with a positive response and performed well in the independent and national UK charts. The band toured the record across the UK and Europe during the latter part of 2012.

Biography by Chris Nickson, Allmusic.com
Bellowhead - Albums Collection 2006-2012 [4CD]



–––––––––––––––––––––––––––––––––––––––––-


Bellowhead - Albums Collection 2006-2012 [4CD]

Burlesque (2006)
EAC | FLAC | Tracks (Cue&Log) ~ 442 Mb (incl 5%) | Mp3 (CBR320/Stereo) ~ 218 Mb (incl 5%) | Scans included
Label: Westpark Music | # CD 87132 | Time: 01:00:19

If Tom Waits ever decided to make an album of traditional English folk, it might sound a little like Bellowhead, the folk big band. The aptly titled disc has a real circus quality to the sound, especially on the opener, "Rigs of the Time" and the more abstract "Flash Company," which make full use of the mix of brass and strings. But this very ambitious full-length debut takes in a great deal, from the ballad "Death and the Lady" to the more gospel-ish "Jordan" (actually a shanty tweaked a little) and some instrumentals, like "Sloe Gin" that have been expanded from their original form to sound very full (as well they might with an 11-piece group). "Courting Too Slow" is revisited from an early Spiers & Boden album, with Jon Boden showing just how his singing has improved, a mix of deep emotion and fairground barker. It's a record that's to be praised for the chances it takes – they could have played it fairly safe and been praised as groundbreaking – even though they don't all succeed. But even the failures, like the clumsy "Flash Company" are never less than interesting. Kudos to the producers, who bring clarity to a dense sound. This is a summation of the formation of this sound; where they take it will be the fascinating part.

Review by Chris Nickson, Allmusic.com
Tracklist:

01. Rigs Of The Time (03:57)
02. Jordan (04:07)
03. Across The Line (05:09)
04. London Town (03:53)
05. Sloe Gin (05:18)
06. Courting Too Slow (06:09)
07. Flash Company (03:10)
08. Hopkinsons Favourite (03:56)
09. One May Morning Early (02:50)
10. The Outlandish Knight (07:03)
11. Frogs Legs And Dragons Teeth (04:53)
12. Fire Marengo (04:02)
13. Death And The Lady (05:43)


Exact Audio Copy V1.0 beta 2 from 29. April 2011

EAC extraction logfile from 20. November 2012, 20:54

Bellowhead / Burlesque

Used drive : HL-DT-STDVD-RAM GH22LP20 Adapter: 0 ID: 0

Read mode : Secure
Utilize accurate stream : Yes
Defeat audio cache : Yes
Make use of C2 pointers : No

Read offset correction : 102
Overread into Lead-In and Lead-Out : No
Fill up missing offset samples with silence : Yes
Delete leading and trailing silent blocks : No
Null samples used in CRC calculations : Yes
Used interface : Installed external ASPI interface
Gap handling : Appended to previous track

Used output format : User Defined Encoder
Selected bitrate : 256 kBit/s
Quality : High
Add ID3 tag : No
Command line compressor : C:\Program Files\Exact Audio Copy\FLAC\FLAC.EXE
Additional command line options : -8 -V -T "ARTIST=%artist%" -T "TITLE=%title%" -T "ALBUM=%albumtitle%" -T "DATE=%year%" -T "TRACKNUMBER=%tracknr%" -T "GENRE=%genre%" -T "COMMENT=%comment%" %hascover%–picture="%coverfile%"%hascover% %source% -o %dest%


TOC of the extracted CD

Track | Start | Length | Start sector | End sector
––––––––––––––––––––––––––––-
1 | 0:00.00 | 3:57.69 | 0 | 17843
2 | 3:57.69 | 4:07.40 | 17844 | 36408
3 | 8:05.34 | 5:09.57 | 36409 | 59640
4 | 13:15.16 | 3:53.13 | 59641 | 77128
5 | 17:08.29 | 5:18.54 | 77129 | 101032
6 | 22:27.08 | 6:09.17 | 101033 | 128724
7 | 28:36.25 | 3:10.61 | 128725 | 143035
8 | 31:47.11 | 3:56.41 | 143036 | 160776
9 | 35:43.52 | 2:50.45 | 160777 | 173571
10 | 38:34.22 | 7:03.13 | 173572 | 205309
11 | 45:37.35 | 4:53.66 | 205310 | 227350
12 | 50:31.26 | 4:02.07 | 227351 | 245507
13 | 54:33.33 | 5:43.70 | 245508 | 271302


Track 1

Filename I:\Torrents 2\Bellowhead - Burlesque (2006) [FLAC]\01 - Rigs Of The Time.wav

Pre-gap length 0:00:02.00

Peak level 96.2 %
Extraction speed 1.7 X
Track quality 100.0 %
Test CRC 3D8EE417
Copy CRC 3D8EE417
Accurately ripped (confidence 4) [F5866171] (AR v2)
Copy OK

Track 2

Filename I:\Torrents 2\Bellowhead - Burlesque (2006) [FLAC]\02 - Jordan.wav

Pre-gap length 0:00:01.22

Peak level 96.3 %
Extraction speed 1.9 X
Track quality 100.0 %
Test CRC 91840C26
Copy CRC 91840C26
Accurately ripped (confidence 4) [5FD405D2] (AR v2)
Copy OK

Track 3

Filename I:\Torrents 2\Bellowhead - Burlesque (2006) [FLAC]\03 - Across The Line.wav

Pre-gap length 0:00:02.21

Peak level 96.2 %
Extraction speed 2.0 X
Track quality 99.9 %
Test CRC 00CB842B
Copy CRC 00CB842B
Accurately ripped (confidence 4) [95A4F9BD] (AR v2)
Copy OK

Track 4

Filename I:\Torrents 2\Bellowhead - Burlesque (2006) [FLAC]\04 - London Town.wav

Pre-gap length 0:00:01.65

Peak level 96.2 %
Extraction speed 2.3 X
Track quality 100.0 %
Test CRC 8E4E7B75
Copy CRC 8E4E7B75
Accurately ripped (confidence 4) [3EA56E32] (AR v2)
Copy OK

Track 5

Filename I:\Torrents 2\Bellowhead - Burlesque (2006) [FLAC]\05 - Sloe Gin.wav

Pre-gap length 0:00:01.42

Peak level 96.2 %
Extraction speed 2.3 X
Track quality 99.9 %
Test CRC 25105668
Copy CRC 25105668
Accurately ripped (confidence 4) [CACC1E25] (AR v2)
Copy OK

Track 6

Filename I:\Torrents 2\Bellowhead - Burlesque (2006) [FLAC]\06 - Courting Too Slow.wav

Pre-gap length 0:00:02.31

Peak level 97.1 %
Extraction speed 2.7 X
Track quality 100.0 %
Test CRC A4B77976
Copy CRC A4B77976
Accurately ripped (confidence 4) [706473BE] (AR v2)
Copy OK

Track 7

Filename I:\Torrents 2\Bellowhead - Burlesque (2006) [FLAC]\07 - Flash Company.wav

Pre-gap length 0:00:02.07

Peak level 83.1 %
Extraction speed 2.6 X
Track quality 100.0 %
Test CRC EC20262B
Copy CRC EC20262B
Accurately ripped (confidence 4) [7925BD28] (AR v2)
Copy OK

Track 8

Filename I:\Torrents 2\Bellowhead - Burlesque (2006) [FLAC]\08 - Hopkinsons Favourite.wav

Pre-gap length 0:00:01.66

Peak level 96.3 %
Extraction speed 2.8 X
Track quality 100.0 %
Test CRC 326C0A1C
Copy CRC 326C0A1C
Accurately ripped (confidence 4) [68344965] (AR v2)
Copy OK

Track 9

Filename I:\Torrents 2\Bellowhead - Burlesque (2006) [FLAC]\09 - One May Morning Early.wav

Pre-gap length 0:00:02.12

Peak level 96.2 %
Extraction speed 2.7 X
Track quality 100.0 %
Test CRC D4249175
Copy CRC D4249175
Accurately ripped (confidence 4) [D5851899] (AR v2)
Copy OK

Track 10

Filename I:\Torrents 2\Bellowhead - Burlesque (2006) [FLAC]\10 - The Outlandish Knight.wav

Pre-gap length 0:00:01.43

Peak level 96.3 %
Extraction speed 3.2 X
Track quality 100.0 %
Test CRC ED99F120
Copy CRC ED99F120
Accurately ripped (confidence 4) [6FDD230A] (AR v2)
Copy OK

Track 11

Filename I:\Torrents 2\Bellowhead - Burlesque (2006) [FLAC]\11 - Frogs Legs And Dragons Teeth.wav

Pre-gap length 0:00:02.13

Peak level 96.2 %
Extraction speed 3.2 X
Track quality 100.0 %
Test CRC B215479E
Copy CRC B215479E
Accurately ripped (confidence 4) [A4DBFA2C] (AR v2)
Copy OK

Track 12

Filename I:\Torrents 2\Bellowhead - Burlesque (2006) [FLAC]\12 - Fire Marengo.wav

Pre-gap length 0:00:01.59

Peak level 96.2 %
Extraction speed 3.3 X
Track quality 100.0 %
Test CRC 96D4B5FF
Copy CRC 96D4B5FF
Accurately ripped (confidence 4) [01F3FEEE] (AR v2)
Copy OK

Track 13

Filename I:\Torrents 2\Bellowhead - Burlesque (2006) [FLAC]\13 - Death And The Lady.wav

Pre-gap length 0:00:02.57

Peak level 87.1 %
Extraction speed 3.2 X
Track quality 99.9 %
Test CRC 168DB851
Copy CRC 168DB851
Accurately ripped (confidence 4) [EEA5C794] (AR v2)
Copy OK


All tracks accurately ripped

No errors occurred

End of status report

==== Log checksum 4F480D6136693A80088036377C0F8D57E9D48092F2A21BC9144C4FB1812F9F1A ====

foobar2000 1.2.1 / Dynamic Range Meter 1.1.1
log date: 2013-01-24 14:27:27

––––––––––––––––––––––––––––––––––––––––
Analyzed: Bellowhead / Burlesque
––––––––––––––––––––––––––––––––––––––––

DR Peak RMS Duration Track
––––––––––––––––––––––––––––––––––––––––
DR11 -0.33 dB -14.27 dB 3:58 01-Rigs Of The Time
DR11 -0.32 dB -14.06 dB 4:08 02-Jordan
DR13 -0.34 dB -15.54 dB 5:10 03-Across The Line
DR10 -0.33 dB -13.31 dB 3:53 04-London Town
DR10 -0.33 dB -13.20 dB 5:19 05-Sloe Gin
DR12 -0.25 dB -16.39 dB 6:09 06-Courting Too Slow
DR10 -1.60 dB -17.07 dB 3:11 07-Flash Company
DR11 -0.32 dB -13.81 dB 3:57 08-Hopkinsons Favourite
DR12 -0.33 dB -15.92 dB 2:51 09-One May Morning Early
DR10 -0.32 dB -14.76 dB 7:03 10-The Outlandish Knight
DR11 -0.33 dB -14.40 dB 4:54 11-Frogs Legs And Dragons Teeth
DR11 -0.33 dB -13.31 dB 4:02 12-Fire Marengo
DR11 -1.20 dB -15.45 dB 5:44 13-Death And The Lady
––––––––––––––––––––––––––––––––––––––––

Number of tracks: 13
Official DR value: DR11

Samplerate: 44100 Hz
Channels: 2
Bits per sample: 16
Bitrate: 820 kbps
Codec: FLAC
================================================================================


–––––––––––––––––––––––––––––––––––––––––-


Bellowhead - Albums Collection 2006-2012 [4CD]

Matachin (2008)
EAC | FLAC | Tracks (Cue&Log) ~ 374 Mb (incl 5%) | Mp3 (CBR320/Stereo) ~ 136 Mb (incl 5%) | Scans included
Label: Navigator Records | # NAVIGATOR17 | Time: 00:52:02

Full credit to Bellowhead. After the occasional chaos of their first album, live gigging tightened them up a lot, and for their sophomore effort, they come up with a variety of material and arrangements that really play to their instrumental and vocal strengths. For the most part the music is still traditional, but in many ways you'd hardly know it, since stylistically it pretty much falls out of time, sometimes like a dark cabaret, sometimes like a New Orleans brass band lurching madly. Jon Boden's voice continues to progress, and it's quite commanding these days, especially on something like "Fakenham Fair" or the creepy "Widow's Curse." There's plenty of fire among the musicians, and although the arrangements can be quite complex, they gobble them up with glee, especially on something like "Cholera Camp," a Kipling poem by way of Peter Bellamy. They're a completely integrated band now, rather than Boden and the rest, nobody really stands out from the pack, and that's become one of their strengths. As before, there are a couple of sea shanties, both lustily performed, and much of the choice of material is off the beaten path, avoiding comparisons to well-known versions, and thus allowing them to put their stamp on it. As a folk big band, there's no one around even remotely like them, and that's a good thing – they'd certainly be hard to emulate.

Review by Chris Nickson, Allmusic.com
Tracklist:

01. Fakenham Fair (04:59)
02. Roll Her Down The Bay (03:27)
03. Vignette I (00:40)
04. I Drew My Ship Across The Harbour (04:15)
05. Kafoozalum-The Priests Miss (05:31)
06. Cholera Camp (06:08)
07. Vignette II (00:45)
08. Whiskey Is The Life Of Man (03:22)
09. Spectre Review (05:23)
10. Widows Curse (05:33)
11. Bruton Town (05:33)
12. Trip To Bucharest-The Flight Of The Folk Mutants Parts 1-2 (05:34)
13. Vignette III (00:48)


Exact Audio Copy V1.0 beta 2 from 29. April 2011

EAC extraction logfile from 24. November 2012, 21:11

Bellowhead / Matachin

Used drive : HL-DT-STDVD-RAM GH22LP20 Adapter: 0 ID: 0

Read mode : Secure
Utilize accurate stream : Yes
Defeat audio cache : Yes
Make use of C2 pointers : No

Read offset correction : 102
Overread into Lead-In and Lead-Out : No
Fill up missing offset samples with silence : Yes
Delete leading and trailing silent blocks : No
Null samples used in CRC calculations : Yes
Used interface : Installed external ASPI interface
Gap handling : Appended to previous track

Used output format : User Defined Encoder
Selected bitrate : 256 kBit/s
Quality : High
Add ID3 tag : No
Command line compressor : C:\Program Files\Exact Audio Copy\FLAC\FLAC.EXE
Additional command line options : -8 -V -T "ARTIST=%artist%" -T "TITLE=%title%" -T "ALBUM=%albumtitle%" -T "DATE=%year%" -T "TRACKNUMBER=%tracknr%" -T "GENRE=%genre%" -T "COMMENT=%comment%" %hascover%–picture="%coverfile%"%hascover% %source% -o %dest%


TOC of the extracted CD

Track | Start | Length | Start sector | End sector
––––––––––––––––––––––––––––-
1 | 0:00.00 | 4:59.46 | 0 | 22470
2 | 4:59.46 | 3:27.23 | 22471 | 38018
3 | 8:26.69 | 0:40.41 | 38019 | 41059
4 | 9:07.35 | 4:15.28 | 41060 | 60212
5 | 13:22.63 | 5:31.35 | 60213 | 85072
6 | 18:54.23 | 6:08.11 | 85073 | 112683
7 | 25:02.34 | 0:45.11 | 112684 | 116069
8 | 25:47.45 | 3:22.26 | 116070 | 131245
9 | 29:09.71 | 5:23.06 | 131246 | 155476
10 | 34:33.02 | 5:33.31 | 155477 | 180482
11 | 40:06.33 | 5:33.61 | 180483 | 205518
12 | 45:40.19 | 5:34.29 | 205519 | 230597
13 | 51:14.48 | 0:48.42 | 230598 | 234239


Track 1

Filename I:\Torrents 2\Bellowhead - Matachin (2008) [FLAC]\01 - Fakenham Fair.wav

Pre-gap length 0:00:02.00

Peak level 99.9 %
Extraction speed 1.6 X
Track quality 100.0 %
Test CRC FC0221D8
Copy CRC FC0221D8
Accurately ripped (confidence 6) [31794AFB] (AR v2)
Copy OK

Track 2

Filename I:\Torrents 2\Bellowhead - Matachin (2008) [FLAC]\02 - Roll Her Down The Bay.wav

Pre-gap length 0:00:00.09

Peak level 100.0 %
Extraction speed 1.7 X
Track quality 100.0 %
Test CRC 885677E8
Copy CRC 885677E8
Accurately ripped (confidence 6) [54028B13] (AR v2)
Copy OK

Track 3

Filename I:\Torrents 2\Bellowhead - Matachin (2008) [FLAC]\03 - Vignette I.wav

Pre-gap length 0:00:00.50

Peak level 60.4 %
Extraction speed 1.1 X
Track quality 100.0 %
Test CRC 364ADD86
Copy CRC 364ADD86
Accurately ripped (confidence 6) [F0B58713] (AR v2)
Copy OK

Track 4

Filename I:\Torrents 2\Bellowhead - Matachin (2008) [FLAC]\04 - I Drew My Ship Across The Harbour.wav

Pre-gap length 0:00:00.23

Peak level 99.9 %
Extraction speed 2.0 X
Track quality 100.0 %
Test CRC 0043172D
Copy CRC 0043172D
Accurately ripped (confidence 6) [E497F0DA] (AR v2)
Copy OK

Track 5

Filename I:\Torrents 2\Bellowhead - Matachin (2008) [FLAC]\05 - Kafoozalum-The Priests Miss.wav

Pre-gap length 0:00:01.43

Peak level 100.0 %
Extraction speed 2.2 X
Track quality 100.0 %
Test CRC 3B0E4D75
Copy CRC 3B0E4D75
Accurately ripped (confidence 6) [A002E623] (AR v2)
Copy OK

Track 6

Filename I:\Torrents 2\Bellowhead - Matachin (2008) [FLAC]\06 - Cholera Camp.wav

Pre-gap length 0:00:00.66

Peak level 100.0 %
Extraction speed 2.3 X
Track quality 99.9 %
Test CRC E7F53F99
Copy CRC E7F53F99
Accurately ripped (confidence 6) [687FD61D] (AR v2)
Copy OK

Track 7

Filename I:\Torrents 2\Bellowhead - Matachin (2008) [FLAC]\07 - Vignette II.wav

Pre-gap length 0:00:02.35

Peak level 56.2 %
Extraction speed 1.0 X
Track quality 99.7 %
Test CRC A142375B
Copy CRC A142375B
Accurately ripped (confidence 6) [8F07F267] (AR v2)
Copy OK

Track 8

Filename I:\Torrents 2\Bellowhead - Matachin (2008) [FLAC]\08 - Whiskey Is The Life Of Man.wav

Peak level 100.0 %
Extraction speed 2.4 X
Track quality 100.0 %
Test CRC AFB7BE5D
Copy CRC AFB7BE5D
Accurately ripped (confidence 6) [4CC4FF1F] (AR v2)
Copy OK

Track 9

Filename I:\Torrents 2\Bellowhead - Matachin (2008) [FLAC]\09 - Spectre Review.wav

Pre-gap length 0:00:01.09

Peak level 100.0 %
Extraction speed 2.7 X
Track quality 100.0 %
Test CRC 2DBAF999
Copy CRC 2DBAF999
Accurately ripped (confidence 6) [63742D18] (AR v2)
Copy OK

Track 10

Filename I:\Torrents 2\Bellowhead - Matachin (2008) [FLAC]\10 - Widows Curse.wav

Pre-gap length 0:00:00.57

Peak level 100.0 %
Extraction speed 2.9 X
Track quality 100.0 %
Test CRC 66C9A236
Copy CRC 66C9A236
Accurately ripped (confidence 6) [C22636C8] (AR v2)
Copy OK

Track 11

Filename I:\Torrents 2\Bellowhead - Matachin (2008) [FLAC]\11 - Bruton Town.wav

Pre-gap length 0:00:01.64

Peak level 100.0 %
Extraction speed 3.0 X
Track quality 100.0 %
Test CRC 92A28BE9
Copy CRC 92A28BE9
Accurately ripped (confidence 6) [A6B26D87] (AR v2)
Copy OK

Track 12

Filename I:\Torrents 2\Bellowhead - Matachin (2008) [FLAC]\12 - Trip To Bucharest-The Flight Of The Folk Mutants Parts 1-2.wav

Pre-gap length 0:00:00.57

Peak level 100.0 %
Extraction speed 2.8 X
Track quality 99.9 %
Test CRC 709AB837
Copy CRC 709AB837
Accurately ripped (confidence 6) [B334E191] (AR v2)
Copy OK

Track 13

Filename I:\Torrents 2\Bellowhead - Matachin (2008) [FLAC]\13 - Vignette III.wav

Pre-gap length 0:00:01.26

Peak level 29.4 %
Extraction speed 2.0 X
Track quality 100.0 %
Test CRC 261BD04E
Copy CRC 261BD04E
Accurately ripped (confidence 6) [D0B51603] (AR v2)
Copy OK


All tracks accurately ripped

No errors occurred

End of status report

==== Log checksum D57D9583FA608FC75A0FA8FBCFA649916B26193E1DB158FE1EC7A5CA8E6F7D9E ====

foobar2000 1.2.1 / Dynamic Range Meter 1.1.1
log date: 2013-01-24 14:28:36

––––––––––––––––––––––––––––––––––––––––
Analyzed: Bellowhead / Matachin
––––––––––––––––––––––––––––––––––––––––

DR Peak RMS Duration Track
––––––––––––––––––––––––––––––––––––––––
DR8 -0.01 dB -9.64 dB 5:00 01-Fakenham Fair
DR9 0.00 dB -10.13 dB 3:27 02-Roll Her Down The Bay
DR13 -4.38 dB -22.18 dB 0:41 03-Vignette I
DR8 0.00 dB -9.81 dB 4:15 04-I Drew My Ship Across The Harbour
DR8 0.00 dB -9.89 dB 5:31 05-Kafoozalum-The Priests Miss
DR8 0.00 dB -10.53 dB 6:08 06-Cholera Camp
DR13 -5.00 dB -24.27 dB 0:45 07-Vignette II
DR8 0.00 dB -9.65 dB 3:22 08-Whiskey Is The Life Of Man
DR9 0.00 dB -11.90 dB 5:23 09-Spectre Review
DR9 0.00 dB -10.12 dB 5:33 10-Widows Curse
DR8 0.00 dB -9.39 dB 5:34 11-Bruton Town
DR8 0.00 dB -9.64 dB 5:34 12-Trip To Bucharest-The Flight Of The Folk Mutants Parts 1-2
DR13 -10.61 dB -28.06 dB 0:49 13-Vignette III
––––––––––––––––––––––––––––––––––––––––

Number of tracks: 13
Official DR value: DR9

Samplerate: 44100 Hz
Channels: 2
Bits per sample: 16
Bitrate: 540 kbps
Codec: FLAC
================================================================================


–––––––––––––––––––––––––––––––––––––––––-


Bellowhead - Albums Collection 2006-2012 [4CD]

Umbrellowhead (2009)
EAC | FLAC | Tracks (Cue&Log) ~ 470 Mb (incl 5%) | Mp3 (CBR320/Stereo) ~ 179 Mb (incl 5%) | Scans included
Label: P&C Megafone Records | # MEGAFONE112 | Time: 01:07:14

'Umbrellowhead' is a collection of songs from individual members of the mighty musical juggernaught bellowhead. Remarkably when this multi-award winning collective are not busy touring the world, recording as bellowhead or appearing in a myriad of musical projects, the 11 members also find time to explore individual projects. From marimba to fiddle, from the balkans to bangladesh and onwards to japan, some of the staggering range of influences of this accomplished and original group are revealed in this latest album.
Tracklist:

01. Bellowhead - Unclothed Nocturnal Manuscript Crisis (03:46)
02. Chavo - Ganka's Song (Gankino) (05:10)
03. Rachael McShane - The Fisherman (04:26)
04. Pete Flood - Master Kilby (04:30)
05. Belshazzar's Feast - Rondo A La Turkey (04:19)
06. Benji Kirkpatrick - Wallbreaker (04:35)
07. Jon Boden - Beating The Bounds (04:31)
08. Setsubun Bean Unit - Gujo Ondo (04:36)
09. Justin Thurgur - The Beginning (08:05)
10. Faustus - The New Deserter (05:58)
11. Hannah James & Sam Sweeney - Gaol Song (04:09)
12. Spiers & Boden - Tom Padget (05:31)
13. Farmyard Animals Trio - Marunouchi (04:24)
14. The Choir Of Christ Church Cathedral, Dublin - Psalm 143 (03:09)


Exact Audio Copy V1.0 beta 2 from 29. April 2011

EAC extraction logfile from 2. January 2013, 13:45

Bellowhead / Umbrellowhead

Used drive : HL-DT-STDVD-RAM GH22LP20 Adapter: 0 ID: 0

Read mode : Secure
Utilize accurate stream : Yes
Defeat audio cache : Yes
Make use of C2 pointers : No

Read offset correction : 102
Overread into Lead-In and Lead-Out : No
Fill up missing offset samples with silence : Yes
Delete leading and trailing silent blocks : No
Null samples used in CRC calculations : Yes
Used interface : Installed external ASPI interface
Gap handling : Appended to previous track

Used output format : User Defined Encoder
Selected bitrate : 256 kBit/s
Quality : High
Add ID3 tag : No
Command line compressor : C:\Program Files\Exact Audio Copy\FLAC\FLAC.EXE
Additional command line options : -8 -V -T "ARTIST=%artist%" -T "TITLE=%title%" -T "ALBUM=%albumtitle%" -T "DATE=%year%" -T "TRACKNUMBER=%tracknr%" -T "GENRE=%genre%" -T "COMMENT=%comment%" %hascover%–picture="%coverfile%"%hascover% %source% -o %dest%


TOC of the extracted CD

Track | Start | Length | Start sector | End sector
––––––––––––––––––––––––––––-
1 | 0:00.00 | 3:46.03 | 0 | 16952
2 | 3:46.03 | 5:10.03 | 16953 | 40205
3 | 8:56.06 | 4:26.44 | 40206 | 60199
4 | 13:22.50 | 4:30.07 | 60200 | 80456
5 | 17:52.57 | 4:19.22 | 80457 | 99903
6 | 22:12.04 | 4:35.46 | 99904 | 120574
7 | 26:47.50 | 4:31.29 | 120575 | 140928
8 | 31:19.04 | 4:36.29 | 140929 | 161657
9 | 35:55.33 | 8:05.66 | 161658 | 198098
10 | 44:01.24 | 5:58.53 | 198099 | 225001
11 | 50:00.02 | 4:09.39 | 225002 | 243715
12 | 54:09.41 | 5:31.06 | 243716 | 268546
13 | 59:40.47 | 4:24.25 | 268547 | 288371
14 | 64:04.72 | 3:09.11 | 288372 | 302557


Track 1

Filename I:\Torrents 2\Bellowhead - Umbrellowhead (2009) [FLAC]\01 - Bellowhead - Unclothed Nocturnal Manuscript Crisis.wav

Pre-gap length 0:00:02.00

Peak level 97.7 %
Extraction speed 1.5 X
Track quality 100.0 %
Test CRC F16CC7F9
Copy CRC F16CC7F9
Accurately ripped (confidence 2) [3614E663] (AR v1)
Copy OK

Track 2

Filename I:\Torrents 2\Bellowhead - Umbrellowhead (2009) [FLAC]\02 - Chavo - Ganka's Song.wav

Peak level 97.7 %
Extraction speed 1.8 X
Track quality 100.0 %
Test CRC C1D69FCF
Copy CRC C1D69FCF
Accurately ripped (confidence 2) [DB8A650C] (AR v1)
Copy OK

Track 3

Filename I:\Torrents 2\Bellowhead - Umbrellowhead (2009) [FLAC]\03 - Rachel McShane - The Fisherman.wav

Peak level 97.7 %
Extraction speed 1.7 X
Track quality 99.9 %
Test CRC 35903205
Copy CRC 35903205
Accurately ripped (confidence 2) [7F0162B1] (AR v1)
Copy OK

Track 4

Filename I:\Torrents 2\Bellowhead - Umbrellowhead (2009) [FLAC]\04 - Pete Flood - Master Kilby.wav

Peak level 97.7 %
Extraction speed 2.1 X
Track quality 100.0 %
Test CRC 67C40318
Copy CRC 67C40318
Accurately ripped (confidence 2) [C35077C2] (AR v1)
Copy OK

Track 5

Filename I:\Torrents 2\Bellowhead - Umbrellowhead (2009) [FLAC]\05 - Belshazzar's Feast - Rondo A La Turkey.wav

Peak level 97.7 %
Extraction speed 2.0 X
Track quality 99.9 %
Test CRC 3799505A
Copy CRC 3799505A
Accurately ripped (confidence 2) [49E47FDB] (AR v1)
Copy OK

Track 6

Filename I:\Torrents 2\Bellowhead - Umbrellowhead (2009) [FLAC]\06 - Benji Kirkpatrick - Wallbreaker.wav

Peak level 97.7 %
Extraction speed 2.4 X
Track quality 100.0 %
Test CRC ED97A318
Copy CRC ED97A318
Accurately ripped (confidence 2) [1C4937C7] (AR v1)
Copy OK

Track 7

Filename I:\Torrents 2\Bellowhead - Umbrellowhead (2009) [FLAC]\07 - Jon Boden - Beating The Bounds.wav

Peak level 97.7 %
Extraction speed 2.5 X
Track quality 100.0 %
Test CRC A1AD0962
Copy CRC A1AD0962
Accurately ripped (confidence 2) [B63F313E] (AR v1)
Copy OK

Track 8

Filename I:\Torrents 2\Bellowhead - Umbrellowhead (2009) [FLAC]\08 - Setsubun Bean Unit - Gujo Ondo.wav

Peak level 97.7 %
Extraction speed 2.6 X
Track quality 100.0 %
Test CRC 5F197EB1
Copy CRC 5F197EB1
Accurately ripped (confidence 2) [4FA78639] (AR v1)
Copy OK

Track 9

Filename I:\Torrents 2\Bellowhead - Umbrellowhead (2009) [FLAC]\09 - Justin Thurgur - The Beginning.wav

Peak level 97.7 %
Extraction speed 2.9 X
Track quality 100.0 %
Test CRC B078CD98
Copy CRC B078CD98
Accurately ripped (confidence 2) [E6D5A65E] (AR v1)
Copy OK

Track 10

Filename I:\Torrents 2\Bellowhead - Umbrellowhead (2009) [FLAC]\10 - Faustus - The New Deserter.wav

Peak level 97.7 %
Extraction speed 2.7 X
Track quality 99.9 %
Test CRC CC822327
Copy CRC CC822327
Accurately ripped (confidence 2) [7B00E48D] (AR v1)
Copy OK

Track 11

Filename I:\Torrents 2\Bellowhead - Umbrellowhead (2009) [FLAC]\11 - Hannah James And Sam Sweeney - Gaol Song.wav

Peak level 97.7 %
Extraction speed 3.0 X
Track quality 100.0 %
Test CRC 8E3AFC68
Copy CRC 8E3AFC68
Accurately ripped (confidence 2) [14D6F1ED] (AR v1)
Copy OK

Track 12

Filename I:\Torrents 2\Bellowhead - Umbrellowhead (2009) [FLAC]\12 - Spiers And Boden - Tom Padget.wav

Peak level 97.7 %
Extraction speed 3.2 X
Track quality 100.0 %
Test CRC 330FAA59
Copy CRC 330FAA59
Accurately ripped (confidence 2) [11477050] (AR v1)
Copy OK

Track 13

Filename I:\Torrents 2\Bellowhead - Umbrellowhead (2009) [FLAC]\13 - Farmyard Animals Trio - Marunouchi.wav

Peak level 97.7 %
Extraction speed 3.2 X
Track quality 100.0 %
Test CRC B5709869
Copy CRC B5709869
Accurately ripped (confidence 2) [3C1A0EF1] (AR v1)
Copy OK

Track 14

Filename I:\Torrents 2\Bellowhead - Umbrellowhead (2009) [FLAC]\14 - The Choir Of Christ Church Cathedral - Psalm 143.wav

Peak level 97.7 %
Extraction speed 3.1 X
Track quality 100.0 %
Test CRC 03E60E8E
Copy CRC 03E60E8E
Accurately ripped (confidence 2) [28563C7A] (AR v1)
Copy OK


All tracks accurately ripped
No errors occurred

End of status report

==== Log checksum 50D53A3B4EAB99AFC6E921F70F52916E7E4C5720C1E90BB0563E294C6988774C ====

foobar2000 1.2.1 / Dynamic Range Meter 1.1.1
log date: 2013-01-24 14:30:04

––––––––––––––––––––––––––––––––––––––––
Analyzed: Bellowhead / Umbrellowhead (1)
Belshazzar's Feast / Umbrellowhead (2)
Benji Kirkpatrick / Umbrellowhead (3)
Chavo / Umbrellowhead (4)
Farmyard Animals Trio / Umbrellowhead (5)
Faustus / Umbrellowhead (6)
Hannah James & Sam Sweeney / Umbrellowhead (7)
Jon Boden / Umbrellowhead (8)
Justin Thurgur / Umbrellowhead (9)
Pete Flood / Umbrellowhead (10)
Rachael McShane / Umbrellowhead (11)
Setsubun Bean Unit / Umbrellowhead (12)
Spiers & Boden / Umbrellowhead (13)
The Choir Of Christ Church Cathedral, Dublin / Umbrellowhead (14)
––––––––––––––––––––––––––––––––––––––––

DR Peak RMS Duration Track
––––––––––––––––––––––––––––––––––––––––
DR7 -0.20 dB -8.60 dB 3:46 01-Unclothed Nocturnal Manuscript Crisis
DR10 -0.20 dB -12.68 dB 4:19 05-Rondo A La Turkey
DR6 -0.20 dB -8.82 dB 4:36 06-Wallbreaker
DR8 -0.20 dB -9.77 dB 5:10 02-Ganka's Song (Gankino)
DR7 -0.20 dB -10.67 dB 4:24 13-Marunouchi
DR9 -0.20 dB -11.90 dB 5:59 10-The New Deserter
DR9 -0.20 dB -12.50 dB 4:10 11-Gaol Song
DR7 -0.20 dB -8.84 dB 4:31 07-Beating The Bounds
DR8 -0.20 dB -9.44 dB 8:06 09-The Beginning
DR8 -0.20 dB -11.02 dB 4:30 04-Master Kilby
DR8 -0.20 dB -9.45 dB 4:27 03-The Fisherman
DR9 -0.20 dB -11.44 dB 4:36 08-Gujo Ondo
DR8 -0.20 dB -10.64 dB 5:31 12-Tom Padget
DR9 -0.20 dB -13.27 dB 3:09 14-Psalm 143
––––––––––––––––––––––––––––––––––––––––

Number of tracks: 14
Official DR value: DR8

Samplerate: 44100 Hz
Channels: 2
Bits per sample: 16
Bitrate: 689 kbps
Codec: FLAC
================================================================================


–––––––––––––––––––––––––––––––––––––––––-


Bellowhead - Albums Collection 2006-2012 [4CD]

Broadside (2012)
EAC | FLAC | Tracks (Cue&Log) ~ 368 Mb (incl 5%) | Mp3 (CBR320/Stereo) ~ 159 Mb (incl 5%) | Scans included
Label: Navigator Records | # NAVIGATOR073 | Time: 00:46:41

There was a time when Bellowhead could never match the excitement of their live shows on record. But then they teamed up with producer John Leckie, of Stone Roses and Radiohead fame, and recorded the full-tilt, huge-selling Hedonism. They are back with Leckie for the follow-up, and have cranked up the energy level even more. This is a brash, noisy set that at times almost topples over because of the complex arrangements and constant changes of mood and pace, but succeeds because of the 11-piece band's frantic enthusiasm. Folk purists should beware; the Carthy/Swarbrick favourite Byker Hill is now treated to a gutsy, romping backing and bursts of full-bloodied choral work, the Copper Family classic Thousands Or More is reworked with jaunty and then elegant strings and brass, while the traditional ghost story The Wife of Usher's Well becomes a menacing mood piece dominated by pounding, percussive vocals. Over-clever, maybe, but highly entertaining.

Review by Robin Denselow, Guardian
Tracklist:

01. Byker Hill (03:26)
02. The Old Dun Cow (04:37)
03. Roll the Woodpile Down (03:02)
04. 10.000 Miles Away (03:12)
05. Betsy Baker (04:23)
06. Black Beetle Pies (04:09)
07. Thousands or More (04:28)
08. Dockside Rant (03:20)
09. The Wife of Usher's Well (03:40)
10. What's the Life of a Man (04:15)
11. Lillibulero (03:07)
12. Go My Way (04:53)


Exact Audio Copy V1.0 beta 2 from 29. April 2011

EAC extraction logfile from 7. December 2012, 16:43

Bellowhead / Broadside

Used drive : HL-DT-STDVD-RAM GH22LP20 Adapter: 0 ID: 0

Read mode : Secure
Utilize accurate stream : Yes
Defeat audio cache : Yes
Make use of C2 pointers : No

Read offset correction : 102
Overread into Lead-In and Lead-Out : No
Fill up missing offset samples with silence : Yes
Delete leading and trailing silent blocks : No
Null samples used in CRC calculations : Yes
Used interface : Installed external ASPI interface
Gap handling : Appended to previous track

Used output format : User Defined Encoder
Selected bitrate : 256 kBit/s
Quality : High
Add ID3 tag : No
Command line compressor : C:\Program Files\Exact Audio Copy\FLAC\FLAC.EXE
Additional command line options : -8 -V -T "ARTIST=%artist%" -T "TITLE=%title%" -T "ALBUM=%albumtitle%" -T "DATE=%year%" -T "TRACKNUMBER=%tracknr%" -T "GENRE=%genre%" -T "COMMENT=%comment%" %hascover%–picture="%coverfile%"%hascover% %source% -o %dest%


TOC of the extracted CD

Track | Start | Length | Start sector | End sector
––––––––––––––––––––––––––––-
1 | 0:00.00 | 3:26.66 | 0 | 15515
2 | 3:26.66 | 4:37.54 | 15516 | 36344
3 | 8:04.45 | 3:02.73 | 36345 | 50067
4 | 11:07.43 | 3:12.06 | 50068 | 64473
5 | 14:19.49 | 4:23.54 | 64474 | 84252
6 | 18:43.28 | 4:09.50 | 84253 | 102977
7 | 22:53.03 | 4:28.47 | 102978 | 123124
8 | 27:21.50 | 3:20.70 | 123125 | 138194
9 | 30:42.45 | 3:40.00 | 138195 | 154694
10 | 34:22.45 | 4:15.66 | 154695 | 173885
11 | 38:38.36 | 3:07.01 | 173886 | 187911
12 | 41:45.37 | 4:53.63 | 187912 | 209949


Track 1

Filename I:\Torrents 2\Bellowhead - Broadside (2012) [FLAC]\01 - Byker Hill.wav

Pre-gap length 0:00:02.00

Peak level 100.0 %
Extraction speed 1.6 X
Track quality 100.0 %
Test CRC 61DE00A9
Copy CRC 61DE00A9
Accurately ripped (confidence 1) [11F5A806] (AR v1)
Copy OK

Track 2

Filename I:\Torrents 2\Bellowhead - Broadside (2012) [FLAC]\02 - The Old Dun Cow.wav

Peak level 100.0 %
Extraction speed 1.8 X
Track quality 100.0 %
Test CRC 3F65398B
Copy CRC 3F65398B
Accurately ripped (confidence 1) [795CFE64] (AR v1)
Copy OK

Track 3

Filename I:\Torrents 2\Bellowhead - Broadside (2012) [FLAC]\03 - Roll the Woodpile Down.wav

Peak level 100.0 %
Extraction speed 1.9 X
Track quality 100.0 %
Test CRC A9A752E0
Copy CRC A9A752E0
Accurately ripped (confidence 1) [B407E583] (AR v1)
Copy OK

Track 4

Filename I:\Torrents 2\Bellowhead - Broadside (2012) [FLAC]\04 - 10.000 Miles Away.wav

Peak level 100.0 %
Extraction speed 2.0 X
Track quality 100.0 %
Test CRC B0FEFE52
Copy CRC B0FEFE52
Accurately ripped (confidence 1) [62225FAC] (AR v1)
Copy OK

Track 5

Filename I:\Torrents 2\Bellowhead - Broadside (2012) [FLAC]\05 - Betsy Baker.wav

Peak level 100.0 %
Extraction speed 2.3 X
Track quality 100.0 %
Test CRC 541A85F6
Copy CRC 541A85F6
Accurately ripped (confidence 1) [39A58495] (AR v1)
Copy OK

Track 6

Filename I:\Torrents 2\Bellowhead - Broadside (2012) [FLAC]\06 - Black Beetle Pies.wav

Peak level 100.0 %
Extraction speed 2.1 X
Track quality 99.9 %
Test CRC 058D9471
Copy CRC 058D9471
Accurately ripped (confidence 1) [27D8D949] (AR v1)
Copy OK

Track 7

Filename I:\Torrents 2\Bellowhead - Broadside (2012) [FLAC]\07 - Thousands or More.wav

Peak level 100.0 %
Extraction speed 2.5 X
Track quality 100.0 %
Test CRC 37A61FEF
Copy CRC 37A61FEF
Accurately ripped (confidence 1) [ADCA1A46] (AR v1)
Copy OK

Track 8

Filename I:\Torrents 2\Bellowhead - Broadside (2012) [FLAC]\08 - Dockside Rant.wav

Peak level 100.0 %
Extraction speed 2.5 X
Track quality 100.0 %
Test CRC 18B6E177
Copy CRC 18B6E177
Accurately ripped (confidence 1) [11D7E1C4] (AR v1)
Copy OK

Track 9

Filename I:\Torrents 2\Bellowhead - Broadside (2012) [FLAC]\09 - The Wife of Usher's Well.wav

Peak level 100.0 %
Extraction speed 2.6 X
Track quality 100.0 %
Test CRC 09B22AA7
Copy CRC 09B22AA7
Accurately ripped (confidence 1) [A0BAB6C3] (AR v1)
Copy OK

Track 10

Filename I:\Torrents 2\Bellowhead - Broadside (2012) [FLAC]\10 - What's the Life of a Man.wav

Peak level 100.0 %
Extraction speed 2.8 X
Track quality 100.0 %
Test CRC 326931D0
Copy CRC 326931D0
Accurately ripped (confidence 1) [4F2444D5] (AR v1)
Copy OK

Track 11

Filename I:\Torrents 2\Bellowhead - Broadside (2012) [FLAC]\11 - Lillibulero.wav

Peak level 100.0 %
Extraction speed 2.7 X
Track quality 100.0 %
Test CRC CD952770
Copy CRC CD952770
Accurately ripped (confidence 1) [17796A6E] (AR v1)
Copy OK

Track 12

Filename I:\Torrents 2\Bellowhead - Broadside (2012) [FLAC]\12 - Go My Way.wav

Peak level 100.0 %
Extraction speed 2.7 X
Track quality 99.9 %
Test CRC 916CB4B4
Copy CRC 916CB4B4
Accurately ripped (confidence 1) [30FC4692] (AR v1)
Copy OK


All tracks accurately ripped

No errors occurred

End of status report

==== Log checksum EE52C05CA09561F0B138AF47F9C5E8BD45E82D60BFA046E19E6E7EA6F7959DAE ====

foobar2000 1.2.1 / Dynamic Range Meter 1.1.1
log date: 2013-01-24 14:32:02

––––––––––––––––––––––––––––––––––––––––
Analyzed: Bellowhead / Broadside
––––––––––––––––––––––––––––––––––––––––

DR Peak RMS Duration Track
––––––––––––––––––––––––––––––––––––––––
DR8 0.00 dB -10.08 dB 3:27 01-Byker Hill
DR8 0.00 dB -11.09 dB 4:38 02-The Old Dun Cow
DR8 0.00 dB -10.09 dB 3:03 03-Roll the Woodpile Down
DR8 0.00 dB -10.39 dB 3:12 04-10.000 Miles Away
DR8 0.00 dB -11.13 dB 4:24 05-Betsy Baker
DR9 0.00 dB -11.55 dB 4:10 06-Black Beetle Pies
DR10 0.00 dB -12.18 dB 4:29 07-Thousands or More
DR11 0.00 dB -12.75 dB 3:21 08-Dockside Rant
DR9 0.00 dB -11.42 dB 3:40 09-The Wife of Usher's Well
DR10 0.00 dB -12.25 dB 4:16 10-What's the Life of a Man
DR8 0.00 dB -9.89 dB 3:07 11-Lillibulero
DR10 0.00 dB -12.46 dB 4:54 12-Go My Way
––––––––––––––––––––––––––––––––––––––––

Number of tracks: 12
Official DR value: DR9

Samplerate: 44100 Hz
Channels: 2
Bits per sample: 16
Bitrate: 874 kbps
Codec: FLAC
================================================================================


–––––––––––––––––––––––––––––––––––––––––-


All thanks to original releaser - Liesabath

More interesting music in My Blog