Ben Craven - Great & Terrible Potions (2011)

Posted By: gribovar
Ben Craven - Great & Terrible Potions (2011)

Ben Craven - Great & Terrible Potions (2011)
EAC Rip | FLAC (image+.cue+log) - 394 MB | MP3 CBR 320 kbps (LAME 3.93) - 141 MB | Covers (11 MB) included
Genre: Progressive Rock | RAR 3% Rec. | Label: Desert Comb Music (DC1006)

Ben Craven is a heavy-duty prog-rock monster that's unafraid of invoking irresistible hooks and melodies. The combination of expansive, orchestrated arrangements and intelligent songwriting make this one of 2011's most intriguing and captivating releases. "Great & Terrible Potions" is all Ben Craven. He wrote and performed all the material as well as producing, engineering, mixing and mastering the album.
However like all good prog-rock albums, the final touches are vital. Enlisting the assistance of Roger Dean seemed a natural progression given the heavy influences of 70’s prog-rock bands within Craven’s music. Uncovering and updating an unreleased piece of art, Dean has provided a cover that will go down in the halls of prog-rock history alongside his famous work for musicians and bands such as Yes, Asia, Uriah Heap, Rick Wakeman and Alan White.

Tracklist:
01. Diabolique
02. Nobody Dies Forever Part 1
03. Aquamarine
04. Ready to Lose
05. The Conjurer
06. No Specific Harm
07. Solace
08. Nobody Dies Forever Part 2
09. Great & Terrible Potions
10. Ready to Lose (Single Edit, Bonus track)
11. Nobody Dies Forever (Single Edit, Bonus track)
12. No Specific Harm (Single Edit, Bonus track)

Total time: 55:17

Exact Audio Copy V1.0 beta 2 from 29. April 2011

Отчёт EAC об извлечении, выполненном 22. декабря 2011, 13:30

Ben Craven / Great & Terrible Potions

Дисковод: HL-DT-STDVD-RAM GH22NP20 Adapter: 3 ID: 0

Режим чтения : Достоверность
Использование точного потока : Да
Отключение кэша аудио : Да
Использование указателей C2 : Нет

Коррекция смещения при чтении : 102
Способность читать области Lead-in и Lead-out : Нет
Заполнение пропущенных сэмплов тишиной : Да
Удаление блоков с тишиной в начале и конце : Нет
При вычислениях CRC использовались нулевые сэмплы : Да
Интерфейс : Встроенный Win32-интерфейс для Win NT/2000

Выходной формат : Пользовательский кодировщик
Выбранный битрейт : 1024 kBit/s
Качество : Высокий
Добавление ID3-тега : Да
Утилита сжатия : C:\Program Files\Exact Audio Copy\FLAC\FLAC.EXE
Дополнительные параметры : -6 -V -T "ARTIST=%artist%" -T "TITLE=%title%" -T "ALBUM=%albumtitle%" -T "DATE=%year%" -T "TRACKNUMBER=%tracknr%" -T "GENRE=%genre%" -T "COMMENT=%comment%" %hascover%–picture="%coverfile%"%hascover% %source% -o %dest%


TOC извлечённого CD

Трек | Старт | Длительность | Начальный сектор | Конечный сектор
––––––––––––––––––––––––––––––––––-
1 | 0:00.00 | 2:27.02 | 0 | 11026
2 | 2:27.02 | 2:37.38 | 11027 | 22839
3 | 5:04.40 | 5:07.20 | 22840 | 45884
4 | 10:11.60 | 6:02.74 | 45885 | 73108
5 | 16:14.59 | 4:13.47 | 73109 | 92130
6 | 20:28.31 | 10:58.70 | 92131 | 141550
7 | 31:27.26 | 2:43.40 | 141551 | 153815
8 | 34:10.66 | 1:51.45 | 153816 | 162185
9 | 36:02.36 | 9:06.39 | 162186 | 203174
10 | 45:09.00 | 3:39.08 | 203175 | 219607
11 | 48:48.08 | 2:59.72 | 219608 | 233104
12 | 51:48.05 | 3:29.12 | 233105 | 248791


Характеристики диапазона извлечения и сообщения об ошибках

Выбранный диапазон

Имя файла D:\PARS\My Music\Ben Craven\Ben Craven-Great and Terrible Potions(2011)\Ben Craven - Great & Terrible Potions.wav

Пиковый уровень 100.0 %
Скорость извлечения 2.8 X
Качество диапазона 100.0 %
CRC копии 2F1BA055
Копирование… OK

Ошибок не произошло


AccurateRip: сводка

Трек 1 отсутствует в базе данных
Трек 2 отсутствует в базе данных
Трек 3 отсутствует в базе данных
Трек 4 отсутствует в базе данных
Трек 5 отсутствует в базе данных
Трек 6 отсутствует в базе данных
Трек 7 отсутствует в базе данных
Трек 8 отсутствует в базе данных
Трек 9 отсутствует в базе данных
Трек 10 отсутствует в базе данных
Трек 11 отсутствует в базе данных
Трек 12 отсутствует в базе данных

Ни одного трека нет в базе AccurateRip

Конец отчёта

[CUETools log; Date: 23.11.2017 13:27:37; Version: 2.1.4]
[CTDB TOCID: VNtXhFGw4CYFLd2gmjNECwVdbfY-] found.
Track | CTDB Status
1 | (1/1) Accurately ripped
2 | (1/1) Accurately ripped
3 | (1/1) Accurately ripped
4 | (1/1) Accurately ripped
5 | (1/1) Accurately ripped
6 | (1/1) Accurately ripped
7 | (1/1) Accurately ripped
8 | (1/1) Accurately ripped
9 | (1/1) Accurately ripped
10 | (1/1) Accurately ripped
11 | (1/1) Accurately ripped
12 | (1/1) Accurately ripped
[AccurateRip ID: 00188639-00ea42b3-8d0cf50c] found.
Track [ CRC | V2 ] Status
01 [328eb6a1|6bf21f39] (0+5/5) Accurately ripped
02 [84e65e9e|838eadcf] (0+5/5) Accurately ripped
03 [82bcf020|3c15fe22] (0+5/5) Accurately ripped
04 [22a7fcda|943260c7] (0+5/5) Accurately ripped
05 [a62762fe|acf08f6a] (0+5/5) Accurately ripped
06 [b77dd7f7|02fa06b6] (0+5/5) Accurately ripped
07 [2684853b|2dea8b62] (0+5/5) Accurately ripped
08 [624b3a1d|8ed63852] (0+5/5) Accurately ripped
09 [eeb38d8e|d8824bc7] (0+5/5) Accurately ripped
10 [b4e3cc70|0358ce3a] (0+5/5) Accurately ripped
11 [271f40ee|33fa6cec] (0+5/5) Accurately ripped
12 [ca3b82f3|c02525cb] (0+5/5) Accurately ripped

Track Peak [ CRC32 ] [W/O NULL] [ LOG ]
– 100,0 [2F1BA055] [74CA60F9] CRC32
01 98,7 [428E7C4D] [543B6C92]
02 99,5 [64EE4BC5] [F70868B9]
03 98,3 [B52ED8A2] [A2C1656C]
04 100,0 [3996D92D] [9DEB5013]
05 97,9 [7F18E68E] [E2496FC8]
06 100,0 [8A34A366] [725E0F2C]
07 98,3 [3C95BC0E] [26E6D0B5]
08 100,0 [E8764523] [41BC1634]
09 98,6 [FF4C0876] [35D322E7]
10 100,0 [B588BA77] [33B8FE76]
11 100,0 [0ED2308F] [8D9603B9]
12 98,7 [75E94761] [B1277996]

Thanks to parsrecar

See also:
Ben Craven - Last Chance to Hear (2016)