Subcategories

Ben Webster - 1946-1951 (2002)

Posted By: gribovar
Ben Webster - 1946-1951 (2002)

Ben Webster - 1946-1951 (2002)
EAC Rip | FLAC (tracks+.cue+log) - 153 MB | MP3 CBR 320 kbps (LAME 3.93) - 138 MB | Covers (5 MB) included
Genre: Jazz, Swing | RAR 3% Rec. | Label: Classics Records (CLASSICS1253)

This volume in the Chronological Classics Ben Webster series is a fascinating slice during a wildly transitional period for the saxophonist. In the years between 1946-1951, Webster made numerous jumps as evidenced by these tracks, from the glorious jumping big swing of "The Jeep Is Jumpin'" while he was with Bill De Arango to the searing bebop of "Dark Corners" (with some blazing guitar work by De Arango) to the small-combo hard bop of "Randle's Island" to the bluesy, near soul-jazz balladry of "You're My Thrill." In Webster's company are some masters to be sure, including Maynard Ferguson, Al Haig, Big Sid Catlett, Bill Coleman, Benny Carter, Tony Scott, Buster Moten, and Gerald Wiggins, to name a few. This is varied set in terms of style, but these performances (and sound) are consistently fine.
Tracklist:
01. The Jeep Is Jumpin'
02. I Got It Bad (And That Ain't Good)
03. Dark Corners
04. Mister Brim
05. Frog and Mule
06. Spang
07. Doctor Keets
08. Park and Tilford Blues
09. As Long As I Live
10. All Alone
11. Blue Belles of Harlem
12. Turn It Over
13. That Dit It
14. Best Friend Blues
15. Baby You Messed Up
16. Randle's Island
17. Old Folks
18. King's Riff
19. You're My Thrill

Total time: 56:30

EAC extraction logfile from 22. October 2007, 1:01 for CD
Ben Webster / 1946-1951

Used drive : HL-DT-STCDRW/DVD GCC4482 Adapter: 1 ID: 0
Read mode : Secure with NO C2, accurate stream, disable cache
Read offset correction : 6
Overread into Lead-In and Lead-Out : No

Used output format : C:\Eac\Codecs\flac.exe (User Defined Encoder)
320 kBit/s
Additional command line options : -8 -V -T "artist=%a" -T "title=%t" -T "album=%g" -T "date=%y" -T "tracknumber=%n" -T "genre=%m" -T "comment=EAC Flac 1.1.2 -8" %s

Other options :
Fill up missing offset samples with silence : Yes
Delete leading and trailing silent blocks : No
Installed external ASPI interface


Track 1
Filename C:\Documents and Settings\Desktop\frog\01 - Jeep Is Jumpin'.wav

Pre-gap length 0:00:02.42

Peak level 97.9 %
Track quality 100.0 %
Test CRC A521D82A
Copy CRC A521D82A
Copy OK

Track 2
Filename C:\Documents and Settings\Desktop\frog\02 - I Got It Bad And That Ain't Good.wav

Pre-gap length 0:00:01.93

Peak level 98.9 %
Track quality 99.9 %
Test CRC 517A3296
Copy CRC 517A3296
Copy OK

Track 3
Filename C:\Documents and Settings\Desktop\frog\03 - Dark Corners.wav

Pre-gap length 0:00:01.93

Peak level 99.8 %
Track quality 100.0 %
Test CRC C2014D20
Copy CRC C2014D20
Copy OK

Track 4
Filename C:\Documents and Settings\Desktop\frog\04 - Mister Brim.wav

Pre-gap length 0:00:01.93

Peak level 99.3 %
Track quality 99.9 %
Test CRC B0B9B286
Copy CRC B0B9B286
Copy OK

Track 5
Filename C:\Documents and Settings\Desktop\frog\05 - Frog And Mule.wav

Pre-gap length 0:00:01.93

Peak level 99.1 %
Track quality 100.0 %
Test CRC 7E82FFAC
Copy CRC 7E82FFAC
Copy OK

Track 6
Filename C:\Documents and Settings\Desktop\frog\06 - Spang.wav

Pre-gap length 0:00:01.93

Peak level 88.3 %
Track quality 100.0 %
Test CRC 8289D2B4
Copy CRC 8289D2B4
Copy OK

Track 7
Filename C:\Documents and Settings\Desktop\frog\07 - Doctor Keets.wav

Pre-gap length 0:00:01.93

Peak level 99.1 %
Track quality 100.0 %
Test CRC 0F05DCE2
Copy CRC 0F05DCE2
Copy OK

Track 8
Filename C:\Documents and Settings\Desktop\frog\08 - Park & Tilford Blues.wav

Pre-gap length 0:00:01.93

Peak level 98.2 %
Track quality 100.0 %
Test CRC 5EF9E3ED
Copy CRC 5EF9E3ED
Copy OK

Track 9
Filename C:\Documents and Settings\Desktop\frog\09 - As Long As I Live.wav

Pre-gap length 0:00:01.93

Peak level 99.0 %
Track quality 100.0 %
Test CRC 8693E9AC
Copy CRC 8693E9AC
Copy OK

Track 10
Filename C:\Documents and Settings\Desktop\frog\10 - All Alone.wav

Pre-gap length 0:00:01.93

Peak level 98.9 %
Track quality 100.0 %
Test CRC 414DAB40
Copy CRC 414DAB40
Copy OK

Track 11
Filename C:\Documents and Settings\Desktop\frog\11 - Blue Belles of Harlem.wav

Pre-gap length 0:00:01.93

Peak level 74.2 %
Track quality 100.0 %
Test CRC 783F1349
Copy CRC 783F1349
Copy OK

Track 12
Filename C:\Documents and Settings\Desktop\frog\12 - Turn It Over.wav

Pre-gap length 0:00:01.93

Peak level 98.9 %
Track quality 100.0 %
Test CRC D995A757
Copy CRC D995A757
Copy OK

Track 13
Filename C:\Documents and Settings\Desktop\frog\13 - That Dit It.wav

Pre-gap length 0:00:01.93

Peak level 98.8 %
Track quality 100.0 %
Test CRC D220DCDC
Copy CRC D220DCDC
Copy OK

Track 14
Filename C:\Documents and Settings\Desktop\frog\14 - Best Friend Blues.wav

Pre-gap length 0:00:01.93

Peak level 99.0 %
Track quality 100.0 %
Test CRC 62EBAFDB
Copy CRC 62EBAFDB
Copy OK

Track 15
Filename C:\Documents and Settings\Desktop\frog\15 - Baby You Messed Up.wav

Pre-gap length 0:00:01.93

Peak level 99.0 %
Track quality 100.0 %
Test CRC ACCC64AE
Copy CRC ACCC64AE
Copy OK

Track 16
Filename C:\Documents and Settings\Desktop\frog\16 - Randall's Island (Randle's Island).wav

Pre-gap length 0:00:01.93

Peak level 100.0 %
Track quality 100.0 %
Test CRC 9A6E8B62
Copy CRC 9A6E8B62
Copy OK

Track 17
Filename C:\Documents and Settings\Desktop\frog\17 - Old Folks.wav

Pre-gap length 0:00:01.93

Peak level 93.4 %
Track quality 100.0 %
Test CRC 1205B18E
Copy CRC 1205B18E
Copy OK

Track 18
Filename C:\Documents and Settings\Desktop\frog\18 - King's Riff.wav

Pre-gap length 0:00:01.93

Peak level 99.2 %
Track quality 100.0 %
Test CRC 6EC76250
Copy CRC 6EC76250
Copy OK

Track 19
Filename C:\Documents and Settings\Desktop\frog\19 - You're My Thrill.wav

Pre-gap length 0:00:01.93

Peak level 99.2 %
Track quality 100.0 %
Test CRC 5546DCB2
Copy CRC 5546DCB2
Copy OK

No errors occured


End of status report

[CUETools log; Date: 25.04.2018 1:57:07; Version: 2.1.4]
Pregap length 00:00:32.
[CTDB TOCID: sXmTRdgnunPMK_Jj7yfZPJbitOY-] found.
Track | CTDB Status
1 | (2/2) Accurately ripped
2 | (2/2) Accurately ripped
3 | (2/2) Accurately ripped
4 | (2/2) Accurately ripped
5 | (2/2) Accurately ripped
6 | (2/2) Accurately ripped
7 | (2/2) Accurately ripped
8 | (2/2) Accurately ripped
9 | (2/2) Accurately ripped
10 | (2/2) Accurately ripped
11 | (2/2) Accurately ripped
12 | (2/2) Accurately ripped
13 | (2/2) Accurately ripped
14 | (2/2) Accurately ripped
15 | (2/2) Accurately ripped
16 | (2/2) Accurately ripped
17 | (2/2) Accurately ripped
18 | (2/2) Accurately ripped
19 | (2/2) Accurately ripped
[AccurateRip ID: 0026e423-021ed686-0b0d3d13] found.
Track [ CRC | V2 ] Status
01 [b5aee0c3|fa1030d1] (0+2/2) Accurately ripped
02 [e696c755|eb998799] (0+2/2) Accurately ripped
03 [dcf73c12|48f8a868] (0+2/2) Accurately ripped
04 [cadf2c60|42d22188] (0+2/2) Accurately ripped
05 [d17e6aef|743e6539] (0+2/2) Accurately ripped
06 [42042ef5|ae1d049c] (0+2/2) Accurately ripped
07 [fed5f2c7|550aeeb7] (0+2/2) Accurately ripped
08 [0fb172e5|9a2ba6eb] (0+2/2) Accurately ripped
09 [fff9c9d9|2c9e1c01] (0+2/2) Accurately ripped
10 [a8eb6adb|74e18e21] (0+2/2) Accurately ripped
11 [6593e78a|ac9cad96] (0+2/2) Accurately ripped
12 [0a472913|8829f787] (0+2/2) Accurately ripped
13 [e8d75291|06289bbf] (0+2/2) Accurately ripped
14 [180005f4|ee8829e9] (0+2/2) Accurately ripped
15 [5a2aee45|857e206e] (0+2/2) Accurately ripped
16 [213668f0|8dd655b5] (0+2/2) Accurately ripped
17 [ef1b563e|1fc8c138] (0+2/2) Accurately ripped
18 [a22c8773|af42e704] (0+2/2) Accurately ripped
19 [6f892351|b18ce44b] (0+2/2) Accurately ripped

Track Peak [ CRC32 ] [W/O NULL] [ LOG ]
– 100,0 [61AAFD7D] [9B084AF4]
01 97,9 [A521D82A] [FBB817DA] CRC32
02 98,9 [517A3296] [7E1F7520] CRC32
03 99,8 [C2014D20] [0232D260] CRC32
04 99,3 [B0B9B286] [9257F723] CRC32
05 99,1 [7E82FFAC] [99EF8B6D] CRC32
06 88,3 [8289D2B4] [DF8BC467] CRC32
07 99,1 [0F05DCE2] [BAF9D3B7] CRC32
08 98,2 [5EF9E3ED] [26BF0C5D] CRC32
09 99,0 [8693E9AC] [2B02D888] CRC32
10 98,9 [414DAB40] [EAB75EC4] CRC32
11 74,2 [783F1349] [058042E5] CRC32
12 98,9 [D995A757] [900D53BE] CRC32
13 98,8 [D220DCDC] [79FA53A2] CRC32
14 99,0 [62EBAFDB] [FB3390B8] CRC32
15 99,0 [ACCC64AE] [4572E83F] CRC32
16 100,0 [9A6E8B62] [14A6E952] CRC32
17 93,4 [1205B18E] [618B86D3] CRC32
18 99,2 [6EC76250] [45CAD170] CRC32
19 99,2 [5546DCB2] [CE189713] CRC32

Thanks to weejee

See also:
Ben Webster - 1944-1946 (1998)