Subcategories

Benkő László - Másik Világ (2012)

Posted By: gribovar
Benkő László - Másik Világ (2012)

Benkő László - Másik Világ (2012)
EAC Rip | FLAC (tracks+.cue+log) - 236 MB | MP3 CBR 320 kbps (LAME 3.93) - 81 MB | Covers - 48 MB
Genre: Progressive Electronic | RAR 3% Rec. | Label: Magneoton (5999884690771)

Best known as the keyboard wizard of the venerable Hungarian rock band Omega, the solo work of Laszlo Benko is by comparison virtually unknown beyond the confines of Eastern Europe. A curious offering of keyboard based electronic music, it can be likened at times to some of Tangerine Dream's mid-seventies material such as Rubycon or Ricochet albeit with a more light-hearted, zany touch much more along the lines of Kraftwerk minus the vocals or even some of Vangelis' seventies work. Prefering shorter formats rather than longer multi-dimensional compositions favoured by many progressive electronic artists, it is worth a brief glimpse into his musical contributions and developments within Omega in order to better introduce his solo work.

Tracklist:
01. Energia éhség
02. Sikátor
03. Nehéz idők
04. El Nino
05. Éden
06. Eszkimó nyár
07. MRI
08. A ciklus vége
09. I'm Sorry

Total time: 34:38

Exact Audio Copy V1.0 beta 3 from 29. August 2011

EAC extraction logfile from 20. April 2012, 19:24

Benkő László / Másik világ

Used drive : PLEXTOR DVDR PX-880SA Adapter: 3 ID: 0

Read mode : Secure
Utilize accurate stream : Yes
Defeat audio cache : Yes
Make use of C2 pointers : No

Read offset correction : 6
Overread into Lead-In and Lead-Out : No
Fill up missing offset samples with silence : Yes
Delete leading and trailing silent blocks : No
Null samples used in CRC calculations : Yes
Used interface : Native Win32 interface for Win NT & 2000
Gap handling : Appended to previous track

Used output format : User Defined Encoder
Selected bitrate : 1024 kBit/s
Quality : High
Add ID3 tag : No
Command line compressor : C:\Program Files (x86)\Exact Audio Copy\FLAC\FLAC.EXE
Additional command line options : -0 -V -T "ARTIST=%artist%" -T "TITLE=%title%" -T "ALBUM=%albumtitle%" -T "DATE=%year%" -T "TRACKNUMBER=%tracknr%" -T "TOTALTRACKS=%numtracks%" -T "GENRE=%genre%" -T "COMMENT=Naftamusic Release!" %source%


TOC of the extracted CD

Track | Start | Length | Start sector | End sector
––––––––––––––––––––––––––––-
1 | 0:00.00 | 4:59.74 | 0 | 22498
2 | 4:59.74 | 2:53.43 | 22499 | 35516
3 | 7:53.42 | 3:29.51 | 35517 | 51242
4 | 11:23.18 | 6:13.52 | 51243 | 79269
5 | 17:36.70 | 1:46.46 | 79270 | 87265
6 | 19:23.41 | 4:33.10 | 87266 | 107750
7 | 23:56.51 | 3:49.70 | 107751 | 124995
8 | 27:46.46 | 4:53.26 | 124996 | 146996
9 | 32:39.72 | 1:58.08 | 146997 | 155854


Track 1

Filename F:\Nafta albumok [FLAC]\Benkő László - Másik világ (2012)[FLAC] - Naftamusic\01 - Energia éhség.wav

Pre-gap length 0:00:02.00

Peak level 98.8 %
Extraction speed 8.3 X
Track quality 100.0 %
Test CRC FF61A2EE
Copy CRC FF61A2EE
Track not present in AccurateRip database
Copy OK

Track 2

Filename F:\Nafta albumok [FLAC]\Benkő László - Másik világ (2012)[FLAC] - Naftamusic\02 - Sikátor.wav

Peak level 98.8 %
Extraction speed 8.7 X
Track quality 100.0 %
Test CRC 0BAC5C43
Copy CRC 0BAC5C43
Track not present in AccurateRip database
Copy OK

Track 3

Filename F:\Nafta albumok [FLAC]\Benkő László - Másik világ (2012)[FLAC] - Naftamusic\03 - Nehéz idők.wav

Pre-gap length 0:00:03.03

Peak level 98.8 %
Extraction speed 10.2 X
Track quality 100.0 %
Test CRC 10CA9F90
Copy CRC 10CA9F90
Track not present in AccurateRip database
Copy OK

Track 4

Filename F:\Nafta albumok [FLAC]\Benkő László - Másik világ (2012)[FLAC] - Naftamusic\04 - El Nino.wav

Peak level 98.8 %
Extraction speed 10.8 X
Track quality 100.0 %
Test CRC A28C59EE
Copy CRC A28C59EE
Track not present in AccurateRip database
Copy OK

Track 5

Filename F:\Nafta albumok [FLAC]\Benkő László - Másik világ (2012)[FLAC] - Naftamusic\05 - Éden.wav

Peak level 98.8 %
Extraction speed 11.6 X
Track quality 100.0 %
Test CRC 845BDCFC
Copy CRC 845BDCFC
Track not present in AccurateRip database
Copy OK

Track 6

Filename F:\Nafta albumok [FLAC]\Benkő László - Másik világ (2012)[FLAC] - Naftamusic\06 - Eszkimó nyár.wav

Peak level 98.8 %
Extraction speed 11.6 X
Track quality 100.0 %
Test CRC C167BF28
Copy CRC C167BF28
Track not present in AccurateRip database
Copy OK

Track 7

Filename F:\Nafta albumok [FLAC]\Benkő László - Másik világ (2012)[FLAC] - Naftamusic\07 - MRI.wav

Pre-gap length 0:00:02.01

Peak level 98.8 %
Extraction speed 12.0 X
Track quality 100.0 %
Test CRC F4EB1815
Copy CRC F4EB1815
Track not present in AccurateRip database
Copy OK

Track 8

Filename F:\Nafta albumok [FLAC]\Benkő László - Másik világ (2012)[FLAC] - Naftamusic\08 - A ciklus vége.wav

Pre-gap length 0:00:03.01

Peak level 98.8 %
Extraction speed 12.9 X
Track quality 100.0 %
Test CRC E5FE4FFA
Copy CRC E5FE4FFA
Track not present in AccurateRip database
Copy OK

Track 9

Filename F:\Nafta albumok [FLAC]\Benkő László - Másik világ (2012)[FLAC] - Naftamusic\09 - I'm sorry.wav

Pre-gap length 0:00:03.22

Peak level 96.8 %
Extraction speed 11.7 X
Track quality 100.0 %
Test CRC 1B24DAA3
Copy CRC 1B24DAA3
Track not present in AccurateRip database
Copy OK


None of the tracks are present in the AccurateRip database

No errors occurred

End of status report

==== Log checksum EB4FF0230E0C5285E868673466D332356673576C6C76BB8211048491B10E17CE ====

[CUETools log; Date: 11.01.2017 21:08:50; Version: 2.1.4]
[CTDB TOCID: 4Xh402gIKYGRrW9.GRlbLRsg0BE-] found.
Track | CTDB Status
1 | (1/1) Accurately ripped
2 | (1/1) Accurately ripped
3 | (1/1) Accurately ripped
4 | (1/1) Accurately ripped
5 | (1/1) Accurately ripped
6 | (1/1) Accurately ripped
7 | (1/1) Accurately ripped
8 | (1/1) Accurately ripped
9 | (1/1) Accurately ripped
[AccurateRip ID: 000c6182-005a3698-7a081e09] found.
Track [ CRC | V2 ] Status
01 [3d076eb4|c73aa87f] (0+1/2) Accurately ripped
02 [38327c63|abeb54db] (0+1/2) Accurately ripped
03 [6f717b19|5bd238b8] (0+1/2) Accurately ripped
04 [7f8ecfaa|6519fe7f] (0+1/2) Accurately ripped
05 [80156ddf|a5f2ef9c] (0+1/2) Accurately ripped
06 [986cced8|ea75ac4c] (0+1/2) Accurately ripped
07 [b140dc7f|0fe26389] (0+1/2) Accurately ripped
08 [1b54d88f|b4ee315a] (0+1/2) Accurately ripped
09 [9415d822|56e7c939] (0+1/2) Accurately ripped

Track Peak [ CRC32 ] [W/O NULL] [ LOG ]
– 98,8 [9F433A95] [C2665941]
01 98,8 [FF61A2EE] [75F83F8B] CRC32
02 98,8 [0BAC5C43] [750A89F0] CRC32
03 98,8 [10CA9F90] [572A06F8] CRC32
04 98,8 [A28C59EE] [8D2B3D33] CRC32
05 98,8 [845BDCFC] [F315D3D9] CRC32
06 98,8 [C167BF28] [D642841B] CRC32
07 98,8 [F4EB1815] [9CE58610] CRC32
08 98,8 [E5FE4FFA] [468E0451] CRC32
09 96,8 [1B24DAA3] [CC1BE8EC] CRC32

Thanks to the original releaser