Subcategories

VA - Berlin 61-89 Wall of Sound (2009)

Posted By: mook45
VA - Berlin 61-89 Wall of Sound (2009)

VA - Berlin 61-89 Wall of Sound (2009)
EAC | FLAC IMG,CUE+LOG = 901MB | MP3@320 = 309MB | 400 dpi Scans
Krautrock | Label: Le Son de Marquis - LM150 | FSo/FSe


'Mixed' (or rather abbreviated and segued) 2CD set dedicated to avant rock from Berlin during the years of division.

Track listing
Disc 1

1. The Young Gods - Salamon Song
2. Nina Hagen - Born in Xixax
3. Agitation Free - Rücksturz
4. Malaria - Your Turn To Run
5. Amonn Düül II - A Morning Excuse
6. Irmin Schmidt - Rapido De Noir
7. Bruno Spoerri - Rapido De Noir
8. Can - Thief
9. Neu! - After Eight
10. Electric Sandwich - China
11. Cluster - Hollywood
12. Brainticket - The Space Between
13. Nico - Reich Der Träume
14. Brainticket - The Space Between
15. Jane - Love Song
16. Edgar Frose - A Dali-esque Sleep Fuse
17. Harmonia - When Shade Was Born

Disc 2

1. Faust - The Sad Skinhead
2. Harmonia - Vamos Companeros
3. Neu! - Lila Angel
4. Die Krupps - Wahre Arbeit, Wahrer Lohn
5. Kraan - Die Maschine
6. MDK - Berlin 36
7. Cluster - Caramel
8. Die Tödliche Doris - Der Astronaut Und Der Kosmos
9. Palais Schaumburg - Telefon
10. The Front - Polaroid
11. Liaisons Dangereuses - Dupont
12. Einstürzende Neubauten - Yu-Gung
13. Nina Hagen - Cosma Shiva
14. The Young Gods - Speak Low
15. Can - Future Days

Exact Audio Copy V0.99 prebeta 5 from 4. May 2009

EAC extraction logfile from 28. December 2009, 17:29

Various / Berlin 61/89 Wall of Sound - CD1 - 'West Side'

Used drive : HP DVD Writer 1040r Adapter: 1 ID: 0

Read mode : Secure
Utilize accurate stream : Yes
Defeat audio cache : Yes
Make use of C2 pointers : No

Read offset correction : 6
Overread into Lead-In and Lead-Out : No
Fill up missing offset samples with silence : Yes
Delete leading and trailing silent blocks : No
Null samples used in CRC calculations : Yes
Used interface : Native Win32 interface for Win NT & 2000

Used output format : User Defined Encoder
Selected bitrate : 1024 kBit/s
Quality : High
Add ID3 tag : No
Command line compressor : C:\Program Files\Exact Audio Copy\FLAC\FLAC.EXE
Additional command line options : -5 -V -T "ARTIST=%a" -T "TITLE=%t" -T "ALBUM=%g" -T "DATE=%y" -T "TRACKNUMBER=%n" -T "GENRE=%m" -T "COMMENT=EAC Flac 1.1.2 -5" %s


TOC of the extracted CD

Track | Start | Length | Start sector | End sector
––––––––––––––––––––––––––––-
1 | 0:00.00 | 4:31.06 | 0 | 20330
2 | 4:31.06 | 2:52.46 | 20331 | 33276
3 | 7:23.52 | 2:01.06 | 33277 | 42357
4 | 9:24.58 | 4:06.13 | 42358 | 60820
5 | 13:30.71 | 4:02.45 | 60821 | 79015
6 | 17:33.41 | 5:47.62 | 79016 | 105102
7 | 23:21.28 | 7:10.22 | 105103 | 137374
8 | 30:31.50 | 4:42.63 | 137375 | 158587
9 | 35:14.38 | 3:14.34 | 158588 | 173171
10 | 38:28.72 | 4:22.03 | 173172 | 192824
11 | 42:51.00 | 5:09.37 | 192825 | 216036
12 | 48:00.37 | 3:28.26 | 216037 | 231662
13 | 51:28.63 | 3:48.10 | 231663 | 248772
14 | 55:16.73 | 7:50.49 | 248773 | 284071
15 | 63:07.47 | 1:35.03 | 284072 | 291199


Range status and errors

Selected range

Filename C:\Users\Mike3\Desktop\Berlin 61-89 Wall of Sound (Flac)\Disc 1 - West Side\Various - Berlin 61 89 Wall of Sound - CD1 - 'West Side'.wav

Peak level 98.8 %
Range quality 100.0 %
Copy CRC 82F10554
Copy OK

No errors occurred


AccurateRip summary

Track 1 not present in database
Track 2 not present in database
Track 3 not present in database
Track 4 not present in database
Track 5 not present in database
Track 6 not present in database
Track 7 not present in database
Track 8 not present in database
Track 9 not present in database
Track 10 not present in database
Track 11 not present in database
Track 12 not present in database
Track 13 not present in database
Track 14 not present in database
Track 15 not present in database

None of the tracks are present in the AccurateRip database

End of status report


Exact Audio Copy V0.99 prebeta 5 from 4. May 2009

EAC extraction logfile from 29. December 2009, 17:46

Various / Berlin Wall of Sound 61/89 (CD2 'East Side')

Used drive : HP DVD Writer 1040r Adapter: 1 ID: 0

Read mode : Secure
Utilize accurate stream : Yes
Defeat audio cache : Yes
Make use of C2 pointers : No

Read offset correction : 6
Overread into Lead-In and Lead-Out : No
Fill up missing offset samples with silence : Yes
Delete leading and trailing silent blocks : No
Null samples used in CRC calculations : Yes
Used interface : Native Win32 interface for Win NT & 2000

Used output format : User Defined Encoder
Selected bitrate : 1024 kBit/s
Quality : High
Add ID3 tag : No
Command line compressor : C:\Program Files\Exact Audio Copy\FLAC\FLAC.EXE
Additional command line options : -5 -V -T "ARTIST=%a" -T "TITLE=%t" -T "ALBUM=%g" -T "DATE=%y" -T "TRACKNUMBER=%n" -T "GENRE=%m" -T "COMMENT=EAC Flac 1.1.2 -5" %s


TOC of the extracted CD

Track | Start | Length | Start sector | End sector
––––––––––––––––––––––––––––-
1 | 0:00.00 | 2:55.62 | 0 | 13186
2 | 2:55.62 | 4:27.57 | 13187 | 33268
3 | 7:23.44 | 4:43.74 | 33269 | 54567
4 | 12:07.43 | 5:31.70 | 54568 | 79462
5 | 17:39.38 | 4:39.52 | 79463 | 100439
6 | 22:19.15 | 2:20.01 | 100440 | 110940
7 | 24:39.16 | 3:08.10 | 110941 | 125050
8 | 27:47.26 | 4:11.21 | 125051 | 143896
9 | 31:58.47 | 2:23.42 | 143897 | 154663
10 | 34:22.14 | 3:03.62 | 154664 | 168450
11 | 37:26.01 | 3:05.64 | 168451 | 182389
12 | 40:31.65 | 7:07.29 | 182390 | 214443
13 | 47:39.19 | 2:59.74 | 214444 | 227942
14 | 50:39.18 | 6:26.16 | 227943 | 256908
15 | 57:05.34 | 8:20.22 | 256909 | 294430


Range status and errors

Selected range

Filename C:\Users\Mike3\Desktop\Berlin 61-89 Wall of Sound (Flac)\Disc 2 - East Side\Various - Berlin Wall of Sound 61 89 (CD2 'East Side').wav

Peak level 97.6 %
Range quality 100.0 %
Copy CRC 66238D12
Copy OK

No errors occurred


AccurateRip summary

Track 1 not present in database
Track 2 not present in database
Track 3 not present in database
Track 4 not present in database
Track 5 not present in database
Track 6 not present in database
Track 7 not present in database
Track 8 not present in database
Track 9 not present in database
Track 10 not present in database
Track 11 not present in database
Track 12 not present in database
Track 13 not present in database
Track 14 not present in database
Track 15 not present in database

None of the tracks are present in the AccurateRip database

End of status report

Files
Lame 320 Kbps = 309MB
Flac 956 Kbps ABR = 901MB
200 DPI PDF Booklet (in English, French and German) = 18MB

Booklet

http://www.filesonic.com/file/26747101/BerWoSBooklet.rar

320

http://www.filesonic.com/file/26747197/BWoS_3_.part1.rar
http://www.filesonic.com/file/26747133/BWoS_3_.part2.rar

Flac

http://www.filesonic.com/file/26747201/BWoS_F_.part1.rar
http://www.filesonic.com/file/26747163/BWoS_F_.part2.rar
http://www.filesonic.com/file/26747209/BWoS_F_.part3.rar
http://www.filesonic.com/file/26747217/BWoS_F_.part4.rar
http://www.filesonic.com/file/26747131/BWoS_F_.part5.rar

Booklet

http://www.fileserve.com/file/qvmnHCz/BerWoSBooklet.rar

320

http://www.fileserve.com/file/dwYGfxF/BWoS_3_.part1.rar
http://www.fileserve.com/file/AvxCVkC/BWoS_3_.part2.rar

Flac

http://www.fileserve.com/file/zWKdDK8/BWoS_F_.part1.rar
http://www.fileserve.com/file/VPCc4tQ/BWoS_F_.part2.rar
http://www.fileserve.com/file/2GEUceJ/BWoS_F_.part3.rar
http://www.fileserve.com/file/VhrrjJB/BWoS_F_.part4.rar
http://www.fileserve.com/file/3mSDdtv/BWoS_F_.part5.rar

No mirrors