Subcategories

Bert Jansch - Downunder: Live In Australia (2001)

Posted By: tirexiss
Bert Jansch - Downunder: Live In Australia (2001)

Bert Jansch - Downunder: Live In Australia (2001)
EAC | FLAC (image+.cue, log) | Covers Included | 58:04 | 455 MB
Genre: Folk-Rock, Singer-Songwriter | Label: Castle Music | Catalog: CMRCD022

Live is perhaps the best way to hear Bert Jansch, to be dazzled by the quality and assurance of his guitar work as well as his way with a song. After what seemed like a long time in the wilderness, he'd found his musical path again in 1996 with When the Circus Comes to Town and Live at the 12 Bar. Recorded two years later, this sounds so much more confident than either of those releases, the music of a man who'd not only recovered his form but was back at the top of his game – you only need to hear the picking behind the voice on "She Moved Through the Fair" to understand that. There's very little duplication of material between this and the Live at the 12 Bar release, which relied heavily on '60s classics. With a few exceptions (and yes, his signature tune, "Angie," is included) like "Blues Run the Game," the emphasis here is very much on newer songs from When the Circus Comes to Town and the just-issued Toy Balloon. There are even two brand-new pieces, the whaling song "My Donald" and the instrumental "Downunder," which wouldn't make it onto a studio recording for another couple of years, in addition to "Little Max," which remains unavailable elsewhere. Pete Howell offers some excellent and intuitive support on double bass, although whether percussion should have been there (it's on three tracks) is debatable, since it was added after the fact. Jansch hasn't put out many live albums during his long career, but releasing this was an excellent decision. It captures the mellow vibe of a warm Australian evening but, more importantly, it finds Bert Jansch sounding better than he had for years, and makes it easy to understand why he's considered a giant of guitar and folk song.

Bert Jansch - Downunder: Live In Australia (2001)

Track List:

01 - Blues Run The Game
02 - Come Back Baby
03 - The Lily Of The West
04 - Paper Houses
05 - Toy Balloon
06 - My Donald
07 - Born And Bred In Old Ireland
08 - She Moved Through The Fair
09 - Carnival
10 - Little Max
11 - Strolling Down The Highway
12 - Angie
13 - Curragh Of Kildare
14 - Downunder
15 - How It All Came Down

Exact Audio Copy V1.0 beta 3 from 29. August 2011

EAC extraction logfile from 25. April 2013, 14:59

Bert Jansch / Downunder - Live In Australia

Used drive : PLEXTOR DVDR PX-891SA Adapter: 0 ID: 2

Read mode : Secure
Utilize accurate stream : Yes
Defeat audio cache : Yes
Make use of C2 pointers : No

Read offset correction : 6
Overread into Lead-In and Lead-Out : No
Fill up missing offset samples with silence : Yes
Delete leading and trailing silent blocks : No
Null samples used in CRC calculations : Yes
Used interface : Installed external ASPI interface

Used output format : User Defined Encoder
Selected bitrate : 320 kBit/s
Quality : High
Add ID3 tag : No
Command line compressor : C:\Program Files\Exact Audio Copy 1.0\Flac\flac.exe
Additional command line options : -V -8 -T "Genre=%genre%" -T "Artist=%artist%" -T "Title=%title%" -T "Album=%albumtitle%" -T "Date=%year%" -T "Tracknumber=%tracknr%" -T "Comment=%comment%" %source%


TOC of the extracted CD

Track | Start | Length | Start sector | End sector
––––––––––––––––––––––––––––-
1 | 0:00.00 | 3:08.72 | 0 | 14171
2 | 3:08.72 | 3:34.05 | 14172 | 30226
3 | 6:43.02 | 4:14.48 | 30227 | 49324
4 | 10:57.50 | 3:09.20 | 49325 | 63519
5 | 14:06.70 | 3:59.10 | 63520 | 81454
6 | 18:06.05 | 2:57.25 | 81455 | 94754
7 | 21:03.30 | 3:04.60 | 94755 | 108614
8 | 24:08.15 | 5:22.00 | 108615 | 132764
9 | 29:30.15 | 4:31.32 | 132765 | 153121
10 | 34:01.47 | 3:25.08 | 153122 | 168504
11 | 37:26.55 | 3:19.62 | 168505 | 183491
12 | 40:46.42 | 3:50.10 | 183492 | 200751
13 | 44:36.52 | 4:20.45 | 200752 | 220296
14 | 48:57.22 | 4:59.65 | 220297 | 242786
15 | 53:57.12 | 4:13.23 | 242787 | 261784


Range status and errors

Selected range

Filename K:\Lossless Temp\Bert Jansch\Bert Jansch - Downhunder. Live In Australia - 2001 (2001 Sanctuary Records, CMRCD022)\Bert Jansch - Downunder - Live In Australia.wav

Peak level 97.7 %
Extraction speed 6.4 X
Range quality 100.0 %
Test CRC B4BD0F28
Copy CRC B4BD0F28
Copy OK

No errors occurred


AccurateRip summary

Track 1 not present in database
Track 2 not present in database
Track 3 not present in database
Track 4 not present in database
Track 5 not present in database
Track 6 not present in database
Track 7 not present in database
Track 8 not present in database
Track 9 not present in database
Track 10 not present in database
Track 11 not present in database
Track 12 not present in database
Track 13 not present in database
Track 14 not present in database
Track 15 not present in database

None of the tracks are present in the AccurateRip database

End of status report

==== Log checksum 9213E4CCE797B54574554DC530EC40136DF62CD0C594FF8879321FC6D474D6F8 ====

[CUETools log; Date: 05.06.2017 10:17:22; Version: 2.1.5]
[CTDB TOCID: N6v1jJpNhGevGA7gHbLZyxr6IS0-] found.
Track | CTDB Status
1 | (3/3) Accurately ripped
2 | (3/3) Accurately ripped
3 | (3/3) Accurately ripped
4 | (3/3) Accurately ripped
5 | (3/3) Accurately ripped
6 | (3/3) Accurately ripped
7 | (3/3) Accurately ripped
8 | (3/3) Accurately ripped
9 | (3/3) Accurately ripped
10 | (3/3) Accurately ripped
11 | (3/3) Accurately ripped
12 | (3/3) Accurately ripped
13 | (3/3) Accurately ripped
14 | (3/3) Accurately ripped
15 | (3/3) Accurately ripped
[AccurateRip ID: 001e9a46-015e5a54-e10da20f] found.
Track [ CRC | V2 ] Status
01 [2d78f225|8472679f] (0+0/4) No match
02 [74936d6e|a7e73fa4] (0+0/4) No match
03 [441eb7a9|f9851bd8] (0+0/4) No match
04 [7ffe1b47|d8498d2f] (0+0/4) No match
05 [26417fbb|f4ad60d7] (0+0/4) No match
06 [d693c920|a9994fc7] (0+0/4) No match
07 [e937b8ba|b4c923a3] (0+0/4) No match
08 [b76b8ca7|a1e15bf1] (0+0/4) No match
09 [74c2cd60|df1bd02a] (0+0/4) No match
10 [ac6383c5|5f4673ec] (0+0/4) No match
11 [f20a5361|4e32a3f2] (0+0/4) No match
12 [35598a04|3c319c2c] (0+0/4) No match
13 [e1f37fcc|ee235813] (0+0/4) No match
14 [c23fe6fa|d67b1be5] (0+0/4) No match
15 [2be20d57|05053f3f] (0+0/4) No match
Offsetted by 28:
01 [f54e98fd] (0/4) No match (V2 was not tested)
02 [a31f07aa] (0/4) No match (V2 was not tested)
03 [66a608a1] (0/4) No match (V2 was not tested)
04 [9b9fdb0f] (0/4) No match (V2 was not tested)
05 [c30c8447] (0/4) No match (V2 was not tested)
06 [ce2f3868] (0/4) No match (V2 was not tested)
07 [6eb41fb2] (0/4) No match (V2 was not tested)
08 [b70279f7] (0/4) No match (V2 was not tested)
09 [6fdd6b54] (0/4) No match (V2 was not tested)
10 [3ad7c6b9] (0/4) No match (V2 was not tested)
11 [2ffe78a1] (0/4) No match (V2 was not tested)
12 [82515888] (0/4) No match (V2 was not tested)
13 [18e40724] (0/4) No match (V2 was not tested)
14 [41f73996] (0/4) No match (V2 was not tested)
15 [05531cb3] (0/4) No match (V2 was not tested)

Track Peak [ CRC32 ] [W/O NULL] [ LOG ]
– 97,7 [B4BD0F28] [1899BA03] CRC32
01 97,7 [7F48BAD6] [259ED35D]
02 97,7 [97A8D8F0] [8E8CFA85]
03 97,7 [B52852FE] [42A9B21B]
04 97,7 [F6BDCCCA] [8F5284C2]
05 91,2 [F0B80DEE] [82A5888C]
06 92,3 [B1F7B9B5] [93C56DAE]
07 97,7 [EF163BA9] [8DD4CA9B]
08 97,7 [CDB39953] [CBB30901]
09 89,1 [528644D3] [AC16EA74]
10 97,7 [488A643B] [F99DB4A8]
11 97,7 [43C371B3] [58F9E53F]
12 97,7 [78F7A4C5] [E8B88F0F]
13 97,7 [E94399F9] [0441DAC8]
14 97,7 [3476D02F] [C80CD7CE]
15 97,7 [B286B437] [D72A5184]

Bert Jansch - Downunder: Live In Australia (2001)

Thanks to the Original ripper Swamp Fox!

Download: