Subcategories

Peter Frampton - Best Of FCA!35 Tour: An Evening With Peter Frampton (2012)

Posted By: jclane
Peter Frampton - Best Of FCA!35 Tour: An Evening With Peter Frampton (2012)

Peter Frampton - Best Of FCA!35 Tour: An Evening With Peter Frampton (2012)
EAC Rip | 3 CDs | FLAC Image + Cue + Log | 1.26 GB | Complete Scans, 600 dpi JPEG | 73 MB
MP3 CBR @320 kbps (LAME 3.99) | Joint Stereo | 468 MB
Eagle Records | ER202982 | Pop Rock

It's easy and natural to confuse this three-disc audio package with the similarly titled DVD/Blu-Ray that was released simultaneously with the same cover art, especially since the song selection is nearly identical. But the CD set is a slightly different animal since it grabs what Frampton thinks are the best performances of the material played from various gigs on his year-long tour from 2011-2012. In comparison, the video is two complete shows from a few cities. The musical differences are subtle, yet there is a case to be made that the audio is a better document of this material and that hardcore fans may indeed want to spring for both. Regardless, even if the concept of classic rockers and new wavers playing their classic albums from start to finish is already cliché in 2012, Frampton and his band, of which only bassist Stanley Sheldon remains from the 1977 Frampton Comes Alive! outfit, deliver a robust and thoroughly convincing show. Considering that the guitarist has likely played much of this material at every concert for the previous three decades, his commitment and sheer enjoyment seem to be fresh, and if not always inspired, certainly inspirational. Frampton's voice isn't quite as fluid as it was 35 years prior, but the slight, grainy edge that age brings injects a somewhat more sober note to these energetic performances. Almost every song is longer, too, with "I'll Give You Money" jumping from just under six minutes in 1975 to over nine minutes here. The show-stopping, talk box-driven "Do You Feel Like We Do" expands, for better or worse, from 12 to nearly 18 minutes with a newly added, jazzy interlude from electric pianist Rob Arthur. If that were all, it would be a pretty successful revival of an album that surprisingly hasn't lost its luster since its mid-'70s release. But Frampton returns with a stunning second set, arguably better than the first, that features live versions of more obscure, newer selections. He also digs into oldies from his tenure in Humble Pie, including a raucous "I Don't Need No Doctor" and an appearance from son Julian who sings lead on that track and a few others. Frampton's guitar chops are finely tuned throughout but he gets a chance to really exhibit them on the beautiful ten-minute classical/blues/jazz-based instrumental "Suite: Liberte" from 2010's unjustly ignored Thank You Mr. Churchill. A roaring 12-minute take on George Harrison's "While My Guitar Gently Weeps" begins with an almost avant-garde intro before Frampton hits the noted riff almost three minutes later and builds the intensity until it explodes in a goosebump-raising crescendo. With over three hours of music, nearly all of this is pretty terrific – what could have been a shoddy, cash-generating knockoff is powerful proof that Frampton might indeed be getting better as he ages. The result is an artistic triumph and a musical treat, especially for fans and even for those who may not have been born when Frampton Comes Alive! was a staple in dorm rooms and ruled the charts in 1976.

Disc One:

01. Somethin's Happening - (Live From Mesa Arts Center- Ikeda Theater, Mesa, Az/2012) - 06:24
02. Doobie Wah - (Live From Warner Theatre, Washington, Dc/2012) - 05:26
03. Lines On My Face - (Live From Majestic Theatre, San Antonio, Tx/2011) - 09:19
04. Show Me The Way - (Live From Pabst Theater, Milwaukee, Wi/2012) - 04:45
05. It's A Plain Shame - (Live From Cascade Theatre, Redding, Ca/2012) - 03:43
06. Wind Of Change - (Live From Akron Civic Theatre, Akron, Oh/2012) - 03:44
07. Just The Time Of Year - (Live From Hanover Theatre For The Performing Arts, Worcester, Ma/2012) - 04:14
08. Penny For Your Thoughts - (Live From Cordiner Hall, Walla Walla, Wa/2012) - 02:17
09. All I Wanna Be (Is By Your Side) - (Acoustic/Live From Cordiner Hall, Walla Walla, Wa/2012) - 03:28
10. Baby, I Love Your Way - (Live From Mill Bay Casino, Manson, Wa/2011) - 04:56
11. (I Wanna) Go To The Sun - (Live From Corn Exchange, Cambridge, Uk/2011) - 08:08
12. Nowhere's Too Far (For My Baby) - (Live From Place Des Arts, Montreal, Canada/2011) - 04:48
13. (I'll Give You) Money - (Live From Place Des Arts, Montreal, Canada/2011)- - 09:38


Exact Audio Copy V1.0 beta 3 from 29. August 2011

EAC extraction logfile from 19. January 2013, 1:22

Frampton, Peter / FCA! 35 Tour: An Evening With Peter Frampton, CD 1

Used drive : SAMSUNG DVD-ROM SD-616E Adapter: 3 ID: 0

Read mode : Secure
Utilize accurate stream : Yes
Defeat audio cache : Yes
Make use of C2 pointers : No

Read offset correction : 12
Overread into Lead-In and Lead-Out : No
Fill up missing offset samples with silence : Yes
Delete leading and trailing silent blocks : No
Null samples used in CRC calculations : Yes
Used interface : Native Win32 interface for Win NT & 2000

Used output format : User Defined Encoder
Selected bitrate : 768 kBit/s
Quality : High
Add ID3 tag : No
Command line compressor : C:\Program Files\Exact Audio Copy\FLAC\FLAC.EXE
Additional command line options : -6 -V -T "ARTIST=%artist%" -T "TITLE=%title%" -T "ALBUM=%albumtitle%" -T "DATE=%year%" -T "TRACKNUMBER=%tracknr%" -T "GENRE=%genre%" -T "COMMENT=%comment%" -T "BAND=%albuminterpret%" -T "ALBUMARTIST=%albuminterpret%" -T "COMPOSER=%composer%" %haslyrics%–tag-from-file=LYRICS="%lyricsfile%"%haslyrics% -T "DISCNUMBER=%cdnumber%" -T "TOTALDISCS=%totalcds%" -T "TOTALTRACKS=%numtracks%" %hascover%–picture="%coverfile%"%hascover% %source% -o %dest%

TOC of the extracted CD

Track | Start | Length | Start sector | End sector
––––––––––––––––––––––––––––-
1 | 0:00.00 | 6:24.49 | 0 | 28848
2 | 6:24.49 | 5:26.73 | 28849 | 53371
3 | 11:51.47 | 9:19.73 | 53372 | 95369
4 | 21:11.45 | 4:45.35 | 95370 | 116779
5 | 25:57.05 | 3:43.28 | 116780 | 133532
6 | 29:40.33 | 3:44.18 | 133533 | 150350
7 | 33:24.51 | 4:14.08 | 150351 | 169408
8 | 37:38.59 | 2:17.09 | 169409 | 179692
9 | 39:55.68 | 3:28.65 | 179693 | 195357
10 | 43:24.58 | 4:56.35 | 195358 | 217592
11 | 48:21.18 | 8:08.34 | 217593 | 254226
12 | 56:29.52 | 4:48.66 | 254227 | 275892
13 | 61:18.43 | 9:38.23 | 275893 | 319265

Range status and errors

Selected range

Filename C:\Documents and Settings\Borya\Desktop\fra35\cd1\Frampton, Peter - FCA! 35 Tour- An Evening With Peter Frampton, CD 1.wav

Peak level 99.1 %
Extraction speed 2.8 X
Range quality 99.9 %
Copy CRC AF262264
Copy OK

No errors occurred

AccurateRip summary

Track 1 not present in database
Track 2 not present in database
Track 3 not present in database
Track 4 not present in database
Track 5 not present in database
Track 6 not present in database
Track 7 not present in database
Track 8 not present in database
Track 9 not present in database
Track 10 not present in database
Track 11 not present in database
Track 12 not present in database
Track 13 not present in database

None of the tracks are present in the AccurateRip database

End of status report

==== Log checksum 90271A11D369FF7BBAB152D2693800CCCAC1AC48D2F236D66D83C91B1A85A5C7 ====

Peter Frampton - Best Of FCA!35 Tour: An Evening With Peter Frampton (2012)

Disc Two:

01. Do You Feel Like We Do - (Live From Majestic Theatre, San Antonio, Tx/2011) - 18:24
02. Shine On - (Live From Orpheum Theater, Omaha, Ne/2012) - 04:01
03. Jumpin' Jack Flash - (Live From Palace Theater, Albany, Ny/2012) - 07:59
04. While My Guitar Gently Weeps - (Live From Artpark, Lewiston, Ny/2012) - 12:20


Exact Audio Copy V1.0 beta 3 from 29. August 2011

EAC extraction logfile from 19. January 2013, 12:09

Frampton, Peter / FCA! 35 Tour: An Evening With Peter Frampton, CD 2

Used drive : SAMSUNG DVD-ROM SD-616E Adapter: 3 ID: 0

Read mode : Secure
Utilize accurate stream : Yes
Defeat audio cache : Yes
Make use of C2 pointers : No

Read offset correction : 12
Overread into Lead-In and Lead-Out : No
Fill up missing offset samples with silence : Yes
Delete leading and trailing silent blocks : No
Null samples used in CRC calculations : Yes
Used interface : Native Win32 interface for Win NT & 2000

Used output format : User Defined Encoder
Selected bitrate : 768 kBit/s
Quality : High
Add ID3 tag : No
Command line compressor : C:\Program Files\Exact Audio Copy\FLAC\FLAC.EXE
Additional command line options : -6 -V -T "ARTIST=%artist%" -T "TITLE=%title%" -T "ALBUM=%albumtitle%" -T "DATE=%year%" -T "TRACKNUMBER=%tracknr%" -T "GENRE=%genre%" -T "COMMENT=%comment%" -T "BAND=%albuminterpret%" -T "ALBUMARTIST=%albuminterpret%" -T "COMPOSER=%composer%" %haslyrics%–tag-from-file=LYRICS="%lyricsfile%"%haslyrics% -T "DISCNUMBER=%cdnumber%" -T "TOTALDISCS=%totalcds%" -T "TOTALTRACKS=%numtracks%" %hascover%–picture="%coverfile%"%hascover% %source% -o %dest%

TOC of the extracted CD

Track | Start | Length | Start sector | End sector
––––––––––––––––––––––––––––-
1 | 0:00.00 | 18:24.03 | 0 | 82802
2 | 18:24.03 | 4:01.39 | 82803 | 100916
3 | 22:25.42 | 7:59.31 | 100917 | 136872
4 | 30:24.73 | 12:20.14 | 136873 | 192386

Range status and errors

Selected range

Filename C:\Documents and Settings\Borya\Desktop\fra35\cd2\Frampton, Peter - FCA! 35 Tour- An Evening With Peter Frampton, CD 2.wav

Peak level 99.0 %
Extraction speed 2.8 X
Range quality 100.0 %
Copy CRC 701D0DD8
Copy OK

No errors occurred

AccurateRip summary

Track 1 not present in database
Track 2 not present in database
Track 3 not present in database
Track 4 not present in database

None of the tracks are present in the AccurateRip database

End of status report

==== Log checksum DECB32B2FB1400BA758FD6F0C485A4437320C88A4932668A8575099804EB1D41 ====

Peter Frampton - Best Of FCA!35 Tour: An Evening With Peter Frampton (2012)

Disc Three:

01. Asleep At The Wheel - (Live From Pabst Theater, Milwaukee, Wi/2012) - 09:44
02. Restraint - (Live From Saenger Theatre, Pensacola, Fl/2011) - 03:52
03. Float - (Live From Pabst Theater, Milwaukee, Wi/2012) - 04:12
04. Boot It Up - (Live From Cordiner Hall, Walla Walla, Wa/2012) - 03:44
05. Double Nickels - (Live From Mud Island Amphitheater, Memphis, Tn/2011) - 04:07
06. Vaudeville Nanna And The Banjolele - (Live From Mesa Arts Center- Ikeda Theate, Mesa, Az/2012) - 04:51
07. Suite: Liberte - (Live From Balboa Theatre, San Diego, Ca/2011) - 10:52
08. All I Wanna Be - (Is By Your Side) (Electric/Live From Cascade Theatre, Redding, Ca/2012) - 07:35
09. Road To The Sun - (Live From Hammersmith Apollo, London, Uk/2011) - 05:39
10. I Don't Need No Doctor - (Live From Beacon Theatre, New York City, Ny/2012) - 06:05
11. Black Hole Sun - (Live From Cordiner Hall, Walla Walla, Wa/2012) - 05:54
12. Four Day Creep - (Live From Hammersmith Apollo, London, Uk/2011) - 03:20
13. Off The Hook - (Live From Place Des Arts, Montreal, Canada/2011) - 04:07


Exact Audio Copy V1.0 beta 3 from 29. August 2011

EAC extraction logfile from 19. January 2013, 14:38

Frampton, Peter / FCA! 35 Tour: An Evening With Peter Frampton, CD 3

Used drive : SAMSUNG DVD-ROM SD-616E Adapter: 3 ID: 0

Read mode : Secure
Utilize accurate stream : Yes
Defeat audio cache : Yes
Make use of C2 pointers : No

Read offset correction : 12
Overread into Lead-In and Lead-Out : No
Fill up missing offset samples with silence : Yes
Delete leading and trailing silent blocks : No
Null samples used in CRC calculations : Yes
Used interface : Native Win32 interface for Win NT & 2000

Used output format : User Defined Encoder
Selected bitrate : 768 kBit/s
Quality : High
Add ID3 tag : No
Command line compressor : C:\Program Files\Exact Audio Copy\FLAC\FLAC.EXE
Additional command line options : -6 -V -T "ARTIST=%artist%" -T "TITLE=%title%" -T "ALBUM=%albumtitle%" -T "DATE=%year%" -T "TRACKNUMBER=%tracknr%" -T "GENRE=%genre%" -T "COMMENT=%comment%" -T "BAND=%albuminterpret%" -T "ALBUMARTIST=%albuminterpret%" -T "COMPOSER=%composer%" %haslyrics%–tag-from-file=LYRICS="%lyricsfile%"%haslyrics% -T "DISCNUMBER=%cdnumber%" -T "TOTALDISCS=%totalcds%" -T "TOTALTRACKS=%numtracks%" %hascover%–picture="%coverfile%"%hascover% %source% -o %dest%

TOC of the extracted CD

Track | Start | Length | Start sector | End sector
––––––––––––––––––––––––––––-
1 | 0:00.00 | 9:44.62 | 0 | 43861
2 | 9:44.62 | 3:52.27 | 43862 | 61288
3 | 13:37.14 | 4:12.41 | 61289 | 80229
4 | 17:49.55 | 3:44.67 | 80230 | 97096
5 | 21:34.47 | 4:07.64 | 97097 | 115685
6 | 25:42.36 | 4:51.49 | 115686 | 137559
7 | 30:34.10 | 10:52.27 | 137560 | 186486
8 | 41:26.37 | 7:35.44 | 186487 | 220655
9 | 49:02.06 | 5:39.12 | 220656 | 246092
10 | 54:41.18 | 6:05.19 | 246093 | 273486
11 | 60:46.37 | 5:54.73 | 273487 | 300109
12 | 66:41.35 | 3:20.49 | 300110 | 315158
13 | 70:02.09 | 4:07.70 | 315159 | 333753

Range status and errors

Selected range

Filename C:\Documents and Settings\Borya\Desktop\fra35\cd3\Frampton, Peter - FCA! 35 Tour- An Evening With Peter Frampton, CD 3.wav

Peak level 99.1 %
Extraction speed 3.0 X
Range quality 100.0 %
Copy CRC DDE9B946
Copy OK

No errors occurred

AccurateRip summary

Track 1 not present in database
Track 2 not present in database
Track 3 not present in database
Track 4 not present in database
Track 5 not present in database
Track 6 not present in database
Track 7 not present in database
Track 8 not present in database
Track 9 not present in database
Track 10 not present in database
Track 11 not present in database
Track 12 not present in database
Track 13 not present in database

None of the tracks are present in the AccurateRip database

End of status report

==== Log checksum 0B589AA0CB442A9AFCA2A508778C4A79DCA296BA39DB384284F6F6C8C9D83A2A ====

Peter Frampton - Best Of FCA!35 Tour: An Evening With Peter Frampton (2012)

Released Date: November 12, 2012
Format: 3 x CD, Live Album
Length: CD1 - 01:10:57 / CD2 - 00:42:45 / CD3 - 01:14:10
Producer: Peter Frampton

Peter Frampton - Best Of FCA!35 Tour: An Evening With Peter Frampton (2012)

******************************************************

Many Thanks to Ready.zp & Boris1

The files are interchangeable!