Subcategories

Bette Midler - Beaches (OST) (1988)

Posted By: BlondStyle
Bette Midler - Beaches (OST) (1988)

Bette Midler - Beaches (OST) (1988)
Original Soundtrack, Electronic, Pop, Rock | EAC Rip | APE + CUE + LOG + Covers | 33:57 Min | 209,33 Mb
MP3 | 320 Kbps | Covers | 82,67 Mb
Label: Atlantic Records | Released: 1988

Beaches is the soundtrack to the Academy Award nominated feature film of the same name starring Bette Midler, who performs most of the tracks on the album, released on the Atlantic Records label in 1988 The album features one of Midler's best known songs, the ballad "Wind Beneath My Wings" which was a #1 hit.

TrackList:

01. "Under The Boardwalk" - 04:19
02. "Wind Beneath My Wings" - 04:54
03. "I've Still Got My Health" - 01:32
04. "I Think It's Going To Rain Today" - 03:31
05. "Otto Titsling" - 03:13
06. "I Know You By Heart" (duet with David Pack) - 04:40
07. "The Glory Of Love" - 03:16
08. "Baby Mine" - 02:27
09. "Oh, Industry!" - 04:06
10. "The Friendship Theme" (Instrumental) - 01:59

Exact Audio Copy V0.99 prebeta 4 from 23. January 2008

Отчёт EAC об извлечении, выполненном 25. августа 2009, 18:10

Bette Midler / Beaches

Дисковод: ATAPI DVD DW 8X16X8X16 Adapter: 0 ID: 2

Режим чтения : Достоверность
Использование точного потока : Да
Отключение кэша аудио : Да
Использование указателей C2 : Нет

Коррекция смещения при чтении : 618
Способность читать области Lead-in и Lead-out : Нет
Заполнение пропущенных сэмплов тишиной : Да
Удаление блоков с тишиной в начале и конце : Нет
При вычислениях CRC использовались нулевые сэмплы : Нет
Интерфейс : Встроенный Win32-интерфейс для Win NT/2000

Выходной формат : Внутренние WAV-операции
Формат сэмплов : 44.100 Гц; 16 бит; стерео


TOC извлечённого CD

Трек | Старт | Длительность | Начальный сектор | Конечный сектор
––––––––––––––––––––––––––––––––––-
1 | 0:00.00 | 4:19.70 | 0 | 19494
2 | 4:19.70 | 4:54.28 | 19495 | 41572
3 | 9:14.23 | 1:32.02 | 41573 | 48474
4 | 10:46.25 | 3:31.70 | 48475 | 64369
5 | 14:18.20 | 3:13.50 | 64370 | 78894
6 | 17:31.70 | 4:40.05 | 78895 | 99899
7 | 22:12.00 | 3:16.40 | 99900 | 114639
8 | 25:28.40 | 2:27.33 | 114640 | 125697
9 | 27:55.73 | 4:06.32 | 125698 | 144179
10 | 32:02.30 | 1:59.20 | 144180 | 153124


Характеристики диапазона извлечения и сообщения об ошибках

Выбранный диапазон

Имя файла C:\Documents and Settings\OEM\Мои документы\Мои аудиозаписи\Bette Midler - Beaches.wav

Пиковый уровень 97.3 %
Качество диапазона 100.0 %
CRC копии 2D94F6A4
Копирование… OK

Ошибок не произошло


AccurateRip: сводка

Трек 1 нет в базе данных
Трек 2 нет в базе данных
Трек 3 нет в базе данных
Трек 4 нет в базе данных
Трек 5 нет в базе данных
Трек 6 нет в базе данных
Трек 7 нет в базе данных
Трек 8 нет в базе данных
Трек 9 нет в базе данных
Трек 10 нет в базе данных

Ни одного трека нет в базе AccurateRip

Конец отчёта


All Download Links
are Here


Password: www.AvaxHome.ru

P.S.
Sorry guys for this secrecy but such way will help to save the links from deleting
and it much more better than crappy and greedy so called "linkprotectors".

No Mirror Please