Subcategories

Betty Wright And The Roots ‎- Betty Wright│The Movie (2011)

Posted By: JET 1
Betty Wright And The Roots ‎- Betty Wright│The Movie (2011)

Betty Wright And The Roots ‎- Betty Wright│The Movie (2011)
EAC Rip | FLAC (Tracks) +CUE, LOG | 670 MB | Covers Included
Genre: Soul | Label: S-Curve | Catalog Number: 0731519012

Betty Wright: The Movie is this Miami soul legend’s first album since 2001’s Fit for a King, but it’s hardly a return. During Wright’s decade away from making her own records, she was busy helping others – including Kelly Clarkson, Joss Stone, Diddy, Keyshia Cole, and Lil Wayne – as a songwriter, arranger, producer, and background vocalist. Here, she links up with the intrepid Roots crew and several supplemental session musicians, and she wrangles complementary appearances from Stone and the tremendously underappreciated Lenny Williams, as well as disruptive interjections from Lil Wayne and Snoop Dogg.

Exact Audio Copy V1.0 beta 3 from 29. August 2011

EAC extraction logfile from 15. April 2016, 19:19

Betty Wright and The Roots / Betty Wright: The Movie

Used drive : GENERIC CDRCB05 Adapter: 4 ID: 0

Read mode : Secure
Utilize accurate stream : Yes
Defeat audio cache : Yes
Make use of C2 pointers : No

Read offset correction : 102
Overread into Lead-In and Lead-Out : No
Fill up missing offset samples with silence : Yes
Delete leading and trailing silent blocks : No
Null samples used in CRC calculations : Yes
Used interface : Native Win32 interface for Win NT & 2000
Gap handling : Appended to previous track

Used output format : User Defined Encoder
Selected bitrate : 1024 kBit/s
Quality : High
Add ID3 tag : No
Command line compressor : C:\Program Files\FLAC\flac.exe
Additional command line options : -8 -V -T "ARTIST=%artist%" -T "TITLE=%title%" -T "ALBUM=%albumtitle%" -T "DATE=%year%" -T "TRACKNUMBER=%tracknr%" -T "GENRE=%genre%" -T "PERFORMER=%albuminterpret%" -T "COMPOSER=%composer%" %haslyrics%–tag-from-file=LYRICS="%lyricsfile%"%haslyrics% -T "ALBUMARTIST=%albumartist%" -T "DISCNUMBER=%cdnumber%" -T "TOTALDISCS=%totalcds%" -T "TOTALTRACKS=%numtracks%" -T "COMMENT=%comment%" %source% -o %dest%


TOC of the extracted CD

Track | Start | Length | Start sector | End sector
––––––––––––––––––––––––––––-
1 | 0:00.00 | 5:39.08 | 0 | 25432
2 | 5:39.08 | 5:35.04 | 25433 | 50561
3 | 11:14.12 | 3:56.12 | 50562 | 68273
4 | 15:10.24 | 5:06.48 | 68274 | 91271
5 | 20:16.72 | 5:15.51 | 91272 | 114947
6 | 25:32.48 | 5:06.40 | 114948 | 137937
7 | 30:39.13 | 5:24.02 | 137938 | 162239
8 | 36:03.15 | 6:40.06 | 162240 | 192245
9 | 42:43.21 | 5:25.69 | 192246 | 216689
10 | 48:09.15 | 4:38.26 | 216690 | 237565
11 | 52:47.41 | 3:37.59 | 237566 | 253899
12 | 56:25.25 | 5:35.69 | 253900 | 279093
13 | 62:01.19 | 6:05.22 | 279094 | 306490
14 | 68:06.41 | 9:40.31 | 306491 | 350021


Track 1

Filename F:\POSTSSSSS\Betty Wright And The Roots ‎- Betty Wright│The Movie (2011)\01 - Old Songs.wav

Pre-gap length 0:00:02.00

Peak level 99.8 %
Extraction speed 1.5 X
Track quality 100.0 %
Test CRC 51CD824C
Copy CRC 51CD824C
Accurately ripped (confidence 12) [2733F6FE] (AR v2)
Copy OK

Track 2

Filename F:\POSTSSSSS\Betty Wright And The Roots ‎- Betty Wright│The Movie (2011)\02 - Real Woman featuring Snoop Dogg.wav

Pre-gap length 0:00:01.08

Peak level 99.8 %
Extraction speed 1.7 X
Track quality 100.0 %
Test CRC 39937AB6
Copy CRC 39937AB6
Accurately ripped (confidence 12) [37B840D1] (AR v2)
Copy OK

Track 3

Filename F:\POSTSSSSS\Betty Wright And The Roots ‎- Betty Wright│The Movie (2011)\03 - In The Middle Of The Game (Don't Change The Play).wav

Peak level 99.8 %
Extraction speed 1.8 X
Track quality 100.0 %
Test CRC 20150777
Copy CRC 20150777
Accurately ripped (confidence 12) [0C3BFEE7] (AR v2)
Copy OK

Track 4

Filename F:\POSTSSSSS\Betty Wright And The Roots ‎- Betty Wright│The Movie (2011)\04 - Surrender.wav

Pre-gap length 0:00:01.63

Peak level 99.8 %
Extraction speed 2.0 X
Track quality 100.0 %
Test CRC 6BB40CD2
Copy CRC 6BB40CD2
Accurately ripped (confidence 12) [B6131715] (AR v2)
Copy OK

Track 5

Filename F:\POSTSSSSS\Betty Wright And The Roots ‎- Betty Wright│The Movie (2011)\05 - Grapes On A Vine featuring Lil Wayne.wav

Peak level 99.8 %
Extraction speed 2.1 X
Track quality 100.0 %
Test CRC 46B4EFE6
Copy CRC 46B4EFE6
Accurately ripped (confidence 12) [CD82B376] (AR v2)
Copy OK

Track 6

Filename F:\POSTSSSSS\Betty Wright And The Roots ‎- Betty Wright│The Movie (2011)\06 - Look Around (Be A Man).wav

Peak level 99.8 %
Extraction speed 2.2 X
Track quality 100.0 %
Test CRC DEE910ED
Copy CRC DEE910ED
Accurately ripped (confidence 12) [4139F7D4] (AR v2)
Copy OK

Track 7

Filename F:\POSTSSSSS\Betty Wright And The Roots ‎- Betty Wright│The Movie (2011)\07 - Tonight Again.wav

Peak level 99.8 %
Extraction speed 2.1 X
Track quality 99.9 %
Test CRC D2411872
Copy CRC D2411872
Accurately ripped (confidence 12) [81175DD7] (AR v2)
Copy OK

Track 8

Filename F:\POSTSSSSS\Betty Wright And The Roots ‎- Betty Wright│The Movie (2011)\08 - Hollywood featuring Robert ''The Messenger'' Bozeman.wav

Peak level 99.8 %
Extraction speed 2.5 X
Track quality 100.0 %
Test CRC 7054C7EB
Copy CRC 7054C7EB
Accurately ripped (confidence 12) [15A1960E] (AR v2)
Copy OK

Track 9

Filename F:\POSTSSSSS\Betty Wright And The Roots ‎- Betty Wright│The Movie (2011)\09 - Whisper In The Wind featuring Joss Stone.wav

Peak level 99.8 %
Extraction speed 2.5 X
Track quality 100.0 %
Test CRC 5CCE24A6
Copy CRC 5CCE24A6
Accurately ripped (confidence 12) [6B4B63F8] (AR v2)
Copy OK

Track 10

Filename F:\POSTSSSSS\Betty Wright And The Roots ‎- Betty Wright│The Movie (2011)\10 - Baby Come Back featuring Lenny Williams.wav

Peak level 99.8 %
Extraction speed 2.7 X
Track quality 100.0 %
Test CRC 95497B4C
Copy CRC 95497B4C
Accurately ripped (confidence 12) [A17143CD] (AR v2)
Copy OK

Track 11

Filename F:\POSTSSSSS\Betty Wright And The Roots ‎- Betty Wright│The Movie (2011)\11 - So Long, So Wrong.wav

Peak level 99.8 %
Extraction speed 2.3 X
Track quality 99.9 %
Test CRC 44DC1C2A
Copy CRC 44DC1C2A
Accurately ripped (confidence 12) [756B5012] (AR v2)
Copy OK

Track 12

Filename F:\POSTSSSSS\Betty Wright And The Roots ‎- Betty Wright│The Movie (2011)\12 - You And Me, Leroy.wav

Peak level 99.8 %
Extraction speed 2.9 X
Track quality 100.0 %
Test CRC 74ABDF3F
Copy CRC 74ABDF3F
Accurately ripped (confidence 12) [E90FEDC3] (AR v2)
Copy OK

Track 13

Filename F:\POSTSSSSS\Betty Wright And The Roots ‎- Betty Wright│The Movie (2011)\13 - The One (bonus track).wav

Peak level 99.8 %
Extraction speed 2.8 X
Track quality 100.0 %
Test CRC D4D12A94
Copy CRC D4D12A94
Accurately ripped (confidence 12) [1DD54998] (AR v2)
Copy OK

Track 14

Filename F:\POSTSSSSS\Betty Wright And The Roots ‎- Betty Wright│The Movie (2011)\14 - Go! (Live) (bonus track).wav

Peak level 99.8 %
Extraction speed 3.2 X
Track quality 100.0 %
Test CRC 33365052
Copy CRC 33365052
Accurately ripped (confidence 12) [17BF831A] (AR v2)
Copy OK


All tracks accurately ripped

No errors occurred

End of status report

==== Log checksum A0A0A2727F7D8504F5EA618A758B2A3015F73968BA3C2A69F92BC133075D7851 ====


Tracklist:
01. Old Songs [Morris, Wright] (5:39)
02. Real Woman [Broadnus, Jeanty, Morris, McMillion, Wright] (5:35)
03. In The Middle Of The Game (Don't Change The Play) [Castillo, Morris, Wright] (3:56)
04. Surrender [Morris, Wright] (5:07)
05. Grapes On A Vine [Morris, Wright, Carter] (5:16)
06. Look Around (Be A Man) [Pallin, Morris, Wright] (5:07)
07. Tonight Again [Morris, Wright] (5:24)
08. Hollywould [Morris, Wright] (6:40)
09. Whisper In The Wind [Stoker, Morris, Wright] (5:25)
10. Baby Come Back [Jeanty, McMillion, Wright] (4:38)
11. So Long, So Wrong [Morris, Wright] (3:37)
12. You & Me, Leroy [Angry, Kelley, Thompson, Wright] (5:36)
13. The One [Curtis, Wright] (6:05)
14. Go! [Morris, Wright, Wright] (9:40)