Subcategories
Tags
Language
Tags

Between the Buried and Me - Future Sequence: Live At The Fidelitorium (2014) [CD & Blu-ray + DVD-5]

Posted By: v3122
Between the Buried and Me - Future Sequence: Live At The Fidelitorium (2014) [CD  & Blu-ray + DVD-5]

Between the Buried and Me - Future Sequence: Live At The Fidelitorium (2014)
EAC | Flac(Image) + Cue + Log & MP3 CBR 320Kbps
Metal Blade, 3984-34069-9 | ~ 523 or 175 Mb | Scans(png) -> 115 Mb
Blu-ray: MPEG-2 24964 kbps, 1080p, 24 fps, 16:9 | DD 2.0, 192 kbps -> 20.03 Gb
DVD-5: NTSC 16:9 (720x480) VBR | Dolby AC3, 2 ch -> 4.31 Gb
Progressive Metal / Metalcore

With video sharing giving fans in the Internet age the ability to access most any live show they might care to see, Between the Buried and Me decided that they wanted to do something different than the usual concert DVD. With Future Sequence: Live at the Fidelitorium, the band gives fans a more intimate performance, inviting them into the studio to watch the group play its daring sixth album, The Parallax II: Future Sequence, live in its entirety. Instead of a massive stage show with a light show and a screaming crowd, it's just the bandmembers putting on a casual performance, making it feel as though you've been invited to watch them play in their practice space. While it might not have the bombast of Colors Live, the subdued intimacy of Live at the Fidelitorium makes it a live DVD that Between the Buried and Me devotees shouldn't pass up. [A Blu-Ray version added a CD.]

by Gregory Heaney, allmusic
Between the Buried and Me - Future Sequence: Live At The Fidelitorium (2014):

Between the Buried and Me - Future Sequence: Live At The Fidelitorium (2014) [CD  & Blu-ray + DVD-5]

Tracklist CD:

Goodbye To Everything 3:05
Astral Body 5:02
Lay Your Ghosts To Rest 10:02
Autumn 1:18
Extremophile Elite 9:59
Parallax 1:15
The Black Box 2:11
Telos 9:45
Bloom 3:29
Melting City 10:19
Silent Flight Parliament 15:09
Goodbye To Everything Reprise 2:25

Exact Audio Copy V1.2 from 12. August 2016

EAC extraction logfile from 4. July 2017, 21:52

Between the Buried and Me / Future Sequence: Live At The Fidelitorium

Used drive : PIONEER BD-RW BDR-XD04 Adapter: 1 ID: 0

Read mode : Secure
Utilize accurate stream : Yes
Defeat audio cache : Yes
Make use of C2 pointers : No

Read offset correction : 667
Overread into Lead-In and Lead-Out : No
Fill up missing offset samples with silence : Yes
Delete leading and trailing silent blocks : No
Null samples used in CRC calculations : Yes
Used interface : Native Win32 interface for Win NT & 2000

Used output format : User Defined Encoder
Selected bitrate : 768 kBit/s
Quality : High
Add ID3 tag : No
Command line compressor : C:\Program Files (x86)\Exact Audio Copy\Wavpack\wavpack.exe
Additional command line options : -hm %source% %dest%


TOC of the extracted CD

Track | Start | Length | Start sector | End sector
––––––––––––––––––––––––––––-
1 | 0:00.00 | 3:04.47 | 0 | 13846
2 | 3:04.47 | 5:01.52 | 13847 | 36473
3 | 8:06.24 | 10:02.15 | 36474 | 81638
4 | 18:08.39 | 1:17.62 | 81639 | 87475
5 | 19:26.26 | 9:59.02 | 87476 | 132402
6 | 29:25.28 | 1:14.71 | 132403 | 138023
7 | 30:40.24 | 2:10.64 | 138024 | 147837
8 | 32:51.13 | 9:45.34 | 147838 | 191746
9 | 42:36.47 | 3:28.73 | 191747 | 207419
10 | 46:05.45 | 10:19.32 | 207420 | 253876
11 | 56:25.02 | 15:09.24 | 253877 | 322075
12 | 71:34.26 | 2:25.32 | 322076 | 332982


Range status and errors

Selected range

Filename C:\_NL+_\_CD\Between the Buried and Me - Future Sequence- Live At The Fidelitorium.wav

Peak level 98.8 %
Extraction speed 1.4 X
Range quality 100.0 %
Test CRC D44FF32C
Copy CRC D44FF32C
Copy OK

No errors occurred


AccurateRip summary

Track 1 accurately ripped (confidence 9) [7AAB2D89] (AR v2)
Track 2 accurately ripped (confidence 9) [C345E06F] (AR v2)
Track 3 accurately ripped (confidence 9) [CFF47BCE] (AR v2)
Track 4 accurately ripped (confidence 9) [516679DC] (AR v2)
Track 5 accurately ripped (confidence 9) [50C1E8A5] (AR v2)
Track 6 accurately ripped (confidence 9) [D8E1211F] (AR v2)
Track 7 accurately ripped (confidence 9) [409099A5] (AR v2)
Track 8 accurately ripped (confidence 9) [C9375C3D] (AR v2)
Track 9 accurately ripped (confidence 9) [1906863C] (AR v2)
Track 10 accurately ripped (confidence 9) [D612E15C] (AR v2)
Track 11 accurately ripped (confidence 9) [E08A28D6] (AR v2)
Track 12 accurately ripped (confidence 8) [9DADC1AE] (AR v2)

All tracks accurately ripped

End of status report

–– CUETools DB Plugin V2.1.6

[CTDB TOCID: RMWSTSD9mbAAcT9ZXe0vGjZuOS4-] found
Submit result: RMWSTSD9mbAAcT9ZXe0vGjZuOS4- has been confirmed
Track | CTDB Status
1 | (27/27) Accurately ripped
2 | (27/27) Accurately ripped
3 | (27/27) Accurately ripped
4 | (27/27) Accurately ripped
5 | (27/27) Accurately ripped
6 | (27/27) Accurately ripped
7 | (27/27) Accurately ripped
8 | (27/27) Accurately ripped
9 | (27/27) Accurately ripped
10 | (27/27) Accurately ripped
11 | (26/27) Accurately ripped
12 | (27/27) Accurately ripped


==== Log checksum 00E73C359F78BFA35C0E0F6C36930FDC08BD87B058E2972C461DBE379FCFA5A1 ====

foobar2000 1.2.9 / Dynamic Range Meter 1.1.1
log date: 2017-08-01 19:29:49

––––––––––––––––––––––––––––––––––––––––
Analyzed: Between the Buried and Me / Future Sequence: Live At The Fidelitorium
––––––––––––––––––––––––––––––––––––––––

DR Peak RMS Duration Track
––––––––––––––––––––––––––––––––––––––––
DR8 -0.10 dB -10.74 dB 3:05 01-Intro/Goodbye To Everything
DR5 -0.10 dB -6.36 dB 5:02 02-Astral Body
DR5 -0.10 dB -6.33 dB 10:02 03-Lay Your Ghosts To Rest
DR10 -0.10 dB -11.95 dB 1:18 04-Autumn
DR5 -0.10 dB -6.15 dB 9:59 05-Extremophile Elite
DR10 -0.53 dB -13.75 dB 1:15 06-Parallax
DR5 -0.10 dB -8.75 dB 2:11 07-The Black Box
DR5 -0.10 dB -6.08 dB 9:45 08-Telos
DR5 -0.10 dB -6.57 dB 3:29 09-Bloom
DR5 -0.10 dB -6.49 dB 10:19 10-Melting City
DR5 -0.10 dB -6.40 dB 15:09 11-Silent Flight Parliament
DR6 -0.10 dB -9.70 dB 2:25 12-Goodbye To Everything Reprise
––––––––––––––––––––––––––––––––––––––––

Number of tracks: 12
Official DR value: DR6

Samplerate: 44100 Hz
Channels: 2
Bits per sample: 16
Bitrate: 959 kbps
Codec: FLAC

[CUETools log; Date: 01.08.2017 19:29:35; Version: 2.1.4]
[CTDB TOCID: RMWSTSD9mbAAcT9ZXe0vGjZuOS4-] found.
Track | CTDB Status
1 | (28/28) Accurately ripped
2 | (28/28) Accurately ripped
3 | (28/28) Accurately ripped
4 | (28/28) Accurately ripped
5 | (28/28) Accurately ripped
6 | (28/28) Accurately ripped
7 | (28/28) Accurately ripped
8 | (28/28) Accurately ripped
9 | (28/28) Accurately ripped
10 | (28/28) Accurately ripped
11 | (27/28) Accurately ripped
12 | (28/28) Accurately ripped
[AccurateRip ID: 001db0cc-011c47cc-cb11570c] found.
Track [ CRC | V2 ] Status
01 [3f2d2844|7aab2d89] (00+10/10) Accurately ripped
02 [db99ce79|c345e06f] (00+10/10) Accurately ripped
03 [f839cc4b|cff47bce] (00+10/10) Accurately ripped
04 [460c0bee|516679dc] (00+10/10) Accurately ripped
05 [b899361a|50c1e8a5] (00+10/10) Accurately ripped
06 [560a573c|d8e1211f] (00+10/10) Accurately ripped
07 [42a52f91|409099a5] (00+10/10) Accurately ripped
08 [b6ea5b4c|c9375c3d] (00+10/10) Accurately ripped
09 [93d0befc|1906863c] (00+10/10) Accurately ripped
10 [cb1d5400|d612e15c] (00+10/10) Accurately ripped
11 [671cacfd|e08a28d6] (00+10/10) Accurately ripped
12 [e8cfe2d4|9dadc1ae] (00+09/09) Accurately ripped

Track Peak [ CRC32 ] [W/O NULL] [ LOG ]
– 98,8 [D44FF32C] [39ADBB1C] CRC32
01 98,8 [800C2B79] [63D949D6]
02 98,8 [303AD6A4] [5CD3B6D9]
03 98,8 [93E5D1CA] [F2D08244]
04 98,8 [1E7B8BBF] [B1642344]
05 98,8 [6ECF6D2C] [47F44950]
06 94,1 [41B5D098] [79F749EB]
07 98,8 [E729C3D3] [236F5175]
08 98,8 [A3601A72] [8981CEEE]
09 98,8 [C0280589] [5AB5812D]
10 98,8 [59447E2E] [4BDA5625]
11 98,8 [9CA9E9C6] [15583D0B]
12 98,8 [1DAB38A6] [0A098FB9]

Between the Buried and Me - Future Sequence: Live At The Fidelitorium (2014) [CD  & Blu-ray + DVD-5]

Tracklist BD & DVD:

Goodbye To Everything 3:05
Astral Body 5:02
Lay Your Ghosts To Rest 10:02
Autumn 1:18
Extremophile Elite 9:59
Parallax 1:15
The Black Box 2:11
Telos 9:45
Bloom 3:29
Melting City 10:19
Silent Flight Parliament 15:09
Goodbye To Everything Reprise 2:25

Special Features:
Behind The Scenes
The Interview

Disc Title: Between the Buried and Me - Future Sequence - BD
Disc Size: 22 460 731 800 bytes
Protection: AACS
BD-Java: No
BDInfo: 0.5.8

Notes:

BDINFO HOME:
Cinema Squid
http://www.cinemasquid.com/blu-ray/tools/bdinfo

INCLUDES FORUMS REPORT FOR:
AVS Forum Blu-ray Audio and Video Specifications Thread
http://www.avsforum.com/avs-vb/showthread.php?t=1155731

WARNING: Report is incomplete because: Scan has not been run.

********************
PLAYLIST: 00005.MPLS
********************

<–- BEGIN FORUMS PASTE –->
                                                                                                                Total   Video                                             
Title                                                           Codec   Length  Movie Size      Disc Size       Bitrate Bitrate Main Audio Track                          Secondary Audio Track
-----                                                           ------  ------- --------------  --------------  ------- ------- ------------------                        ---------------------
00005.MPLS                                                      MPEG-2  1:13:58 0               22 460 731 800  0,00    0,00    DD AC3 2.0 192Kbps                        


DISC INFO:

Disc Title:     Between the Buried and Me - Future Sequence - BD
Disc Size:      22 460 731 800 bytes
Protection:     AACS
BD-Java:        No
BDInfo:         0.5.8

PLAYLIST REPORT:

Name:                   00005.MPLS
Length:                 1:13:58.500 (h:m:s.ms)
Size:                   0 bytes
Total Bitrate:          0,00 Mbps

VIDEO:

Codec                   Bitrate             Description     
-----                   -------             -----------     
MPEG-2 Video            0 kbps              1080p / 24 fps / 16:9

AUDIO:

Codec                           Language        Bitrate         Description     
-----                           --------        -------         -----------     
Dolby Digital Audio             English         192 kbps        2.0 / 48 kHz / 192 kbps

FILES:

Name            Time In         Length          Size            Total Bitrate   
----            -------         ------          ----            -------------   
00005.M2TS      0:00:00.000     1:13:58.500     0               0               

CHAPTERS:

Number          Time In         Length          Avg Video Rate  Max 1-Sec Rate  Max 1-Sec Time  Max 5-Sec Rate  Max 5-Sec Time  Max 10Sec Rate  Max 10Sec Time  Avg Frame Size  Max Frame Size  Max Frame Time  
------          -------         ------          --------------  --------------  --------------  --------------  --------------  --------------  --------------  --------------  --------------  --------------  
1               0:00:00.000     0:01:26.125     0 kbps          0 kbps          00:00:00.000    0 kbps          00:00:00.000    0 kbps          00:00:00.000    0 bytes         0 bytes         00:00:00.000    
2               0:01:26.125     0:01:38.125     0 kbps          0 kbps          00:00:00.000    0 kbps          00:00:00.000    0 kbps          00:00:00.000    0 bytes         0 bytes         00:00:00.000    
3               0:03:04.250     0:05:01.250     0 kbps          0 kbps          00:00:00.000    0 kbps          00:00:00.000    0 kbps          00:00:00.000    0 bytes         0 bytes         00:00:00.000    
4               0:08:05.500     0:09:57.500     0 kbps          0 kbps          00:00:00.000    0 kbps          00:00:00.000    0 kbps          00:00:00.000    0 bytes         0 bytes         00:00:00.000    
5               0:18:03.000     0:01:22.041     0 kbps          0 kbps          00:00:00.000    0 kbps          00:00:00.000    0 kbps          00:00:00.000    0 bytes         0 bytes         00:00:00.000    
6               0:19:25.041     0:09:51.458     0 kbps          0 kbps          00:00:00.000    0 kbps          00:00:00.000    0 kbps          00:00:00.000    0 bytes         0 bytes         00:00:00.000    
7               0:29:16.500     0:01:19.083     0 kbps          0 kbps          00:00:00.000    0 kbps          00:00:00.000    0 kbps          00:00:00.000    0 bytes         0 bytes         00:00:00.000    
8               0:30:35.583     0:02:13.541     0 kbps          0 kbps          00:00:00.000    0 kbps          00:00:00.000    0 kbps          00:00:00.000    0 bytes         0 bytes         00:00:00.000    
9               0:32:49.125     0:09:44.875     0 kbps          0 kbps          00:00:00.000    0 kbps          00:00:00.000    0 kbps          00:00:00.000    0 bytes         0 bytes         00:00:00.000    
10              0:42:34.000     0:03:28.541     0 kbps          0 kbps          00:00:00.000    0 kbps          00:00:00.000    0 kbps          00:00:00.000    0 bytes         0 bytes         00:00:00.000    
11              0:46:02.541     0:10:18.875     0 kbps          0 kbps          00:00:00.000    0 kbps          00:00:00.000    0 kbps          00:00:00.000    0 bytes         0 bytes         00:00:00.000    
12              0:56:21.416     0:15:07.916     0 kbps          0 kbps          00:00:00.000    0 kbps          00:00:00.000    0 kbps          00:00:00.000    0 bytes         0 bytes         00:00:00.000    
13              1:11:29.333     0:02:29.166     0 kbps          0 kbps          00:00:00.000    0 kbps          00:00:00.000    0 kbps          00:00:00.000    0 bytes         0 bytes         00:00:00.000    

STREAM DIAGNOSTICS:

File            PID             Type            Codec           Language                Seconds                 Bitrate                 Bytes           Packets         
----            ---             ----            -----           --------                --------------          --------------          -------------   -----           
00005.M2TS      4113 (0x1011)   0x02            MPEG-2                                  0                       0                       0               0               
00005.M2TS      4352 (0x1100)   0x81            AC3             eng (English)           0                       0                       0               0               

<–– END FORUMS PASTE ––>

QUICK SUMMARY:

Disc Title: Between the Buried and Me - Future Sequence - BD
Disc Size: 22 460 731 800 bytes
Protection: AACS
BD-Java: No
Playlist: 00005.MPLS
Size: 0 bytes
Length: 1:13:58.500
Total Bitrate: 0,00 Mbps
Video: MPEG-2 Video / 0 kbps / 1080p / 24 fps / 16:9
Audio: English / Dolby Digital Audio / 2.0 / 48 kHz / 192 kbps


********************
PLAYLIST: 00006.MPLS
********************

<–- BEGIN FORUMS PASTE –->
                                                                                                                Total   Video                                             
Title                                                           Codec   Length  Movie Size      Disc Size       Bitrate Bitrate Main Audio Track                          Secondary Audio Track
-----                                                           ------  ------- --------------  --------------  ------- ------- ------------------                        ---------------------
00006.MPLS                                                      MPEG-2  0:28:24 0               22 460 731 800  0,00    0,00    DD AC3 2.0 192Kbps                        


DISC INFO:

Disc Title:     Between the Buried and Me - Future Sequence - BD
Disc Size:      22 460 731 800 bytes
Protection:     AACS
BD-Java:        No
BDInfo:         0.5.8

PLAYLIST REPORT:

Name:                   00006.MPLS
Length:                 0:28:24.291 (h:m:s.ms)
Size:                   0 bytes
Total Bitrate:          0,00 Mbps

VIDEO:

Codec                   Bitrate             Description     
-----                   -------             -----------     
MPEG-2 Video            0 kbps              1080p / 24 fps / 16:9

AUDIO:

Codec                           Language        Bitrate         Description     
-----                           --------        -------         -----------     
Dolby Digital Audio             English         192 kbps        2.0 / 48 kHz / 192 kbps

FILES:

Name            Time In         Length          Size            Total Bitrate   
----            -------         ------          ----            -------------   
00006.M2TS      0:00:00.000     0:28:24.291     0               0               

CHAPTERS:

Number          Time In         Length          Avg Video Rate  Max 1-Sec Rate  Max 1-Sec Time  Max 5-Sec Rate  Max 5-Sec Time  Max 10Sec Rate  Max 10Sec Time  Avg Frame Size  Max Frame Size  Max Frame Time  
------          -------         ------          --------------  --------------  --------------  --------------  --------------  --------------  --------------  --------------  --------------  --------------  
1               0:00:00.000     0:05:00.000     0 kbps          0 kbps          00:00:00.000    0 kbps          00:00:00.000    0 kbps          00:00:00.000    0 bytes         0 bytes         00:00:00.000    
2               0:05:00.000     0:05:00.000     0 kbps          0 kbps          00:00:00.000    0 kbps          00:00:00.000    0 kbps          00:00:00.000    0 bytes         0 bytes         00:00:00.000    
3               0:10:00.000     0:05:00.000     0 kbps          0 kbps          00:00:00.000    0 kbps          00:00:00.000    0 kbps          00:00:00.000    0 bytes         0 bytes         00:00:00.000    
4               0:15:00.000     0:05:00.000     0 kbps          0 kbps          00:00:00.000    0 kbps          00:00:00.000    0 kbps          00:00:00.000    0 bytes         0 bytes         00:00:00.000    
5               0:20:00.000     0:05:00.000     0 kbps          0 kbps          00:00:00.000    0 kbps          00:00:00.000    0 kbps          00:00:00.000    0 bytes         0 bytes         00:00:00.000    
6               0:25:00.000     0:03:24.291     0 kbps          0 kbps          00:00:00.000    0 kbps          00:00:00.000    0 kbps          00:00:00.000    0 bytes         0 bytes         00:00:00.000    

STREAM DIAGNOSTICS:

File            PID             Type            Codec           Language                Seconds                 Bitrate                 Bytes           Packets         
----            ---             ----            -----           --------                --------------          --------------          -------------   -----           
00006.M2TS      4113 (0x1011)   0x02            MPEG-2                                  0                       0                       0               0               
00006.M2TS      4352 (0x1100)   0x81            AC3             eng (English)           0                       0                       0               0               

<–– END FORUMS PASTE ––>

QUICK SUMMARY:

Disc Title: Between the Buried and Me - Future Sequence - BD
Disc Size: 22 460 731 800 bytes
Protection: AACS
BD-Java: No
Playlist: 00006.MPLS
Size: 0 bytes
Length: 0:28:24.291
Total Bitrate: 0,00 Mbps
Video: MPEG-2 Video / 0 kbps / 1080p / 24 fps / 16:9
Audio: English / Dolby Digital Audio / 2.0 / 48 kHz / 192 kbps


********************
PLAYLIST: 00003.MPLS
********************

<–- BEGIN FORUMS PASTE –->
                                                                                                                Total   Video                                             
Title                                                           Codec   Length  Movie Size      Disc Size       Bitrate Bitrate Main Audio Track                          Secondary Audio Track
-----                                                           ------  ------- --------------  --------------  ------- ------- ------------------                        ---------------------
00003.MPLS                                                      MPEG-2  0:10:33 0               22 460 731 800  0,00    0,00    DD AC3 2.0 192Kbps                        


DISC INFO:

Disc Title:     Between the Buried and Me - Future Sequence - BD
Disc Size:      22 460 731 800 bytes
Protection:     AACS
BD-Java:        No
BDInfo:         0.5.8

PLAYLIST REPORT:

Name:                   00003.MPLS
Length:                 0:10:33.090 (h:m:s.ms)
Size:                   0 bytes
Total Bitrate:          0,00 Mbps

VIDEO:

Codec                   Bitrate             Description     
-----                   -------             -----------   			  		  		  	 			   		  	   		  		  		 		   	 			   		 		   			     	 			   		   	  		   	  			   			   
MPEG-2 Video            0 kbps              1080p / 23,976 fps / 16:9

AUDIO:

Codec                           Language        Bitrate         Description     
-----                           --------        -------         -----------     
Dolby Digital Audio             English         192 kbps        2.0 / 48 kHz / 192 kbps

FILES:

Name            Time In         Length          Size            Total Bitrate   
----            -------         ------          ----            -------------   
00003.M2TS      0:00:00.000     0:10:33.090     0               0               

CHAPTERS:

Number          Time In         Length          Avg Video Rate  Max 1-Sec Rate  Max 1-Sec Time  Max 5-Sec Rate  Max 5-Sec Time  Max 10Sec Rate  Max 10Sec Time  Avg Frame Size  Max Frame Size  Max Frame Time  
------          -------         ------          --------------  --------------  --------------  --------------  --------------  --------------  --------------  --------------  --------------  --------------  
1               0:00:00.000     0:02:39.576     0 kbps          0 kbps          00:00:00.000    0 kbps          00:00:00.000    0 kbps          00:00:00.000    0 bytes         0 bytes         00:00:00.000    
2               0:02:39.576     0:01:17.660     0 kbps          0 kbps          00:00:00.000    0 kbps          00:00:00.000    0 kbps          00:00:00.000    0 bytes         0 bytes         00:00:00.000    
3               0:03:57.236     0:01:56.783     0 kbps          0 kbps          00:00:00.000    0 kbps          00:00:00.000    0 kbps          00:00:00.000    0 bytes         0 bytes         00:00:00.000    
4               0:05:54.020     0:02:32.569     0 kbps          0 kbps          00:00:00.000    0 kbps          00:00:00.000    0 kbps          00:00:00.000    0 bytes         0 bytes         00:00:00.000    
5               0:08:26.589     0:02:06.501     0 kbps          0 kbps          00:00:00.000    0 kbps          00:00:00.000    0 kbps          00:00:00.000    0 bytes         0 bytes         00:00:00.000    

STREAM DIAGNOSTICS:

File            PID             Type            Codec           Language                Seconds                 Bitrate                 Bytes           Packets         
----            ---             ----            -----           --------                --------------          --------------          -------------   -----           
00003.M2TS      4113 (0x1011)   0x02            MPEG-2                                  0                       0                       0               0               
00003.M2TS      4352 (0x1100)   0x81            AC3             eng (English)           0                       0                       0               0               

<–– END FORUMS PASTE ––>

QUICK SUMMARY:

Disc Title: Between the Buried and Me - Future Sequence - BD
Disc Size: 22 460 731 800 bytes
Protection: AACS
BD-Java: No
Playlist: 00003.MPLS
Size: 0 bytes
Length: 0:10:33.090
Total Bitrate: 0,00 Mbps
Video: MPEG-2 Video / 0 kbps / 1080p / 23,976 fps / 16:9
Audio: English / Dolby Digital Audio / 2.0 / 48 kHz / 192 kbps



Title: Between the Buried and Me - Future Sequence - DVD
Size: 4.18 Gb ( 4 387 402,00 KBytes ) - DVD-5
Enabled regions: 1, 2, 3, 4, 5, 6, 8

VTS_01 :
Play Length: 00:00:15
Video: NTSC 16:9 (720x480) VBR, Auto Letterboxed
Audio:
Not specified (Dolby AC3, 2 ch)

VTS_02 :
Play Length: 01:13:54
Video: NTSC 16:9 (720x480) VBR, Auto Letterboxed
Audio:
Not specified (Dolby AC3, 2 ch)

VTS_03 :
Play Length: 00:28:22
Video: NTSC 16:9 (720x480) VBR, Auto Letterboxed
Audio:
Not specified (Dolby AC3, 2 ch)

VTS_04 :
Play Length: 00:10:31
Video: NTSC 16:9 (720x480) VBR, Auto Letterboxed
Audio:
Not specified (Dolby AC3, 2 ch)


Between the Buried and Me - Future Sequence: Live At The Fidelitorium (2014) [CD  & Blu-ray + DVD-5]

Between the Buried and Me - Future Sequence: Live At The Fidelitorium (2014) [CD  & Blu-ray + DVD-5]

Between the Buried and Me - Future Sequence: Live At The Fidelitorium (2014) [CD  & Blu-ray + DVD-5]

Between the Buried and Me - Future Sequence: Live At The Fidelitorium (2014) [CD  & Blu-ray + DVD-5]

Between the Buried and Me - Future Sequence: Live At The Fidelitorium (2014) [CD  & Blu-ray + DVD-5]

Between the Buried and Me - Future Sequence: Live At The Fidelitorium (2014) [CD  & Blu-ray + DVD-5]

All thanks go to tatuk

Progressive Metal in my Blog

Download Between the Buried and Me - Future Sequence: Live At The Fidelitorium (2014):