Subcategories

Taktakishvili, Feld, Gubaidulina, Amirov, Martinu - Beyond The Iron Curtain (Leslie Newman - Flute, Amanda Hurton - Piano)

Posted By: tapaz9
Taktakishvili, Feld, Gubaidulina, Amirov, Martinu - Beyond The Iron Curtain (Leslie Newman - Flute, Amanda Hurton - Piano)

Taktakishvili, Feld, Gubaidulina, Amirov, Martinu - Beyond The Iron Curtain (Leslie Newman - Flute, Amanda Hurton - Piano)
Classical | EAC: FLAC+Cue+Log | 1 Cd, Covers + Booklet | 367 Mb
Label: United Cala - Date: 2003

20th century music for piano and flute from formerly Eastern Europe. Martinu and Gubaidulina are relatively well-known in mainstream circles, but the others are relatively unknown. The highlight of the whole CD is the Feld piece, which is quite rousing and agitated. The Taktakishvili is slightly less interesting, but the Amirov pieces make it worth buying the disc alone.
Tracks:

01. Otar Taktakishvili - Sonata for Flute and Piano: Allegro Cantabile [0:05:32.12]
02. Otar Taktakishvili - Sonata for Flute and Piano: Aria: Moderato Con Moto [0:04:25.26]
03. Otar Taktakishvili - Sonata for Flute and Piano: Allegro Scherzando [0:05:20.09]
04. Jidrich Feld - Sonata for Flute and Piano: Allegro Giocoso [0:04:12.00]
05. Jidrich Feld - Sonata for Flute and Piano: Grave [0:08:36.11]
06. Jidrich Feld - Sonata for Flute and Piano: Allegro Vivace [0:06:35.60]
07. Sofia Gubaidulina - Allegro Rustico [0:05:29.08]
08. Sofia Gubaidulina - Sounds Of The Forest [0:03:08.49]
09. Fikret Amirov - Song Of The Ashugi [0:02:07.26]
10. Fikret Amirov - Lullaby [0:03:39.00]
11. Fikret Amirov - Dance [0:01:44.13]
12. Fikret Amirov - In The Azerbaijan Mountains [0:02:41.54]
13. Fikret Amirov - At The Spring [0:01:54.35]
14. Fikret Amirov - Nocturne [0:02:41.17]
15. Bohuslav Martinu - First Sonata: Allegro Moderato [0:06:38.15]
16. Bohuslav Martinu - First Sonata: Adagio [0:05:40.45]
17. Bohuslav Martinu - First Sonata: Allegro Poco Moderato [0:04:56.19]


Exact Audio Copy V1.0 beta 3 from 29. August 2011

EAC extraction logfile from 10. January 2013, 23:29

Leslie Newman - Flute, Amanda Hurton - Piano / Beyond The Iron Curtain

Used drive : TSSTcorpCDDVDW SH-S223C Adapter: 2 ID: 1

Read mode : Secure
Utilize accurate stream : Yes
Defeat audio cache : Yes
Make use of C2 pointers : No

Read offset correction : 697
Overread into Lead-In and Lead-Out : No
Fill up missing offset samples with silence : Yes
Delete leading and trailing silent blocks : No
Null samples used in CRC calculations : Yes
Used interface : Native Win32 interface for Win NT & 2000

Used output format : User Defined Encoder
Selected bitrate : 896 kBit/s
Quality : High
Add ID3 tag : No
Command line compressor : C:\Program Files (x86)\Exact Audio Copy\FLAC\FLAC.EXE
Additional command line options : -V -0 -T "COMMENT=Ripped by Tapaz9" -T "artist=%artist%" -T "title=%title%" -T "album=%albumtitle%" -T "date=%year%" -T "tracknumber=%tracknr%" -T "genre=%genre%" %source%


TOC of the extracted CD

Track | Start | Length | Start sector | End sector
––––––––––––––––––––––––––––-
1 | 0:00.00 | 5:32.12 | 0 | 24911
2 | 5:32.12 | 4:25.26 | 24912 | 44812
3 | 9:57.38 | 5:20.09 | 44813 | 68821
4 | 15:17.47 | 4:12.00 | 68822 | 87721
5 | 19:29.47 | 8:36.11 | 87722 | 126432
6 | 28:05.58 | 6:35.60 | 126433 | 156117
7 | 34:41.43 | 5:29.08 | 156118 | 180800
8 | 40:10.51 | 3:08.49 | 180801 | 194949
9 | 43:19.25 | 2:07.26 | 194950 | 204500
10 | 45:26.51 | 3:39.00 | 204501 | 220925
11 | 49:05.51 | 1:44.13 | 220926 | 228738
12 | 50:49.64 | 2:41.54 | 228739 | 240867
13 | 53:31.43 | 1:54.35 | 240868 | 249452
14 | 55:26.03 | 2:41.17 | 249453 | 261544
15 | 58:07.20 | 6:38.15 | 261545 | 291409
16 | 64:45.35 | 5:40.45 | 291410 | 316954
17 | 70:26.05 | 4:56.19 | 316955 | 339173


Range status and errors

Selected range

Filename F:\Musique\Beyond_the_Iron_Curtain\BeyondTheIronCurtain\Leslie Newman - Flute, Amanda Hurton - Piano - Beyond The Iron Curtain.wav

Peak level 100.0 %
Extraction speed 14.4 X
Range quality 100.0 %
Copy CRC 228878A9
Copy OK

No errors occurred

End of status report

==== Log checksum FADC04EF85C2B2BDE8804455EC572D84C481E16274D7E7F0744C124265FE72C8 ====

No Mirrors and Torrent-uploads Please

See my classical digital download posts in the Vinyl & HR section or check out My Avax blog