Subcategories

Big Big Train - English Electric: Part One (2012)

Posted By: popsakov
Big Big Train - English Electric: Part One (2012)

Big Big Train - English Electric: Part One (2012)
EAC Rip | FLAC (Img) + Cue + Log ~ 404 Mb | MP3 CBR320 ~ 142 Mb
Full Scans (JPG, 600 dpi) ~ 101 Mb | RAR 5% Recovery
English Electric Recordings EERCD011 / Giant Electric Pea GEPCD1043
Progressive Rock

English Electric Part One is the seventh studio album by the English progressive rock band Big Big Train. It was released on 3 September 2012, by English Electric Recordings and GEP. English Electric Part One and English Electric Part Two were originally released as separate albums in 2012 and 2013. English Electric Part Two received a nomination for Best Album in the 2013 Progressive Music Awards and the band went on to win the Breakthrough Artist award.
Big Big Train - English Electric: Part One (2012)


***************

Big Big Train - English Electric: Part One (2012)

Track List:

01. The First Rebreather [8:32]
02. Uncle Jack [3:49]
03. Winchester From St Giles' Hill [7:16]
04. Judas Unrepentant [7:18]
05. Summoned By Bells [9:17]
06. Upton Heath [5:39]
07. A Boy In Darkness [8:03]
08. Hedgerow [8:52]

Personnel:
Nick D'Virgilio – drums, backing vocals
Dave Gregory – electric guitar, voice of the court usher, banjo, mellotron
David Longdon – lead vocals, flute, vibes, tambourine, banjo, accordion, melodica, keyboards, acoustic guitar, mandolin, birds and bees
Andy Poole – keyboards, acoustic guitar, mandolin, backing vocals, baritone bee
Gregory Spawton – bass guitar, electric guitar, slow moog, backing vocals, mandolin, acoustic guitar, keyboards
Danny Manners - keyboards, piano, double bass

Guest musicians:
Abigail Trundle - cello
Andy Tillison - organ, Moog, keyboards
Ben Godfrey - cornet, trumpet, piccolo trumpet
Daniel Steinhardt - electric guitar
Dave Desmond - trombone
Eleanor Gilchrist - violin
Geraldine Berreen - violin
Jan Jaap Langereis - recorders
Jon Truscott - tuba
John Storey - euphonium, trombone
Lily Adams - backing vocals
Martin Orford - backing vocals
Rachel Hall - violin
Sue Bowran - violin
Teresa Whipple - viola
Verity Joy - backing vocals
Violet Adams - backing vocals

Exact Audio Copy V1.3 from 2. September 2016

Отчёт EAC об извлечении, выполненном 15. мая 2018, 16:10

Big Big Train / English Electric Part One

Дисковод: HL-DT-STDVDRAM GH24NSD0 Adapter: 1 ID: 0

Режим чтения : Достоверность
Использование точного потока : Да
Отключение кэша аудио : Да
Использование указателей C2 : Нет

Коррекция смещения при чтении : 6
Способность читать области Lead-in и Lead-out : Нет
Заполнение пропущенных сэмплов тишиной : Да
Удаление блоков с тишиной в начале и конце : Нет
При вычислениях CRC использовались нулевые сэмплы : Да
Интерфейс : Встроенный Win32-интерфейс для Win NT/2000

Выходной формат : Пользовательский кодировщик
Выбранный битрейт : 128 kBit/s
Качество : Высокий
Добавление ID3-тега : Нет
Утилита сжатия : C:\Program Files (x86)\Exact Audio Copy\Flac\flac.exe
Дополнительные параметры : -V -8 -T "Date=%year%" -T "Genre=%genre%" %source%


TOC извлечённого CD

Трек | Старт | Длительность | Начальный сектор | Конечный сектор
––––––––––––––––––––––––––––––––––-
1 | 0:00.00 | 8:32.21 | 0 | 38420
2 | 8:32.21 | 3:48.63 | 38421 | 55583
3 | 12:21.09 | 7:16.27 | 55584 | 88310
4 | 19:37.36 | 7:17.52 | 88311 | 121137
5 | 26:55.13 | 9:17.07 | 121138 | 162919
6 | 36:12.20 | 5:39.24 | 162920 | 188368
7 | 41:51.44 | 8:03.09 | 188369 | 224602
8 | 49:54.53 | 8:52.34 | 224603 | 264536


Характеристики диапазона извлечения и сообщения об ошибках

Выбранный диапазон

Имя файла C:\Users\khokh\OneDrive\Рабочий стол\Big Big Train - English Electric Part One.wav

Пиковый уровень 99.8 %
Скорость извлечения 7.4 X
Качество диапазона 99.9 %
CRC теста C2C12259
CRC копии C2C12259
Копирование… OK

Ошибок не произошло


AccurateRip: сводка

Трек 1 : извлечено точно (доверие 68) [254DF4A2] (AR v2)
Трек 2 : извлечено точно (доверие 67) [C514FD12] (AR v2)
Трек 3 : извлечено точно (доверие 67) [2CE00BD1] (AR v2)
Трек 4 : извлечено точно (доверие 67) [9F986D00] (AR v2)
Трек 5 : извлечено точно (доверие 67) [0D9D5A3A] (AR v2)
Трек 6 : извлечено точно (доверие 67) [1EDF8DF9] (AR v2)
Трек 7 : извлечено точно (доверие 67) [C4B86F4C] (AR v2)
Трек 8 : извлечено точно (доверие 66) [ED46BD96] (AR v2)

Все треки извлечены точно

Конец отчёта

==== Контрольная сумма отчёта 713D599A1231A57C914C4C22B4CA1CB91D34EED3872A0AAC7CD4C5ED2004D402 ====

foobar2000 1.3.16 / Dynamic Range Meter 1.1.1
log date: 2018-05-17 20:13:42

––––––––––––––––––––––––––––––––––––––––
Analyzed: Big Big Train / English Electric Part One
––––––––––––––––––––––––––––––––––––––––

DR Peak RMS Duration Track
––––––––––––––––––––––––––––––––––––––––
DR7 -0.01 dB -10.23 dB 8:32 01-The First Rebreather
DR9 -0.01 dB -11.61 dB 3:49 02-Uncle Jack
DR7 -0.01 dB -10.71 dB 7:16 03-Winchester From St Giles' Hill
DR6 -0.01 dB -8.08 dB 7:18 04-Judas Unrepentant
DR9 -0.02 dB -11.35 dB 9:17 05-Summoned By Bells
DR11 -0.48 dB -13.98 dB 5:39 06-Upton Heath
DR7 -0.01 dB -9.86 dB 8:03 07-A Boy In Darkness
DR6 -0.01 dB -8.87 dB 8:52 08-Hedgerow
––––––––––––––––––––––––––––––––––––––––

Number of tracks: 8
Official DR value: DR8

Samplerate: 44100 Hz
Channels: 2
Bits per sample: 16
Bitrate: 913 kbps
Codec: FLAC
================================================================================

[CUETools log; Date: 17.05.2018 20:13:49; Version: 2.1.6]
[CTDB TOCID: QQO2vvsyZ7jeHEax4pNxoyjcOh0-] found.
Track | CTDB Status
1 | (50/52) Accurately ripped
2 | (50/52) Accurately ripped
3 | (50/52) Accurately ripped
4 | (50/52) Accurately ripped
5 | (50/52) Accurately ripped
6 | (50/52) Accurately ripped
7 | (50/52) Accurately ripped
8 | (49/52) Accurately ripped
[AccurateRip ID: 0011744b-00752181-6e0dc708] found.
Track [ CRC | V2 ] Status
01 [02f0fafd|254df4a2] (04+68/74) Accurately ripped
02 [09c85c76|c514fd12] (04+67/74) Accurately ripped
03 [c14192eb|2ce00bd1] (04+67/74) Accurately ripped
04 [8eaea6bf|9f986d00] (04+67/74) Accurately ripped
05 [08ff5404|0d9d5a3a] (04+67/74) Accurately ripped
06 [3b0aa959|1edf8df9] (04+67/74) Accurately ripped
07 [7d3bbc26|c4b86f4c] (04+67/74) Accurately ripped
08 [ab37797a|ed46bd96] (04+66/73) Accurately ripped

Track Peak [ CRC32 ] [W/O NULL] [ LOG ]
– 99,8 [C2C12259] [CD4037A6] CRC32
01 99,8 [CAC00A73] [D30E256B]
02 99,8 [061E1584] [B0ACD51F]
03 99,8 [1C103EB0] [2D5D44BF]
04 99,8 [57163616] [1A56DCE2]
05 99,7 [CBA13C5F] [A4D35560]
06 94,6 [15853A13] [529A9AA7]
07 99,8 [1CEA08EA] [184527CF]
08 99,8 [92C92141] [3F1F3C80]

Big Big Train - English Electric: Part One (2012)

All thanks go to Angel Station

>>> Big Big Train in my Blog <<<

Download from icerbox.com: