Bill Haley & The Comets - Special Collection (1991) {Japanese Edition}

Posted By: popsakov
Bill Haley & The Comets - Special Collection (1991) {Japanese Edition}

Bill Haley & The Comets - Special Collection (1991) {Japanese Edition}
EAC Rip | FLAC (Img) + Cue + Log ~ 230 Mb | MP3 CBR320 ~ 105 Mb
Scans Included (JPG, 600 dpi) | RAR 5% Recovery
Rock & Roll | AILE Disc #GRN-50

Bill Haley & His Comets were an American rock and roll band, founded in 1952 and continued until Haley's death in 1981. The band, also known as Bill Haley and the Comets and Bill Haley's Comets (and variations thereof), was the earliest group of white musicians to bring rock and roll to the attention of America and the rest of the world. From late 1954 to late 1956, the group placed nine singles in the Top 20, one of those a number one and three more in the Top Ten.

Bandleader Bill Haley had previously been a country music performer; after recording a country and western-styled version of "Rocket 88", a rhythm and blues song, he changed musical direction to a new sound which came to be called rock and roll.

Although several members of the Comets became famous, Bill Haley remained the star. With his spit curl and the band's matching plaid dinner jackets and energetic stage behavior, many fans consider them to be as revolutionary in their time as the Beatles or the Rolling Stones were a decade later.

Following Haley's death, no fewer than seven different groups have existed under the Comets name, all claiming (with varying degrees of authority) to be the continuation of Haley's group. As of the end of 2014, four such groups were still performing in the United States and internationally.
~ Wiki

***************

Bill Haley & The Comets - Special Collection (1991) {Japanese Edition}

Bill Haley & The Comets - Special Collection (1991) {Japanese Edition}

Track List:

01. Rock Around The Clock [2:14]
02. Rip It Up [2:25]
03. Razzle Dazzle [2:44]
04. R-O-C-K [2:22]
05. Rock-A-Beatin' Boogie [2:21]
06. The Saints Rock'n'Roll [3:28]
07. Thirteen Women [2:55]
08. Shake, Rattle And Roll [2:32]
09. A.B.C. Boogie [2:30]
10. Happy Baby [2:36]
11. See You Later Alligator [2:47]
12. The Paper Boy [2:31]
13. Rudy's Rock [2:49]
14. Birth Of The Boogie [2:14]

Exact Audio Copy V1.3 from 2. September 2016

EAC extraction logfile from 31. July 2017, 18:20

Bill Haley & The Comets / Big Artist Series: Special Collection

Used drive : TSSTcorpCDDVDW TS-L633B Adapter: 1 ID: 0

Read mode : Secure
Utilize accurate stream : Yes
Defeat audio cache : Yes
Make use of C2 pointers : No

Read offset correction : 6
Overread into Lead-In and Lead-Out : No
Fill up missing offset samples with silence : Yes
Delete leading and trailing silent blocks : No
Null samples used in CRC calculations : Yes
Used interface : Native Win32 interface for Win NT & 2000

Used output format : Internal WAV Routines
Sample format : 44.100 Hz; 16 Bit; Stereo


TOC of the extracted CD

Track | Start | Length | Start sector | End sector
––––––––––––––––––––––––––––-
1 | 0:00.00 | 2:13.45 | 0 | 10019
2 | 2:13.45 | 2:25.00 | 10020 | 20894
3 | 4:38.45 | 2:43.45 | 20895 | 33164
4 | 7:22.15 | 2:21.70 | 33165 | 43809
5 | 9:44.10 | 2:20.65 | 43810 | 54374
6 | 12:05.00 | 3:27.43 | 54375 | 69942
7 | 15:32.43 | 2:54.50 | 69943 | 83042
8 | 18:27.18 | 2:32.02 | 83043 | 94444
9 | 20:59.20 | 2:30.00 | 94445 | 105694
10 | 23:29.20 | 2:35.45 | 105695 | 117364
11 | 26:04.65 | 2:46.63 | 117365 | 129877
12 | 28:51.53 | 2:30.50 | 129878 | 141177
13 | 31:22.28 | 2:48.60 | 141178 | 153837
14 | 34:11.13 | 2:14.37 | 153838 | 163924


Range status and errors

Selected range

Filename F:\Alexharvey\Bill Haley & The Comets - Big Artist Series - Special Collection.wav

Peak level 100.0 %
Extraction speed 2.5 X
Range quality 100.0 %
Test CRC 77D47A73
Copy CRC 77D47A73
Copy OK

No errors occurred


AccurateRip summary

Track 1 accurately ripped (confidence 1) [757F7315] (AR v2)
Track 2 accurately ripped (confidence 1) [9FDF7325] (AR v2)
Track 3 accurately ripped (confidence 1) [3F5D3F43] (AR v2)
Track 4 accurately ripped (confidence 1) [54210E6A] (AR v2)
Track 5 accurately ripped (confidence 1) [93BE4EE3] (AR v2)
Track 6 accurately ripped (confidence 1) [0F12A660] (AR v2)
Track 7 accurately ripped (confidence 1) [CC6FA655] (AR v2)
Track 8 accurately ripped (confidence 1) [133FD19C] (AR v2)
Track 9 accurately ripped (confidence 1) [9DA25A2E] (AR v2)
Track 10 accurately ripped (confidence 1) [4F129B86] (AR v2)
Track 11 accurately ripped (confidence 1) [79BC10C7] (AR v2)
Track 12 accurately ripped (confidence 1) [112C75EF] (AR v2)
Track 13 accurately ripped (confidence 1) [FDC40E4F] (AR v2)
Track 14 accurately ripped (confidence 1) [8533F416] (AR v2)

All tracks accurately ripped

End of status report

–– CUETools DB Plugin V2.1.6

[CTDB TOCID: ryS02LQBeUCnxllFiE0GsFQQIvo-] disk not present in database
Submit result: ryS02LQBeUCnxllFiE0GsFQQIvo- has been uploaded


==== Log checksum 921704C96F1C4AC6E30F1E12D71D1FBD6BC884D423752FFF14F27A8B0FB012C6 ====

foobar2000 1.2.6 / Dynamic Range Meter 1.1.1
log date: 2017-08-01 01:15:42

––––––––––––––––––––––––––––––––––––––––
Analyzed: Bill Haley & The Comets / Big Artist Series: Special Collection
––––––––––––––––––––––––––––––––––––––––

DR Peak RMS Duration Track
––––––––––––––––––––––––––––––––––––––––
DR11 -0.84 dB -13.87 dB 2:14 01-Rock Around The Clock
DR12 0.00 dB -13.80 dB 2:25 02-Rip It Up
DR12 -3.10 dB -16.08 dB 2:44 03-Razzle Dazzle
DR12 -1.85 dB -14.87 dB 2:22 04-R-O-C-K
DR11 -2.30 dB -14.63 dB 2:21 05-Rock-A-Beatin' Boogie
DR13 -1.64 dB -16.55 dB 3:28 06-The Saints Rock'n'Roll
DR10 -0.96 dB -13.81 dB 2:55 07-Thirteen Women
DR12 -0.83 dB -14.80 dB 2:32 08-Shake, Rattle And Roll
DR13 -1.87 dB -16.89 dB 2:30 09-A.B.C. Boogie
DR13 -0.12 dB -15.49 dB 2:36 10-Happy Baby
DR11 -1.76 dB -15.32 dB 2:47 11-See You Later Alligator
DR12 -1.04 dB -15.31 dB 2:31 12-The Paper Boy
DR11 -0.18 dB -12.45 dB 2:49 13-Rudy's Rock
DR11 -2.15 dB -15.17 dB 2:14 14-Birth Of The Boogie
––––––––––––––––––––––––––––––––––––––––

Number of tracks: 14
Official DR value: DR12

Samplerate: 44100 Hz
Channels: 2
Bits per sample: 16
Bitrate: 775 kbps
Codec: FLAC
================================================================================

[CUETools log; Date: 01.08.2017 1:15:45; Version: 2.1.5]
[CTDB TOCID: ryS02LQBeUCnxllFiE0GsFQQIvo-] found.
Track | CTDB Status
1 | (1/1) Accurately ripped
2 | (1/1) Accurately ripped
3 | (1/1) Accurately ripped
4 | (1/1) Accurately ripped
5 | (1/1) Accurately ripped
6 | (1/1) Accurately ripped
7 | (1/1) Accurately ripped
8 | (1/1) Accurately ripped
9 | (1/1) Accurately ripped
10 | (1/1) Accurately ripped
11 | (1/1) Accurately ripped
12 | (1/1) Accurately ripped
13 | (1/1) Accurately ripped
14 | (1/1) Accurately ripped
[AccurateRip ID: 0012a3c7-00c82e52-af08890e] found.
Track [ CRC | V2 ] Status
01 [25ddc55c|757f7315] (1+1/2) Accurately ripped
02 [99a98987|9fdf7325] (1+1/2) Accurately ripped
03 [a69d54de|3f5d3f43] (1+1/2) Accurately ripped
04 [f3e53994|54210e6a] (1+1/2) Accurately ripped
05 [285f3369|93be4ee3] (1+1/2) Accurately ripped
06 [36ce5d57|0f12a660] (1+1/2) Accurately ripped
07 [99e931e8|cc6fa655] (1+1/2) Accurately ripped
08 [be24b970|133fd19c] (1+1/2) Accurately ripped
09 [3f6e24f0|9da25a2e] (1+1/2) Accurately ripped
10 [2b355a6b|4f129b86] (1+1/2) Accurately ripped
11 [b45372ce|79bc10c7] (1+1/2) Accurately ripped
12 [36ddd6ed|112c75ef] (1+1/2) Accurately ripped
13 [a214c32a|fdc40e4f] (1+1/2) Accurately ripped
14 [97468495|8533f416] (1+1/2) Accurately ripped

Track Peak [ CRC32 ] [W/O NULL] [ LOG ]
– 100,0 [77D47A73] [986C00E5] CRC32
01 90,8 [55DB657A] [9287E432]
02 100,0 [503DD923] [BF0FF591]
03 69,9 [63DF1E5C] [EA7EDE76]
04 80,8 [E0DA2505] [C805A732]
05 76,7 [6745D743] [D0214391]
06 82,7 [E85C1EB4] [EDF963E8]
07 89,5 [555385B6] [BC0CEEE3]
08 90,8 [B0AC877D] [CA2AEA12]
09 80,6 [6281BA03] [E130AF10]
10 98,6 [FB55CF5A] [03243241]
11 81,6 [3836D6EF] [EC6E882E]
12 88,7 [D9212DF6] [484ED259]
13 97,9 [E33ECF41] [884A3D29]
14 78,0 [4A2D34D2] [E294B3E6]

Bill Haley & The Comets - Special Collection (1991) {Japanese Edition}

See also:
Bill Haley & The Comets - The Very Best Of (1999)

All thanks go to Alexharvey

>>> My Blog <<<

Download from icerbox.com: