Subcategories

Bill Bruford - Rock Goes To College (1979) {BBWF}

Posted By: tiburon
Bill Bruford - Rock Goes To College (1979) {BBWF}

Bill Bruford - Rock Goes To College (1979) {BBWF}
EAC 0.99pb4 | FLAC tracks level 8 | Cue+Log+M3U | Full Scans 300dpi | 239MB + 5% Recovery
MP3 CBR 320 Kbps | 116MB + 5% Recovery
Genre: Fusion

Rock Goes to College by drummer Bill Bruford's late-1970s band Bruford, was greeted with considerable excitement. Featuring Hatfield and the North/National Health keyboardist Dave Stewart and über-bassist Jeff Berlin, the group only played a couple of live dates with original guitarist Allan Holdsworth, who left shortly afterwards and was replaced by "The Unknown John Clarke. One of those performances was recorded by the BBC for television broadcast and, while it's a scant 42-minutes long, it represents a high water mark for the British progressive/fusion scene of that time—or, for that matter, any other.
Track List
01. Sample And Hold
02. Baazlebub
03. The Sahara Of Snow (Part One)
04. The Sahara Of Snow (Part Two)
05. Forever Until Sunday
06. Back To The Beginning
07. Adios A La Pasada (Goodbye To The Past)
08. 5G

musicians
Bill Bruford - drums, percussion
Allan Holdsworth - guitar
Dave Stewart - keyboards
Jeff Berlin - bass
Annette Peacock - vocals on 6, 7

Produced by Bill Bruford


Exact Audio Copy V0.99 prebeta 4 from 23. January 2008

EAC extraction logfile from 13. December 2008, 17:53

Bill Bruford / Rock Goes To College

Used drive : PLEXTOR CD-R PREMIUM2 Adapter: 1 ID: 1

Read mode : Secure
Utilize accurate stream : Yes
Defeat audio cache : Yes
Make use of C2 pointers : No

Read offset correction : 30
Overread into Lead-In and Lead-Out : No
Fill up missing offset samples with silence : Yes
Delete leading and trailing silent blocks : No
Null samples used in CRC calculations : Yes
Used interface : Installed external ASPI interface
Gap handling : Appended to previous track

Used output format : User Defined Encoder
Selected bitrate : 32 kBit/s
Quality : High
Add ID3 tag : No
Command line compressor : C:\Programmi\FLAC\flac.exe
Additional command line options : -8 -V -T "ARTIST=%a" -T "TITLE=%t" -T "ALBUM=%g" -T "DATE=%y" -T "TRACKNUMBER=%n" -T "GENRE=%m" -T "COMMENT=EAC FLAC -8" %s


TOC of the extracted CD

Track | Start | Length | Start sector | End sector
––––––––––––––––––––––––––––-
1 | 0:00.00 | 4:45.64 | 0 | 21438
2 | 4:45.64 | 3:37.12 | 21439 | 37725
3 | 8:23.01 | 3:26.70 | 37726 | 53245
4 | 11:49.71 | 3:43.30 | 53246 | 70000
5 | 15:33.26 | 6:50.31 | 70001 | 100781
6 | 22:23.57 | 6:19.60 | 100782 | 129266
7 | 28:43.42 | 7:32.31 | 129267 | 163197
8 | 36:15.73 | 5:17.16 | 163198 | 186988


Track 1

Filename D:\My Rip\01 - Sample And Hold.wav

Pre-gap length 0:00:02.00

Peak level 99.8 %
Track quality 100.0 %
Test CRC EE555509
Copy CRC EE555509
Track not present in AccurateRip database
Copy OK

Track 2

Filename D:\My Rip\02 - Baazlebub.wav

Peak level 99.5 %
Track quality 99.9 %
Test CRC 798A5EC8
Copy CRC 798A5EC8
Track not present in AccurateRip database
Copy OK

Track 3

Filename D:\My Rip\03 - The Sahara Of Snow (Part One).wav

Peak level 99.6 %
Track quality 100.0 %
Test CRC DA8BBB60
Copy CRC DA8BBB60
Track not present in AccurateRip database
Copy OK

Track 4

Filename D:\My Rip\04 - The Sahara Of Snow (Part Two).wav

Peak level 99.9 %
Track quality 100.0 %
Test CRC CF0DE5C3
Copy CRC CF0DE5C3
Track not present in AccurateRip database
Copy OK

Track 5

Filename D:\My Rip\05 - Forever Until Sunday.wav

Peak level 100.0 %
Track quality 99.9 %
Test CRC 5E031E7E
Copy CRC 5E031E7E
Track not present in AccurateRip database
Copy OK

Track 6

Filename D:\My Rip\06 - Back To The Beginning.wav

Peak level 99.7 %
Track quality 100.0 %
Test CRC 5F0F9A7D
Copy CRC 5F0F9A7D
Track not present in AccurateRip database
Copy OK

Track 7

Filename D:\My Rip\07 - Adios A La Pasada (Goodbye To The Past).wav

Peak level 99.5 %
Track quality 100.0 %
Test CRC B9FA439D
Copy CRC B9FA439D
Track not present in AccurateRip database
Copy OK

Track 8

Filename D:\My Rip\08 - 5G.wav

Peak level 99.4 %
Track quality 100.0 %
Test CRC E9C38B0B
Copy CRC E9C38B0B
Track not present in AccurateRip database
Copy OK


None of the tracks are present in the AccurateRip database

No errors occurred

End of status report


––––––––––––––––––––––––––––––––––––––––
Analyzed: Bill Bruford / Rock Goes To College
––––––––––––––––––––––––––––––––––––––––

DR Peak RMS Duration Track
––––––––––––––––––––––––––––––––––––––––
DR12 -0.02 dB -15.15 dB 4:46 01-Sample And Hold
DR12 -0.04 dB -13.75 dB 3:37 02-Baazlebub
DR11 -0.03 dB -15.18 dB 3:27 03-The Sahara Of Snow (Part One)
DR10 0.00 dB -12.37 dB 3:43 04-The Sahara Of Snow (Part Two)
DR11 0.00 dB -13.79 dB 6:50 05-Forever Until Sunday
DR12 -0.02 dB -14.03 dB 6:20 06-Back To The Beginning
DR10 -0.04 dB -13.52 dB 7:32 07-Adios A La Pasada (Goodbye To The Past)
DR12 -0.05 dB -14.54 dB 5:17 08-5G
––––––––––––––––––––––––––––––––––––––––

Number of tracks: 8
Official DR value: DR11

Samplerate: 44100 Hz
Channels: 2
Bits per sample: 16
Bitrate: 728 kbps
Codec: FLAC
================================================================================

Bill Bruford - Rock Goes To College (1979) {BBWF}
Bill Bruford - Rock Goes To College (1979) {BBWF}
Bill Bruford - Rock Goes To College (1979) {BBWF}


Thanks to the original ripper