Subcategories

Bill Evans - You Must Believe In Spring (1981) [Reissue 2003] (Repost)

Posted By: gribovar
Bill Evans - You Must Believe In Spring (1981) [Reissue 2003] (Repost)

Bill Evans - You Must Believe In Spring (1981) [Reissue 2003]
EAC Rip | WavPack (image+.cue+log) - 328 MB | MP3 CBR 320 kbps (LAME 3.93) - 154 MB | Covers (17 MB) included
Genre: Jazz | RAR 3% Rec. | Label: Warner Bros. Records (8122-73719-2)

This well-rounded set (released posthumously) features the highly influential pianist Bill Evans in a set of typically sensitive trio performances. With his longtime bassist Eddie Gomez and his drummer of the period, Eliot Zigmund, Evans explores such songs as "We Will Meet Again," Jimmy Rowles's classic "The Peacocks" and the "Theme from M*A*S*H." It's a solid example of the great pianist's artistry.
Tracklist:
01. B Minor Waltz (For Ellaine)
02. You Must Believe In Spring
03. Gary's Theme
04. We Will Meet Again (For Harry)
05. The Peacocks
06. Sometime Ago
07. Theme From M*A*S*H (Aka Suicide Is Painless)
08. Without A Song
09. Freddie Freeloader
10. All Of You

Total time: 58:16

Exact Audio Copy V1.0 beta 3 from 29. August 2011

EAC extraction logfile from 15. March 2013, 12:07

Bill Evans / You Must Believe In Spring

Used drive : HL-DT-STDVDRAM GT50N Adapter: 0 ID: 1

Read mode : Secure
Utilize accurate stream : Yes
Defeat audio cache : Yes
Make use of C2 pointers : No

Read offset correction : 103
Overread into Lead-In and Lead-Out : No
Fill up missing offset samples with silence : Yes
Delete leading and trailing silent blocks : No
Null samples used in CRC calculations : Yes
Used interface : Native Win32 interface for Win NT & 2000

Used output format : User Defined Encoder
Selected bitrate : 1024 kBit/s
Quality : High
Add ID3 tag : No
Command line compressor : C:\Program Files (x86)\Exact Audio Copy\wavpack.exe
Additional command line options : -hm %source% %dest%


TOC of the extracted CD

Track | Start | Length | Start sector | End sector
––––––––––––––––––––––––––––-
1 | 0:00.00 | 3:18.34 | 0 | 14883
2 | 3:18.34 | 5:46.23 | 14884 | 40856
3 | 9:04.57 | 4:22.45 | 40857 | 60551
4 | 13:27.27 | 4:04.58 | 60552 | 78909
5 | 17:32.10 | 6:03.57 | 78910 | 106191
6 | 23:35.67 | 4:39.43 | 106192 | 127159
7 | 28:15.35 | 6:02.70 | 127160 | 154379
8 | 34:18.30 | 8:09.70 | 154380 | 191124
9 | 42:28.25 | 7:37.72 | 191125 | 225471
10 | 50:06.22 | 8:09.55 | 225472 | 262201


Range status and errors

Selected range

Filename C:\Iso\Bill Evans - You Must Believe In Spring_\Bill Evans - You Must Believe In Spring.wav

Peak level 98.8 %
Extraction speed 4.3 X
Range quality 100.0 %
Test CRC CEC61FC9
Copy CRC CEC61FC9
Copy OK

No errors occurred


AccurateRip summary

Track 1 not present in database
Track 2 not present in database
Track 3 not present in database
Track 4 not present in database
Track 5 not present in database
Track 6 not present in database
Track 7 not present in database
Track 8 not present in database
Track 9 not present in database
Track 10 not present in database

None of the tracks are present in the AccurateRip database

End of status report

==== Log checksum 895A8DF70D6F758FC4FFAD5890C6925035BC89C2B678DCD37992A3465EB0A068 ====

[CUETools log; Date: 09.01.2018 21:34:13; Version: 2.1.4]
[CTDB TOCID: rlEegZdtuZtfdjEvvmd9_setbeg-] found.
Track | CTDB Status
1 | (175/218) Accurately ripped
2 | (178/218) Accurately ripped
3 | (178/218) Accurately ripped
4 | (178/218) Accurately ripped
5 | (178/218) Accurately ripped
6 | (178/218) Accurately ripped
7 | (178/218) Accurately ripped
8 | (173/218) Accurately ripped
9 | (166/218) Accurately ripped
10 | (174/218) Accurately ripped
[AccurateRip ID: 001340a6-009ed9ed-710da80a] found.
Track [ CRC | V2 ] Status
01 [c5878223|e8eada9e] (044+106/195) Accurately ripped
02 [2e1a6375|05dd14ed] (045+107/199) Accurately ripped
03 [a888d59e|e564940b] (044+106/197) Accurately ripped
04 [897e491a|ae46fd88] (043+107/197) Accurately ripped
05 [ba262768|56955a03] (044+107/198) Accurately ripped
06 [91610033|e72c0f4c] (044+107/197) Accurately ripped
07 [8ef09c7d|38a10dc8] (043+107/195) Accurately ripped
08 [e76ebfd7|7319a865] (042+106/193) Accurately ripped
09 [03ce76fd|8df59d12] (041+106/192) Accurately ripped
10 [eb4c917c|9bfe2bfa] (043+106/197) Accurately ripped
Offsetted by -676:
01 [931e08b3] (000/195) No match (V2 was not tested)
02 [f608bc99] (000/199) No match (V2 was not tested)
03 [e42228e6] (000/197) No match (V2 was not tested)
04 [13e61d1e] (000/197) No match (V2 was not tested)
05 [3908a754] (000/198) No match (V2 was not tested)
06 [f0b4989f] (000/197) No match (V2 was not tested)
07 [0e9b140d] (000/195) No match (V2 was not tested)
08 [daf17bfb] (000/193) No match (V2 was not tested)
09 [e801302d] (000/192) No match (V2 was not tested)
10 [f5284244] (000/197) No match (V2 was not tested)
Offsetted by -6:
01 [955dac3b] (000/195) No match (V2 was not tested)
02 [96e22f3b] (000/199) No match (V2 was not tested)
03 [857742aa] (000/197) No match (V2 was not tested)
04 [4448acb0] (000/197) No match (V2 was not tested)
05 [55c8bb7a] (000/198) No match (V2 was not tested)
06 [cd4d4b05] (000/197) No match (V2 was not tested)
07 [dd53d415] (000/195) No match (V2 was not tested)
08 [e44acc1d] (000/193) No match (V2 was not tested)
09 [ffc5d385] (000/192) No match (V2 was not tested)
10 [600690c8] (000/197) No match (V2 was not tested)

Track Peak [ CRC32 ] [W/O NULL] [ LOG ]
– 98,8 [CEC61FC9] [B91964B6] CRC32
01 93,0 [D8A1233D] [568D7BCB]
02 98,8 [FECA89C1] [84157418]
03 98,8 [C75D5F08] [A24A2EBA]
04 98,8 [0DF8C724] [8888229E]
05 98,8 [09A4EFC6] [0DCC590F]
06 98,8 [D6805D47] [FBEEE67A]
07 98,8 [5D72746B] [08081B96]
08 98,8 [05E36156] [297D4BB7]
09 78,5 [B21349AE] [A075F4CF]
10 70,0 [6E6FBC64] [B3C38951]

Thanks to shatterhand

See also:
Stan Getz & Bill Evans - Stan Getz & Bill Evans (1973)