Tags
Language
Tags
June 2023
Su Mo Tu We Th Fr Sa
28 29 30 31 1 2 3
4 5 6 7 8 9 10
11 12 13 14 15 16 17
18 19 20 21 22 23 24
25 26 27 28 29 30 1

Bill Frisell / Thomas Morgan - Small Town (2017) {ECM 2525}

Posted By: tiburon
Bill Frisell / Thomas Morgan - Small Town (2017) {ECM 2525}

Bill Frisell / Thomas Morgan - Small Town (2017) {ECM 2525}
EAC 1.3 | FLAC tracks level 8 | Cue+Log+M3U | Full Scans 300dpi | 297MB + 5% Recovery
MP3 CBR 320 Kbps | 155MB + 5% Recovery
Genre: Jazz

Small Town presents guitarist Bill Frisell and bassist Thomas Morgan in a program of duets, the poetic chemistry of their playing captured live at New York s hallowed Village Vanguard. Small Town sees Frisell and Morgan pay homage to jazz elder Lee Konitz with his Subconscious Lee, and there are several country/blues-accented Frisell originals, including the hauntingly melodic title track. The duo caps the set with an inimitable treatment of John Barry's famous James Bond theme Goldfinger.
Track List
01. It Should Have Happened A Long Time Ago
02. Subconscious Lee
03. Song For Andrew No. 1
04. Wildwood Flower
05. Small Town
06. What A Party
07. Poet / Pearl
08. Goldfinger

musicians
Bill Frisell - guitar
Thomas Morgan - double bass

Produced by Manfred Eicher


Exact Audio Copy V1.0 beta 3 from 29. August 2011

EAC extraction logfile from 6. June 2017, 16:30

Bill Frisell, Thomas Morgan / Small Town [ECM 2525]

Used drive : ASUS DRW-24F1ST a Adapter: 0 ID: 0

Read mode : Secure
Utilize accurate stream : Yes
Defeat audio cache : Yes
Make use of C2 pointers : No

Read offset correction : 6
Overread into Lead-In and Lead-Out : No
Fill up missing offset samples with silence : Yes
Delete leading and trailing silent blocks : No
Null samples used in CRC calculations : Yes
Used interface : Native Win32 interface for Win NT & 2000
Gap handling : Appended to previous track

Used output format : User Defined Encoder
Selected bitrate : 128 kBit/s
Quality : High
Add ID3 tag : No
Command line compressor : C:\Program Files (x86)\Exact Audio Copy\FLAC\FLAC.EXE
Additional command line options : -8 -V -T "ARTIST=%artist%" -T "TITLE=%title%" -T "ALBUM=%albumtitle%" -T "DATE=%year%" -T "TRACKNUMBER=%tracknr%" -T "TOTALTRACKS=%numtracks%" -T "GENRE=%genre%" -T "ALBUMARTIST=%albumartist%" -T "ALBUM ARTIST=%albumartist%" -T "COMMENT=EAC Secure Mode, Test & Copy, AccurateRip, FLAC -8" %source%


TOC of the extracted CD

Track | Start | Length | Start sector | End sector
––––––––––––––––––––––––––––-
1 | 0:00.00 | 11:05.09 | 0 | 49883
2 | 11:05.09 | 7:31.36 | 49884 | 83744
3 | 18:36.45 | 9:35.36 | 83745 | 126905
4 | 28:12.06 | 5:08.50 | 126906 | 150055
5 | 33:20.56 | 8:57.53 | 150056 | 190383
6 | 42:18.34 | 6:41.32 | 190384 | 220490
7 | 48:59.66 | 12:04.74 | 220491 | 274864
8 | 61:04.65 | 7:01.32 | 274865 | 306471


Track 1

Filename K:\EAC\01 - It Should Have Happened A Long Time Ago.wav

Pre-gap length 0:00:02.00

Peak level 94.8 %
Extraction speed 5.0 X
Track quality 100.0 %
Test CRC DAFDBB7B
Copy CRC DAFDBB7B
Track not present in AccurateRip database
Copy OK

Track 2

Filename K:\EAC\02 - Subconscious Lee.wav

Peak level 89.9 %
Extraction speed 5.8 X
Track quality 100.0 %
Test CRC 46EAAB0D
Copy CRC 46EAAB0D
Track not present in AccurateRip database
Copy OK

Track 3

Filename K:\EAC\03 - Song for Andrew No. 1.wav

Peak level 84.0 %
Extraction speed 6.6 X
Track quality 100.0 %
Test CRC 76CBE8A7
Copy CRC 76CBE8A7
Track not present in AccurateRip database
Copy OK

Track 4

Filename K:\EAC\04 - Wildwood Flower.wav

Peak level 91.4 %
Extraction speed 6.7 X
Track quality 100.0 %
Test CRC C817403E
Copy CRC C817403E
Track not present in AccurateRip database
Copy OK

Track 5

Filename K:\EAC\05 - Small Town.wav

Peak level 84.7 %
Extraction speed 7.6 X
Track quality 100.0 %
Test CRC A3FF5C94
Copy CRC A3FF5C94
Track not present in AccurateRip database
Copy OK

Track 6

Filename K:\EAC\06 - What a Party.wav

Peak level 83.6 %
Extraction speed 7.8 X
Track quality 100.0 %
Test CRC 39C6D99F
Copy CRC 39C6D99F
Track not present in AccurateRip database
Copy OK

Track 7

Filename K:\EAC\07 - Poet-Pearl.wav

Peak level 92.3 %
Extraction speed 8.8 X
Track quality 100.0 %
Test CRC 8DED2D61
Copy CRC 8DED2D61
Track not present in AccurateRip database
Copy OK

Track 8

Filename K:\EAC\08 - Goldfinger.wav

Peak level 84.0 %
Extraction speed 8.8 X
Track quality 100.0 %
Test CRC 1615C384
Copy CRC 1615C384
Track not present in AccurateRip database
Copy OK


None of the tracks are present in the AccurateRip database

No errors occurred

End of status report

==== Log checksum 2A4852D2CF945D4C3600053D301CD44700DC4DFE8DAE09B41522C61C6F332295 ====


––––––––––––––––––––––––––––––––––––––––
Analyzed: Bill Frisell & Thomas Morgan / Small Town
––––––––––––––––––––––––––––––––––––––––

DR Peak RMS Duration Track
––––––––––––––––––––––––––––––––––––––––
DR13 -0.46 dB -18.34 dB 11:05 01-It Should Have Happened a Long Time Ago
DR12 -0.92 dB -16.94 dB 7:31 02-Subconscious Lee
DR13 -1.51 dB -19.35 dB 9:35 03-Song for Andrew No.1
DR13 -0.78 dB -17.75 dB 5:09 04-Wildwood Flower
DR13 -1.44 dB -18.07 dB 8:58 05-Small Town
DR13 -1.55 dB -17.64 dB 6:41 06-What a Party
DR13 -0.69 dB -17.96 dB 12:05 07-Poet - Pearl
DR12 -1.51 dB -17.94 dB 7:01 08-Goldfinger
––––––––––––––––––––––––––––––––––––––––

Number of tracks: 8
Official DR value: DR13

Samplerate: 44100 Hz
Channels: 2
Bits per sample: 16
Bitrate: 473 kbps
Codec: FLAC
================================================================================

Bill Frisell / Thomas Morgan - Small Town (2017) {ECM 2525}
Bill Frisell / Thomas Morgan - Small Town (2017) {ECM 2525}
Bill Frisell / Thomas Morgan - Small Town (2017) {ECM 2525}


Thanks to the original ripper