Bill Withers - The Real... Bill Withers (2014)

Posted By: JET 1
Bill Withers - The Real... Bill Withers (2014)

Bill Withers - The Real… Bill Withers (2014)
EAC Rip | FLAC (Tracks) +CUE, LOG | 1.21 GB | Covers Included
Genre: Soul, R&B, Funk, Disco | Label: Sony Music | Catalog Number: 88843054952

A good compilation that illustrates Bill Withers recording career which ended with his disillusionment with the recording industry. He performed and recorded from 1970 until 1985. On this CD, there is all the major songs, some of which are very inspired writings and many are in a class of there own. There is no doubt that Withers was a perfectionist and the musically, he was well ahead of his time. Take 'Grandma's Hands' and all of the early Sussex recordings that feature the acoustic guitar. with and without the lovely string backings (by Booker T. Jones). Disc 1 illustrates some of his great early material. Later on, we get the Columbia recordings which are good but musically, you get the impression that Withers was being pressured by the company to deliver what they wanted and not necessarily the material that he wanted to do. He is a unique artist and sincerely hope that one day, he will surprise the public by releasing some amazing new songs with the poetry and musicality of his 1970's material.

Exact Audio Copy V1.3 from 2. September 2016

EAC extraction logfile from 18. July 2017, 4:32

Bill Withers / The Real… Bill Withers (CD1)

Used drive : HL-DT-STDVD+-RW GU90N Adapter: 1 ID: 0

Read mode : Secure
Utilize accurate stream : Yes
Defeat audio cache : Yes
Make use of C2 pointers : No

Read offset correction : 102
Overread into Lead-In and Lead-Out : No
Fill up missing offset samples with silence : Yes
Delete leading and trailing silent blocks : No
Null samples used in CRC calculations : Yes
Used interface : Installed external ASPI interface
Gap handling : Appended to previous track

Used output format : User Defined Encoder
Selected bitrate : 768 kBit/s
Quality : High
Add ID3 tag : No
Command line compressor : C:\Program Files (x86)\Exact Audio Copy\Flac\flac.exe
Additional command line options : -8 -V -T "ARTIST=%artist%" -T "TITLE=%title%" -T "ALBUM=%albumtitle%" -T "DATE=%year%" -T "TRACKNUMBER=%tracknr%" -T "GENRE=%genre%" -T "COMMENT=%comment%" -T "BAND=%albuminterpret%" -T "ALBUMARTIST=%albuminterpret%" -T "COMPOSER=%composer%" %haslyrics%–tag-from-file=LYRICS="%lyricsfile%"%haslyrics% -T "DISCNUMBER=%cdnumber%" -T "TOTALDISCS=%totalcds%" -T "TOTALTRACKS=%numtracks%" %hascover%–picture="%coverfile%"%hascover% %source% -o %dest%


TOC of the extracted CD

Track | Start | Length | Start sector | End sector
––––––––––––––––––––––––––––-
1 | 0:00.00 | 2:06.22 | 0 | 9471
2 | 2:06.22 | 3:23.06 | 9472 | 24702
3 | 5:29.28 | 3:25.17 | 24703 | 40094
4 | 8:54.45 | 3:50.05 | 40095 | 57349
5 | 12:44.50 | 2:15.39 | 57350 | 67513
6 | 15:00.14 | 4:19.06 | 67514 | 86944
7 | 19:19.20 | 2:57.33 | 86945 | 100252
8 | 22:16.53 | 2:51.65 | 100253 | 113142
9 | 25:08.43 | 2:00.45 | 113143 | 122187
10 | 27:09.13 | 2:35.70 | 122188 | 133882
11 | 29:45.08 | 3:18.38 | 133883 | 148770
12 | 33:03.46 | 2:33.03 | 148771 | 160248
13 | 35:36.49 | 3:49.26 | 160249 | 177449
14 | 39:26.00 | 4:38.40 | 177450 | 198339
15 | 44:04.40 | 3:02.32 | 198340 | 212021
16 | 47:06.72 | 3:40.60 | 212022 | 228581
17 | 50:47.57 | 4:32.40 | 228582 | 249021
18 | 55:20.22 | 2:41.55 | 249022 | 261151
19 | 58:02.02 | 3:13.37 | 261152 | 275663
20 | 61:15.39 | 2:36.27 | 275664 | 287390
21 | 63:51.66 | 3:44.09 | 287391 | 304199


Track 1

Filename C:\Program Files (x86)\Exact Audio Copy\Flac\01. Ain't No Sunschine.wav

Pre-gap length 0:00:02.00

Peak level 100.0 %
Extraction speed 1.3 X
Track quality 100.0 %
Test CRC EF37F811
Copy CRC EF37F811
Accurately ripped (confidence 7) [D9EB0F37] (AR v2)
Copy OK

Track 2

Filename C:\Program Files (x86)\Exact Audio Copy\Flac\02. Harlem.wav

Pre-gap length 0:00:01.63

Peak level 100.0 %
Extraction speed 1.5 X
Track quality 100.0 %
Test CRC E7D2369D
Copy CRC E7D2369D
Accurately ripped (confidence 6) [4456C154] (AR v2)
Copy OK

Track 3

Filename C:\Program Files (x86)\Exact Audio Copy\Flac\03. Everybody's Talkin'.wav

Pre-gap length 0:00:00.56

Peak level 100.0 %
Extraction speed 3.2 X
Track quality 100.0 %
Test CRC 3E945B61
Copy CRC 3E945B61
Accurately ripped (confidence 6) [41FBA7E5] (AR v2)
Copy OK

Track 4

Filename C:\Program Files (x86)\Exact Audio Copy\Flac\04. Hope She'll Be Happier.wav

Pre-gap length 0:00:00.38

Peak level 87.4 %
Extraction speed 2.8 X
Track quality 99.9 %
Test CRC 4F8B1D16
Copy CRC 4F8B1D16
Accurately ripped (confidence 6) [641592ED] (AR v2)
Copy OK

Track 5

Filename C:\Program Files (x86)\Exact Audio Copy\Flac\05. Better Off Dead.wav

Pre-gap length 0:00:01.42

Peak level 100.0 %
Extraction speed 3.2 X
Track quality 100.0 %
Test CRC 1DAAFA43
Copy CRC 1DAAFA43
Accurately ripped (confidence 6) [F4FFEEC6] (AR v2)
Copy OK

Track 6

Filename C:\Program Files (x86)\Exact Audio Copy\Flac\06. In My Heart.wav

Pre-gap length 0:00:01.09

Peak level 100.0 %
Extraction speed 3.8 X
Track quality 100.0 %
Test CRC E0418115
Copy CRC E0418115
Accurately ripped (confidence 6) [1720155B] (AR v2)
Copy OK

Track 7

Filename C:\Program Files (x86)\Exact Audio Copy\Flac\07. Moanin' And Groanin'.wav

Pre-gap length 0:00:00.09

Peak level 100.0 %
Extraction speed 3.5 X
Track quality 100.0 %
Test CRC BE49743B
Copy CRC BE49743B
Accurately ripped (confidence 6) [40BE79DB] (AR v2)
Copy OK

Track 8

Filename C:\Program Files (x86)\Exact Audio Copy\Flac\08. Do It Good.wav

Peak level 100.0 %
Extraction speed 3.8 X
Track quality 100.0 %
Test CRC 118F3433
Copy CRC 118F3433
Accurately ripped (confidence 6) [FBDE5AA8] (AR v2)
Copy OK

Track 9

Filename C:\Program Files (x86)\Exact Audio Copy\Flac\09. Grandma's Hands.wav

Pre-gap length 0:00:00.15

Peak level 100.0 %
Extraction speed 3.6 X
Track quality 100.0 %
Test CRC 1C593595
Copy CRC 1C593595
Accurately ripped (confidence 6) [83A99F20] (AR v2)
Copy OK

Track 10

Filename C:\Program Files (x86)\Exact Audio Copy\Flac\10. Let It Be.wav

Pre-gap length 0:00:00.42

Peak level 100.0 %
Extraction speed 3.7 X
Track quality 100.0 %
Test CRC F2960E63
Copy CRC F2960E63
Accurately ripped (confidence 6) [4D040AD7] (AR v2)
Copy OK

Track 11

Filename C:\Program Files (x86)\Exact Audio Copy\Flac\11. I'm Her Daddy.wav

Pre-gap length 0:00:00.03

Peak level 100.0 %
Extraction speed 3.1 X
Track quality 99.9 %
Test CRC E622E4E2
Copy CRC E622E4E2
Accurately ripped (confidence 6) [1B5F00C1] (AR v2)
Copy OK

Track 12

Filename C:\Program Files (x86)\Exact Audio Copy\Flac\12. Sweet Wanomi.wav

Pre-gap length 0:00:00.62

Peak level 100.0 %
Extraction speed 2.9 X
Track quality 99.9 %
Test CRC 82FCDDD3
Copy CRC 82FCDDD3
Accurately ripped (confidence 6) [290AA7EF] (AR v2)
Copy OK

Track 13

Filename C:\Program Files (x86)\Exact Audio Copy\Flac\13. Kissing My Love.wav

Pre-gap length 0:00:00.20

Peak level 92.0 %
Extraction speed 4.3 X
Track quality 100.0 %
Test CRC B089490B
Copy CRC B089490B
Accurately ripped (confidence 6) [D0B9F0E9] (AR v2)
Copy OK

Track 14

Filename C:\Program Files (x86)\Exact Audio Copy\Flac\14. Another Day To Run.wav

Pre-gap length 0:00:00.02

Peak level 93.8 %
Extraction speed 3.9 X
Track quality 99.9 %
Test CRC 4117B946
Copy CRC 4117B946
Accurately ripped (confidence 6) [32F9441F] (AR v2)
Copy OK

Track 15

Filename C:\Program Files (x86)\Exact Audio Copy\Flac\15. I Don't Know.wav

Pre-gap length 0:00:00.41

Peak level 99.6 %
Extraction speed 4.4 X
Track quality 100.0 %
Test CRC F4113A0F
Copy CRC F4113A0F
Accurately ripped (confidence 6) [8F10B18A] (AR v2)
Copy OK

Track 16

Filename C:\Program Files (x86)\Exact Audio Copy\Flac\16. Lonely Town, Lonely STreet.wav

Pre-gap length 0:00:00.08

Peak level 99.6 %
Extraction speed 4.6 X
Track quality 100.0 %
Test CRC A0F0B905
Copy CRC A0F0B905
Accurately ripped (confidence 6) [BA32FB9A] (AR v2)
Copy OK

Track 17

Filename C:\Program Files (x86)\Exact Audio Copy\Flac\17. I Don't Want You On My Mind.wav

Pre-gap length 0:00:00.18

Peak level 97.1 %
Extraction speed 4.9 X
Track quality 100.0 %
Test CRC 28B38986
Copy CRC 28B38986
Accurately ripped (confidence 6) [F5ACB371] (AR v2)
Copy OK

Track 18

Filename C:\Program Files (x86)\Exact Audio Copy\Flac\18. Let Me In Your Live.wav

Peak level 99.6 %
Extraction speed 4.7 X
Track quality 100.0 %
Test CRC B862A182
Copy CRC B862A182
Accurately ripped (confidence 5) [380DBB0F] (AR v2)
Copy OK

Track 19

Filename C:\Program Files (x86)\Exact Audio Copy\Flac\19. Who Is He (And What Is He To You).wav

Pre-gap length 0:00:00.53

Peak level 99.6 %
Extraction speed 4.8 X
Track quality 100.0 %
Test CRC E9AE74C5
Copy CRC E9AE74C5
Accurately ripped (confidence 5) [024CAC4A] (AR v2)
Copy OK

Track 20

Filename C:\Program Files (x86)\Exact Audio Copy\Flac\20. Take It All In And Check It All Out.wav

Pre-gap length 0:00:00.52

Peak level 99.6 %
Extraction speed 3.5 X
Track quality 99.9 %
Test CRC B8857E61
Copy CRC B8857E61
Accurately ripped (confidence 5) [5F8D0719] (AR v2)
Copy OK

Track 21

Filename C:\Program Files (x86)\Exact Audio Copy\Flac\21. Use Me.wav

Peak level 86.0 %
Extraction speed 4.1 X
Track quality 99.9 %
Test CRC 6B3BC0A6
Copy CRC 6B3BC0A6
Accurately ripped (confidence 5) [BE84181A] (AR v2)
Copy OK


All tracks accurately ripped

No errors occurred

End of status report

–– CUETools DB Plugin V2.1.6

[CTDB TOCID: Imtry8WeUEJmOK0VJgFaEtf0jJE-] found
Submit result: Imtry8WeUEJmOK0VJgFaEtf0jJE- has been confirmed
Track | CTDB Status
1 | (22/22) Accurately ripped
2 | (22/22) Accurately ripped
3 | (22/22) Accurately ripped
4 | (22/22) Accurately ripped
5 | (22/22) Accurately ripped
6 | (22/22) Accurately ripped
7 | (22/22) Accurately ripped
8 | (22/22) Accurately ripped
9 | (22/22) Accurately ripped
10 | (22/22) Accurately ripped
11 | (22/22) Accurately ripped
12 | (22/22) Accurately ripped
13 | (22/22) Accurately ripped
14 | (22/22) Accurately ripped
15 | (22/22) Accurately ripped
16 | (22/22) Accurately ripped
17 | (22/22) Accurately ripped
18 | (22/22) Accurately ripped
19 | (22/22) Accurately ripped
20 | (22/22) Accurately ripped
21 | (22/22) Accurately ripped


==== Log checksum EED4BE33675DE6E0DCBDFE48E61AD9D572DADE0E899CE6F4CE7CFDE37E67E90E ====

Exact Audio Copy V1.3 from 2. September 2016

EAC extraction logfile from 18. July 2017, 5:47

Bill Withers / The Real… Bill Withers (CD2)

Used drive : HL-DT-STDVD+-RW GU90N Adapter: 1 ID: 0

Read mode : Secure
Utilize accurate stream : Yes
Defeat audio cache : Yes
Make use of C2 pointers : No

Read offset correction : 102
Overread into Lead-In and Lead-Out : No
Fill up missing offset samples with silence : Yes
Delete leading and trailing silent blocks : No
Null samples used in CRC calculations : Yes
Used interface : Installed external ASPI interface
Gap handling : Appended to previous track

Used output format : User Defined Encoder
Selected bitrate : 768 kBit/s
Quality : High
Add ID3 tag : No
Command line compressor : C:\Program Files (x86)\Exact Audio Copy\Flac\flac.exe
Additional command line options : -8 -V -T "ARTIST=%artist%" -T "TITLE=%title%" -T "ALBUM=%albumtitle%" -T "DATE=%year%" -T "TRACKNUMBER=%tracknr%" -T "GENRE=%genre%" -T "COMMENT=%comment%" -T "BAND=%albuminterpret%" -T "ALBUMARTIST=%albuminterpret%" -T "COMPOSER=%composer%" %haslyrics%–tag-from-file=LYRICS="%lyricsfile%"%haslyrics% -T "DISCNUMBER=%cdnumber%" -T "TOTALDISCS=%totalcds%" -T "TOTALTRACKS=%numtracks%" %hascover%–picture="%coverfile%"%hascover% %source% -o %dest%


TOC of the extracted CD

Track | Start | Length | Start sector | End sector
––––––––––––––––––––––––––––-
1 | 0:00.00 | 4:19.08 | 0 | 19432
2 | 4:19.08 | 5:22.31 | 19433 | 43613
3 | 9:41.39 | 5:22.55 | 43614 | 67818
4 | 15:04.19 | 4:34.55 | 67819 | 88423
5 | 19:38.74 | 3:16.52 | 88424 | 103175
6 | 22:55.51 | 3:10.25 | 103176 | 117450
7 | 26:06.01 | 3:10.16 | 117451 | 131716
8 | 29:16.17 | 3:25.63 | 131717 | 147154
9 | 32:42.05 | 6:24.12 | 147155 | 175966
10 | 39:06.17 | 3:59.00 | 175967 | 193891
11 | 43:05.17 | 3:49.03 | 193892 | 211069
12 | 46:54.20 | 5:29.29 | 211070 | 235773
13 | 52:23.49 | 3:55.48 | 235774 | 253446
14 | 56:19.22 | 4:52.43 | 253447 | 275389
15 | 61:11.65 | 5:31.28 | 275390 | 300242
16 | 66:43.18 | 3:03.51 | 300243 | 314018
17 | 69:46.69 | 5:47.36 | 314019 | 340079


Track 1

Filename C:\Program Files (x86)\Exact Audio Copy\Flac\01. Lean On Me.wav

Pre-gap length 0:00:02.00

Peak level 99.6 %
Extraction speed 1.5 X
Track quality 100.0 %
Test CRC B24D30ED
Copy CRC B24D30ED
Accurately ripped (confidence 6) [3572CB44] (AR v2)
Copy OK

Track 2

Filename C:\Program Files (x86)\Exact Audio Copy\Flac\02. World Keeps Going Around (live).wav

Pre-gap length 0:00:00.64

Peak level 98.8 %
Extraction speed 1.7 X
Track quality 100.0 %
Test CRC 6A1DFC60
Copy CRC 6A1DFC60
Accurately ripped (confidence 7) [21D1A902] (AR v2)
Copy OK

Track 3

Filename C:\Program Files (x86)\Exact Audio Copy\Flac\03. Let Us Love (live).wav

Pre-gap length 0:00:01.00

Peak level 98.8 %
Extraction speed 1.9 X
Track quality 100.0 %
Test CRC 917AFD59
Copy CRC 917AFD59
Accurately ripped (confidence 7) [136DF9F3] (AR v2)
Copy OK

Track 4

Filename C:\Program Files (x86)\Exact Audio Copy\Flac\04. Friend Of Mine (live).wav

Pre-gap length 0:00:01.29

Peak level 100.0 %
Extraction speed 2.0 X
Track quality 100.0 %
Test CRC 9576C5A0
Copy CRC 9576C5A0
Accurately ripped (confidence 7) [3ACB5859] (AR v2)
Copy OK

Track 5

Filename C:\Program Files (x86)\Exact Audio Copy\Flac\05. Ruby Lee.wav

Pre-gap length 0:00:01.70

Peak level 98.7 %
Extraction speed 2.0 X
Track quality 100.0 %
Test CRC 98154DDB
Copy CRC 98154DDB
Accurately ripped (confidence 7) [197F5624] (AR v2)
Copy OK

Track 6

Filename C:\Program Files (x86)\Exact Audio Copy\Flac\06. Green Grass.wav

Pre-gap length 0:00:00.02

Peak level 98.7 %
Extraction speed 2.1 X
Track quality 100.0 %
Test CRC 843C7A86
Copy CRC 843C7A86
Accurately ripped (confidence 7) [574DEAE8] (AR v2)
Copy OK

Track 7

Filename C:\Program Files (x86)\Exact Audio Copy\Flac\07. Heartbreak Road.wav

Pre-gap length 0:00:00.15

Peak level 98.7 %
Extraction speed 1.8 X
Track quality 99.9 %
Test CRC B1E33A43
Copy CRC B1E33A43
Accurately ripped (confidence 7) [B51B781E] (AR v2)
Copy OK

Track 8

Filename C:\Program Files (x86)\Exact Audio Copy\Flac\08. The Same Love That Made Me Laugh.wav

Pre-gap length 0:00:01.54

Peak level 98.7 %
Extraction speed 1.9 X
Track quality 99.9 %
Test CRC 3651041A
Copy CRC 3651041A
Accurately ripped (confidence 7) [28558308] (AR v2)
Copy OK

Track 9

Filename C:\Program Files (x86)\Exact Audio Copy\Flac\09. Make Love To Your Mind.wav

Pre-gap length 0:00:01.27

Peak level 99.3 %
Extraction speed 2.5 X
Track quality 100.0 %
Test CRC 07866573
Copy CRC 07866573
Accurately ripped (confidence 7) [ABADD4B7] (AR v2)
Copy OK

Track 10

Filename C:\Program Files (x86)\Exact Audio Copy\Flac\10. I WIsh You Well.wav

Pre-gap length 0:00:00.11

Peak level 98.7 %
Extraction speed 2.4 X
Track quality 100.0 %
Test CRC BA10FEB0
Copy CRC BA10FEB0
Accurately ripped (confidence 7) [AF066C80] (AR v2)
Copy OK

Track 11

Filename C:\Program Files (x86)\Exact Audio Copy\Flac\11. Can We Pretend.wav

Pre-gap length 0:00:02.03

Peak level 99.8 %
Extraction speed 2.2 X
Track quality 99.9 %
Test CRC 2AD62440
Copy CRC 2AD62440
Accurately ripped (confidence 7) [08834B8C] (AR v2)
Copy OK

Track 12

Filename C:\Program Files (x86)\Exact Audio Copy\Flac\12. Hello Like Before.wav

Peak level 99.3 %
Extraction speed 2.8 X
Track quality 100.0 %
Test CRC EBF3A066
Copy CRC EBF3A066
Accurately ripped (confidence 6) [D3EFB64B] (AR v2)
Copy OK

Track 13

Filename C:\Program Files (x86)\Exact Audio Copy\Flac\13. Close To Me.wav

Peak level 90.0 %
Extraction speed 2.7 X
Track quality 100.0 %
Test CRC 0890AF04
Copy CRC 0890AF04
Accurately ripped (confidence 6) [96FF2E9F] (AR v2)
Copy OK

Track 14

Filename C:\Program Files (x86)\Exact Audio Copy\Flac\14. My Imagination.wav

Pre-gap length 0:00:00.19

Peak level 99.3 %
Extraction speed 2.9 X
Track quality 100.0 %
Test CRC B57ABFC3
Copy CRC B57ABFC3
Accurately ripped (confidence 6) [815488EC] (AR v2)
Copy OK

Track 15

Filename C:\Program Files (x86)\Exact Audio Copy\Flac\15. Dreams.wav

Pre-gap length 0:00:00.10

Peak level 99.8 %
Extraction speed 3.0 X
Track quality 100.0 %
Test CRC 4993ECE2
Copy CRC 4993ECE2
Accurately ripped (confidence 6) [6B9139CF] (AR v2)
Copy OK

Track 16

Filename C:\Program Files (x86)\Exact Audio Copy\Flac\16. If I Didn't Mean You Well.wav

Pre-gap length 0:00:00.47

Peak level 98.7 %
Extraction speed 2.9 X
Track quality 100.0 %
Test CRC B84F270A
Copy CRC B84F270A
Accurately ripped (confidence 6) [1D7DE5FB] (AR v2)
Copy OK

Track 17

Filename C:\Program Files (x86)\Exact Audio Copy\Flac\17. Nakede & Warm.wav

Pre-gap length 0:00:01.08

Peak level 97.4 %
Extraction speed 3.2 X
Track quality 100.0 %
Test CRC 54BDA4BD
Copy CRC 54BDA4BD
Accurately ripped (confidence 6) [794DBA6E] (AR v2)
Copy OK


All tracks accurately ripped

No errors occurred

End of status report

–– CUETools DB Plugin V2.1.6

[CTDB TOCID: o54l_kzccS0h2lWxa7OT9OOpR3o-] found
Submit result: o54l_kzccS0h2lWxa7OT9OOpR3o- has been confirmed
Track | CTDB Status
1 | (19/19) Accurately ripped
2 | (19/19) Accurately ripped
3 | (19/19) Accurately ripped
4 | (19/19) Accurately ripped
5 | (19/19) Accurately ripped
6 | (19/19) Accurately ripped
7 | (19/19) Accurately ripped
8 | (19/19) Accurately ripped
9 | (19/19) Accurately ripped
10 | (19/19) Accurately ripped
11 | (19/19) Accurately ripped
12 | (19/19) Accurately ripped
13 | (19/19) Accurately ripped
14 | (19/19) Accurately ripped
15 | (19/19) Accurately ripped
16 | (19/19) Accurately ripped
17 | (19/19) Accurately ripped


==== Log checksum 2FDE509DC51001ED7866AFDCC30667989795D20B519D29F8A74A3849CA75842B ====

Exact Audio Copy V1.3 from 2. September 2016

EAC extraction logfile from 18. July 2017, 9:40

Bill Withers / The Real… Bill Withers (CD3)

Used drive : HL-DT-STDVD+-RW GU90N Adapter: 1 ID: 0

Read mode : Secure
Utilize accurate stream : Yes
Defeat audio cache : Yes
Make use of C2 pointers : No

Read offset correction : 102
Overread into Lead-In and Lead-Out : No
Fill up missing offset samples with silence : Yes
Delete leading and trailing silent blocks : No
Null samples used in CRC calculations : Yes
Used interface : Installed external ASPI interface
Gap handling : Appended to previous track

Used output format : User Defined Encoder
Selected bitrate : 768 kBit/s
Quality : High
Add ID3 tag : No
Command line compressor : C:\Program Files (x86)\Exact Audio Copy\Flac\flac.exe
Additional command line options : -8 -V -T "ARTIST=%artist%" -T "TITLE=%title%" -T "ALBUM=%albumtitle%" -T "DATE=%year%" -T "TRACKNUMBER=%tracknr%" -T "GENRE=%genre%" -T "COMMENT=%comment%" -T "BAND=%albuminterpret%" -T "ALBUMARTIST=%albuminterpret%" -T "COMPOSER=%composer%" %haslyrics%–tag-from-file=LYRICS="%lyricsfile%"%haslyrics% -T "DISCNUMBER=%cdnumber%" -T "TOTALDISCS=%totalcds%" -T "TOTALTRACKS=%numtracks%" %hascover%–picture="%coverfile%"%hascover% %source% -o %dest%


TOC of the extracted CD

Track | Start | Length | Start sector | End sector
––––––––––––––––––––––––––––-
1 | 0:00.00 | 4:16.03 | 0 | 19202
2 | 4:16.03 | 3:41.45 | 19203 | 35822
3 | 7:57.48 | 5:02.16 | 35823 | 58488
4 | 12:59.64 | 4:44.68 | 58489 | 79856
5 | 17:44.57 | 5:50.21 | 79857 | 106127
6 | 23:35.03 | 5:23.32 | 106128 | 130384
7 | 28:58.35 | 4:13.39 | 130385 | 149398
8 | 33:11.74 | 7:16.33 | 149399 | 182131
9 | 40:28.32 | 3:51.25 | 182132 | 199481
10 | 44:19.57 | 5:49.49 | 199482 | 225705
11 | 50:09.31 | 4:27.30 | 225706 | 245760
12 | 54:36.61 | 5:21.25 | 245761 | 269860
13 | 59:58.11 | 5:45.31 | 269861 | 295766
14 | 65:43.42 | 4:16.52 | 295767 | 315018
15 | 70:00.19 | 4:04.07 | 315019 | 333325


Track 1

Filename C:\Program Files (x86)\Exact Audio Copy\Flac\01. Lovely Day.wav

Pre-gap length 0:00:02.00

Peak level 99.9 %
Extraction speed 1.5 X
Track quality 100.0 %
Test CRC B1F1A41E
Copy CRC B1F1A41E
Accurately ripped (confidence 6) [5E17B1F1] (AR v2)
Copy OK

Track 2

Filename C:\Program Files (x86)\Exact Audio Copy\Flac\02. I Want To Spend The Night.wav

Pre-gap length 0:00:00.40

Peak level 99.9 %
Extraction speed 1.6 X
Track quality 100.0 %
Test CRC C2D68CD7
Copy CRC C2D68CD7
Accurately ripped (confidence 6) [AE72814D] (AR v2)
Copy OK

Track 3

Filename C:\Program Files (x86)\Exact Audio Copy\Flac\03. Tender Things.wav

Pre-gap length 0:00:00.28

Peak level 99.9 %
Extraction speed 1.8 X
Track quality 100.0 %
Test CRC 02E8DE69
Copy CRC 02E8DE69
Accurately ripped (confidence 7) [2338FDC9] (AR v2)
Copy OK

Track 4

Filename C:\Program Files (x86)\Exact Audio Copy\Flac\04. Let Me Be The One You Need.wav

Pre-gap length 0:00:01.44

Peak level 99.9 %
Extraction speed 2.0 X
Track quality 100.0 %
Test CRC 24EEAE28
Copy CRC 24EEAE28
Accurately ripped (confidence 7) [AD24BFF2] (AR v2)
Copy OK

Track 5

Filename C:\Program Files (x86)\Exact Audio Copy\Flac\05. Lovely Night For Dancing.wav

Pre-gap length 0:00:00.32

Peak level 99.9 %
Extraction speed 1.9 X
Track quality 99.9 %
Test CRC DBE846FA
Copy CRC DBE846FA
Accurately ripped (confidence 7) [387AC7E3] (AR v2)
Copy OK

Track 6

Filename C:\Program Files (x86)\Exact Audio Copy\Flac\06. You.wav

Pre-gap length 0:00:00.26

Peak level 98.7 %
Extraction speed 2.3 X
Track quality 100.0 %
Test CRC 4B9C37A5
Copy CRC 4B9C37A5
Accurately ripped (confidence 7) [5DFFA74D] (AR v2)
Copy OK

Track 7

Filename C:\Program Files (x86)\Exact Audio Copy\Flac\07. Don't It Make It Better.wav

Pre-gap length 0:00:00.39

Peak level 98.4 %
Extraction speed 2.3 X
Track quality 100.0 %
Test CRC 5AB32F75
Copy CRC 5AB32F75
Accurately ripped (confidence 7) [81B3847C] (AR v2)
Copy OK

Track 8

Filename C:\Program Files (x86)\Exact Audio Copy\Flac\08. You Got The Stuff.wav

Pre-gap length 0:00:00.71

Peak level 98.4 %
Extraction speed 2.5 X
Track quality 100.0 %
Test CRC 34680319
Copy CRC 34680319
Accurately ripped (confidence 7) [ADE4BFBE] (AR v2)
Copy OK

Track 9

Filename C:\Program Files (x86)\Exact Audio Copy\Flac\09. All Because Of You.wav

Pre-gap length 0:00:00.61

Peak level 99.3 %
Extraction speed 2.5 X
Track quality 100.0 %
Test CRC 0EB10BC5
Copy CRC 0EB10BC5
Accurately ripped (confidence 7) [60ACDF9D] (AR v2)
Copy OK

Track 10

Filename C:\Program Files (x86)\Exact Audio Copy\Flac\10. Watching You Watching Me.wav

Pre-gap length 0:00:01.23

Peak level 99.3 %
Extraction speed 2.7 X
Track quality 100.0 %
Test CRC 730DAA1F
Copy CRC 730DAA1F
Accurately ripped (confidence 7) [DB56F460] (AR v2)
Copy OK

Track 11

Filename C:\Program Files (x86)\Exact Audio Copy\Flac\11. Something That Turns You On.wav

Pre-gap length 0:00:01.32

Peak level 99.3 %
Extraction speed 2.7 X
Track quality 100.0 %
Test CRC ACADB964
Copy CRC ACADB964
Accurately ripped (confidence 7) [55872928] (AR v2)
Copy OK

Track 12

Filename C:\Program Files (x86)\Exact Audio Copy\Flac\12. You Try To Find A Love.wav

Pre-gap length 0:00:00.69

Peak level 99.3 %
Extraction speed 2.6 X
Track quality 99.9 %
Test CRC 3527BB00
Copy CRC 3527BB00
Accurately ripped (confidence 7) [488E86A5] (AR v2)
Copy OK

Track 13

Filename C:\Program Files (x86)\Exact Audio Copy\Flac\13. Steppin' Right Along.wav

Pre-gap length 0:00:00.73

Peak level 99.3 %
Extraction speed 3.0 X
Track quality 100.0 %
Test CRC 4B9C932F
Copy CRC 4B9C932F
Accurately ripped (confidence 7) [93D1BB8F] (AR v2)
Copy OK

Track 14

Filename C:\Program Files (x86)\Exact Audio Copy\Flac\14. Heart In Your Life.wav

Pre-gap length 0:00:00.71

Peak level 99.3 %
Extraction speed 3.0 X
Track quality 100.0 %
Test CRC FA892090
Copy CRC FA892090
Accurately ripped (confidence 7) [9A7BC68A] (AR v2)
Copy OK

Track 15

Filename C:\Program Files (x86)\Exact Audio Copy\Flac\15. Oh Yeah!.wav

Pre-gap length 0:00:01.09

Peak level 99.3 %
Extraction speed 3.0 X
Track quality 100.0 %
Test CRC 4E63D909
Copy CRC 4E63D909
Accurately ripped (confidence 7) [FA25C401] (AR v2)
Copy OK


All tracks accurately ripped

No errors occurred

End of status report

–– CUETools DB Plugin V2.1.6

[CTDB TOCID: 3jHjNu3bTqLJt9p9TRdsoaG.zUU-] found
Submit result: 3jHjNu3bTqLJt9p9TRdsoaG.zUU- has been confirmed
Track | CTDB Status
1 | (19/19) Accurately ripped
2 | (19/19) Accurately ripped
3 | (19/19) Accurately ripped
4 | (19/19) Accurately ripped
5 | (19/19) Accurately ripped
6 | (19/19) Accurately ripped
7 | (19/19) Accurately ripped
8 | (19/19) Accurately ripped
9 | (19/19) Accurately ripped
10 | (19/19) Accurately ripped
11 | (19/19) Accurately ripped
12 | (19/19) Accurately ripped
13 | (19/19) Accurately ripped
14 | (19/19) Accurately ripped
15 | (19/19) Accurately ripped


==== Log checksum 3DA63BF170358561FAC2B868A0999D41A383B979A7B4A5DA5B3D434A2B8469CE ====


Tracklist:
Disc 1:
01. Ain't No Sunshine
02. Harlem
03. Everybody's Talkin'
04. Hope She'll Be Happier
05. Better Off Dead
06. In My Heart
07. Moanin' And Groanin'
08. Do It Good
90. Grandma's Hands
10. Let It Be
11. I'm Her Daddy
12. Sweet Wanomi
13. Kissing My Love
14. Another Day To Run
15. I Don't Know
16. Lonely Town, Lonely Street
17. I Don't Want You On My Mind
18. Let Me In Your Life
19. Who Is He (And What Is He To You)?
20. Take It All In And Check It All Out
21. Use Me

Disc 2:
01. Lean On Me
02. World Keeps Going Around
03. Let Us Love
04. Friend Of Mine
05. Ruby Lee
06. Green Grass
07. Heartbreak Road
08. The Same Love That Made Me Laugh
09. Make Love To Your Mind
10. I Wish You Well
11. Can We Pretend
12. Hello Like Before
13. Close To Me
14. My Imagination
15. Dreams
16. If I Didn't Mean You Well
17. Naked & Warm

Disc 3:
01. Lovely Day
02. I Want To Spend The Night
03. Tender Things
04. Let Me Be The One You Need
05. Lovely Night For Dancing
06. You
07. Don't It Make It Better
08. You Got The Stuff
09. All Because Of You
10. Watching You Watching Me
11. Something That Turns You On
12. You Try To Find A Love
13. Steppin' Right Along
14. Heart In Your Life
15. Oh Yeah!

Thanks to the original ripper