Subcategories

Billy Boy Arnold - The Blues Soul Of (2014)

Posted By: popsakov
Billy Boy Arnold - The Blues Soul Of (2014)

Billy Boy Arnold - The Blues Soul Of (2014)
EAC Rip | FLAC (Tracks) + Cue + m3u + Log ~ 409 Mb | MP3 CBR320 ~ 144 Mb
Full Scans ~ 62 Mb | 00:59:39 | RAR 5% Recovery
Chicago Blues, Harmonica Blues | Stony Plain Records #SPCD 1378

Billy Boy Arnold is one of the last of the legendary Chicago Blues harmonica players. In addition to his solo releases, he recorded with Bo Diddley in the Fifties and has been covered by David Bowie, The Yardbirds and The Blasters. Produced by Duke Robillard and backed by stellar musicians, including the Roomful Of Blues Horns, this release showcases a brilliant artist still in his prime. Billy Boy was inducted into the Blues Hall of Fame in 2013. "Billy Boy Arnold's talent as a songwriter, singer, harp master and blues historian is still in full swing and here, on this album, he demonstrates his flair and love for many different facets of the blues. This recording is surely a remarkable achievement." - Duke Robillard

***************

Track List:

01. Coal Man [2:51]
02. I'd Rather Drink Muddy Water [3:58]
03. You Give Me Nothing To Go On [3:34]
04. 99 Lbs [3:03]
05. A Mother's Prayer [3:07]
06. St. James Infirmary [4:31]
07. Don't Set Me Free [2:59]
08. What's On The Menu Mama [6:11]
09. Worried Dream [7:33]
10. Nadine (Is It You?) [3:22]
11. Work Song [4:25]
12. Dance For Me Baby [3:46]
13. Ain't That Just Like A Woman [4:13]
14. Keep On A Rubbing [6:05]

Personnel:
Billy Boy Arnold - vocals and harmonica,
Duke Robillard - guitars and background vocals,
Bruce Bears - piano and Hammond organ,
Brad Hallen - acoustic and electric bass,
Mark Teixeira - drums, background vocals,
Rich Lataille - alto and tenor sax,
Mark Earley - tenor and baritone sax,
Doug Woolverton - trumpet,
Anita Suhanin - background vocals
Jack Gauthier - background vocals
Producer, Liner Notes - Duke Robillard

Exact Audio Copy V1.1 from 23. June 2015

EAC extraction logfile from 22. July 2019, 15:21

Billy Boy Arnold / The Blues Soul Of Billy Boy Arnold

Used drive : HL-DT-STDVD-RAM GH22NP20 Adapter: 1 ID: 0

Read mode : Secure
Utilize accurate stream : Yes
Defeat audio cache : Yes
Make use of C2 pointers : No

Read offset correction : 102
Overread into Lead-In and Lead-Out : No
Fill up missing offset samples with silence : Yes
Delete leading and trailing silent blocks : No
Null samples used in CRC calculations : Yes
Used interface : Native Win32 interface for Win NT & 2000
Gap handling : Appended to previous track

Used output format : User Defined Encoder
Selected bitrate : 128 kBit/s
Quality : High
Add ID3 tag : No
Command line compressor : C:\Program Files\Exact Audio Copy\Flac\flac.exe
Additional command line options : -V -8 -T "Genre=%genre%" -T "Artist=%artist%" -T "Title=%title%" -T "Album=%albumtitle%" -T "Date=%year%" -T "Tracknumber=%tracknr%" -T "Comment=%comment%" %source%


TOC of the extracted CD

Track | Start | Length | Start sector | End sector
––––––––––––––––––––––––––––-
1 | 0:00.00 | 2:53.17 | 0 | 12991
2 | 2:53.17 | 3:58.72 | 12992 | 30913
3 | 6:52.14 | 3:36.02 | 30914 | 47115
4 | 10:28.16 | 3:05.34 | 47116 | 61024
5 | 13:33.50 | 3:09.06 | 61025 | 75205
6 | 16:42.56 | 4:33.34 | 75206 | 95714
7 | 21:16.15 | 3:01.32 | 95715 | 109321
8 | 24:17.47 | 6:13.05 | 109322 | 137301
9 | 30:30.52 | 7:34.70 | 137302 | 171421
10 | 38:05.47 | 3:23.52 | 171422 | 186698
11 | 41:29.24 | 4:27.19 | 186699 | 206742
12 | 45:56.43 | 3:47.63 | 206743 | 223830
13 | 49:44.31 | 4:15.04 | 223831 | 242959
14 | 53:59.35 | 6:04.39 | 242960 | 270298


Track 1

Filename E:\alexbras\2014 Billy Boy Arnold - The Blues Soul Of Billy Boy Arnold (Canada SPCD 1378)\01 Coal Man.wav

Pre-gap length 0:00:02.00

Peak level 98.3 %
Extraction speed 1.5 X
Track quality 100.0 %
Test CRC 8159F78E
Copy CRC 8159F78E
Accurately ripped (confidence 4) [86BC2333] (AR v2)
Copy OK

Track 2

Filename E:\alexbras\2014 Billy Boy Arnold - The Blues Soul Of Billy Boy Arnold (Canada SPCD 1378)\02 I'd Rather Drink Muddy Water.wav

Pre-gap length 0:00:01.74

Peak level 98.3 %
Extraction speed 1.7 X
Track quality 100.0 %
Test CRC 978BF5AF
Copy CRC 978BF5AF
Accurately ripped (confidence 4) [C3EB91EA] (AR v2)
Copy OK

Track 3

Filename E:\alexbras\2014 Billy Boy Arnold - The Blues Soul Of Billy Boy Arnold (Canada SPCD 1378)\03 You Give Me Nothing To Go On.wav

Pre-gap length 0:00:00.74

Peak level 98.3 %
Extraction speed 1.9 X
Track quality 100.0 %
Test CRC C8457CC9
Copy CRC C8457CC9
Accurately ripped (confidence 4) [DD915BE6] (AR v2)
Copy OK

Track 4

Filename E:\alexbras\2014 Billy Boy Arnold - The Blues Soul Of Billy Boy Arnold (Canada SPCD 1378)\04 99 Lbs.wav

Pre-gap length 0:00:01.74

Peak level 98.3 %
Extraction speed 2.0 X
Track quality 100.0 %
Test CRC 12EBFE03
Copy CRC 12EBFE03
Accurately ripped (confidence 4) [2CA25839] (AR v2)
Copy OK

Track 5

Filename E:\alexbras\2014 Billy Boy Arnold - The Blues Soul Of Billy Boy Arnold (Canada SPCD 1378)\05 A Mother's Prayer.wav

Pre-gap length 0:00:01.74

Peak level 98.3 %
Extraction speed 2.1 X
Track quality 100.0 %
Test CRC 4437D837
Copy CRC 4437D837
Accurately ripped (confidence 4) [5AAD2EF9] (AR v2)
Copy OK

Track 6

Filename E:\alexbras\2014 Billy Boy Arnold - The Blues Soul Of Billy Boy Arnold (Canada SPCD 1378)\06 St. James Infirmary.wav

Pre-gap length 0:00:01.74

Peak level 98.3 %
Extraction speed 2.3 X
Track quality 100.0 %
Test CRC 0D892607
Copy CRC 0D892607
Accurately ripped (confidence 4) [14CAD93C] (AR v2)
Copy OK

Track 7

Filename E:\alexbras\2014 Billy Boy Arnold - The Blues Soul Of Billy Boy Arnold (Canada SPCD 1378)\07 Don't Set Me Free.wav

Pre-gap length 0:00:01.74

Peak level 98.3 %
Extraction speed 2.3 X
Track quality 100.0 %
Test CRC 28E566FE
Copy CRC 28E566FE
Accurately ripped (confidence 4) [44130FB4] (AR v2)
Copy OK

Track 8

Filename E:\alexbras\2014 Billy Boy Arnold - The Blues Soul Of Billy Boy Arnold (Canada SPCD 1378)\08 What's On The Menu Mama.wav

Pre-gap length 0:00:01.74

Peak level 98.3 %
Extraction speed 2.6 X
Track quality 100.0 %
Test CRC 31C165AF
Copy CRC 31C165AF
Accurately ripped (confidence 4) [4E820B1D] (AR v2)
Copy OK

Track 9

Filename E:\alexbras\2014 Billy Boy Arnold - The Blues Soul Of Billy Boy Arnold (Canada SPCD 1378)\09 Worried Dream.wav

Pre-gap length 0:00:01.74

Peak level 98.3 %
Extraction speed 2.9 X
Track quality 100.0 %
Test CRC D1042337
Copy CRC D1042337
Accurately ripped (confidence 4) [AE2882A8] (AR v2)
Copy OK

Track 10

Filename E:\alexbras\2014 Billy Boy Arnold - The Blues Soul Of Billy Boy Arnold (Canada SPCD 1378)\10 Nadine (Is It You).wav

Pre-gap length 0:00:01.74

Peak level 98.3 %
Extraction speed 2.7 X
Track quality 100.0 %
Test CRC 32432427
Copy CRC 32432427
Accurately ripped (confidence 4) [413AFB1E] (AR v2)
Copy OK

Track 11

Filename E:\alexbras\2014 Billy Boy Arnold - The Blues Soul Of Billy Boy Arnold (Canada SPCD 1378)\11 Work Song.wav

Pre-gap length 0:00:01.74

Peak level 98.3 %
Extraction speed 2.6 X
Track quality 99.9 %
Test CRC 230EA56E
Copy CRC 230EA56E
Accurately ripped (confidence 4) [2B192ED5] (AR v2)
Copy OK

Track 12

Filename E:\alexbras\2014 Billy Boy Arnold - The Blues Soul Of Billy Boy Arnold (Canada SPCD 1378)\12 Dance For Me Baby.wav

Pre-gap length 0:00:01.74

Peak level 98.3 %
Extraction speed 3.0 X
Track quality 100.0 %
Test CRC A1672F86
Copy CRC A1672F86
Accurately ripped (confidence 4) [6B977A17] (AR v2)
Copy OK

Track 13

Filename E:\alexbras\2014 Billy Boy Arnold - The Blues Soul Of Billy Boy Arnold (Canada SPCD 1378)\13 Ain't That Just Like A Woman.wav

Pre-gap length 0:00:01.74

Peak level 98.3 %
Extraction speed 3.1 X
Track quality 100.0 %
Test CRC BEF9BCA6
Copy CRC BEF9BCA6
Accurately ripped (confidence 4) [8A8B11A8] (AR v2)
Copy OK

Track 14

Filename E:\alexbras\2014 Billy Boy Arnold - The Blues Soul Of Billy Boy Arnold (Canada SPCD 1378)\14 Keep On A Rubbing.wav

Pre-gap length 0:00:01.74

Peak level 98.3 %
Extraction speed 3.1 X
Track quality 99.9 %
Test CRC AB6D6313
Copy CRC AB6D6313
Accurately ripped (confidence 4) [484C48EB] (AR v2)
Copy OK


All tracks accurately ripped

No errors occurred

End of status report

==== Log checksum 565015F14BBFAAF7A7EF7C69391369B8229B96860ECF642CC1A0F1AD37D38D3D ====