Tags
Language
Tags

Billy Joel - Greatest Hits Volume I & Volume II: 1973-1985 (1985) 2CD [Re-Up]

Posted By: Designol
Billy Joel - Greatest Hits Volume I & Volume II: 1973-1985 (1985) 2CD [Re-Up]

Billy Joel - Greatest Hits Volume I & Volume II: 1973-1985 (1985) 2CD
EAC | FLAC | Image (Cue&Log) ~ 596 Mb | Mp3 (CBR320) ~ 252 Mb | Scans ~ 104 Mb
Classic Rock, Soft Rock, Pop Rock | Label: Columbia | # G2K 40121 | Time: 01:48:51

Although it's missing a few important (not to mention big) hits, Greatest Hits, Vols. 1 & 2 is an excellent retrospective of the first half of Billy Joel's career. Beginning with "Piano Man," the first disc runs through a number of early songs before arriving at the hit-making days of the late '70s; some of these songs, including "Captain Jack" and "New York State of Mind," weren't strictly hits, but were popular numbers within his stage show and became radio hits. Once the songs from The Stranger arrive halfway through the first disc, there's no stopping the hits (although "Scenes From an Italian Restaurant," an album track from The Stranger, manages its way onto the collection). In fact, over the next disc and a half, there's so many hits, it's inevitable that some are left off – to be specific, "Honesty," "Sometimes a Fantasy," "An Innocent Man," "Leave a Tender Moment," and "Keeping the Faith" aren't included. But all the other hits – including "Just the Way You Are," "Only the Good Die Young," "My Life," "You May Be Right," "It's Still Rock and Roll to Me," "Don't Ask Me Why," "Allentown," "Tell Her About It" and "Uptown Girl," among many others – are present and accounted for, as are two new songs ("You're Only Human (Second Wind)," "The Night Is Still Young") that became hits as well. In short, Greatest Hits, Vols. 1 & 2 does its job perfectly, encapsulating exactly why Billy Joel was one of the most popular singer/songwriters of the late '70s and early '80s.

Review by Stephen Thomas Erlewine, Allmusic.com

Billy Joel at Allmusic
Billy Joel Website
Billy Joel at Wiki

Tracklist:

CD1 - Greatest Hits Volume I, 1973-1977:

01. Piano Man (5:37)
02. Captain Jack (7:15)
03. The Entertainer (3:39)
04. Say Goodbye To Hollywood (3:55)
05. New York State Of Mind (6:03)
06. The Stranger (5:08)
07. Scenes From An Italian Restaurant (7:33)
08. Just the Way You Are (3:36)
09. Movin' Out (Anthony's Song) (3:28)
10. Only The Good Die Young (3:53)
11. She's Always A Woman (3:18)

CD2 - Greatest Hits Volume II, 1978-1985:

01. My Life (3:52)
02. Big Shot (3:44)
03. You May Be Right (4:09)
04. It's Still Rock And Roll To Me (2:55)
05. Don't Ask Me Why (2:57)
06. She's Got A Way (3:01)
07. Pressure (3:16)
08. Allentown (3:49)
09. Goodnight Saigon (7:00)
10. Tell Her About It (3:36)
11. Uptown Girl (3:15)
12. The Longest Time (3:36)
13. You're Only Human (Second Wind) (4:49)
14. The Night Is Still Young (5:29)


Exact Audio Copy V1.3 from 2. September 2016

EAC extraction logfile from 6. July 2018, 23:52

Billy Joel / Greatest Hits Volume I (G2K 40121)

Used drive : PLEXTOR DVDR PX-891SA Adapter: 1 ID: 0

Read mode : Secure
Utilize accurate stream : Yes
Defeat audio cache : Yes
Make use of C2 pointers : No

Read offset correction : 6
Overread into Lead-In and Lead-Out : No
Fill up missing offset samples with silence : Yes
Delete leading and trailing silent blocks : No
Null samples used in CRC calculations : Yes
Used interface : Native Win32 interface for Win NT & 2000

Used output format : User Defined Encoder
Selected bitrate : 768 kBit/s
Quality : High
Add ID3 tag : No
Command line compressor : C:\Program Files (x86)\Exact Audio Copy\Flac\flac.exe
Additional command line options : -V -8 -T "Genre=%genre%" -T "Artist=%artist%" -T "Title=%title%" -T "Album=%albumtitle%" -T "Date=%year%" -T "Tracknumber=%tracknr%" -T "Comment=%comment%" %source%


TOC of the extracted CD

Track | Start | Length | Start sector | End sector
––––––––––––––––––––––––––––-
1 | 0:00.00 | 5:36.65 | 0 | 25264
2 | 5:36.65 | 7:15.32 | 25265 | 57921
3 | 12:52.22 | 3:38.40 | 57922 | 74311
4 | 16:30.62 | 3:54.48 | 74312 | 91909
5 | 20:25.35 | 6:02.40 | 91910 | 119099
6 | 26:28.00 | 5:07.40 | 119100 | 142164
7 | 31:35.40 | 7:33.02 | 142165 | 176141
8 | 39:08.42 | 3:36.33 | 176142 | 192374
9 | 42:45.00 | 3:28.25 | 192375 | 207999
10 | 46:13.25 | 3:53.17 | 208000 | 225491
11 | 50:06.42 | 3:17.48 | 225492 | 240314


Range status and errors

Selected range

Filename H:\dafnaplus\Billy Joel - Greatest Hits Volume I & Volume II\Disc 1\Billy Joel - Greatest Hits Volume I (G2K 40121).wav

Peak level 100.0 %
Extraction speed 3.0 X
Range quality 99.9 %
Test CRC EFD1127D
Copy CRC EFD1127D
Copy OK

No errors occurred


AccurateRip summary

Track 1 accurately ripped (confidence 45) [0741B4AB] (AR v2)
Track 2 accurately ripped (confidence 46) [2C4B9E55] (AR v2)
Track 3 accurately ripped (confidence 47) [44B4B5F4] (AR v2)
Track 4 accurately ripped (confidence 47) [1E224E7B] (AR v2)
Track 5 accurately ripped (confidence 47) [F27599B6] (AR v2)
Track 6 accurately ripped (confidence 47) [79DDE323] (AR v2)
Track 7 accurately ripped (confidence 47) [705195BC] (AR v2)
Track 8 accurately ripped (confidence 46) [4FDA4488] (AR v2)
Track 9 accurately ripped (confidence 45) [0FFA6963] (AR v2)
Track 10 accurately ripped (confidence 45) [EB8D1545] (AR v2)
Track 11 accurately ripped (confidence 45) [D9F75A7B] (AR v2)

All tracks accurately ripped

End of status report

–– CUETools DB Plugin V2.1.6

[CTDB TOCID: DVqv32BTZ0Zu9F6BhbprZMyw7xk-] found
Submit result: DVqv32BTZ0Zu9F6BhbprZMyw7xk- has been confirmed, DVqv32BTZ0Zu9F6BhbprZMyw7xk- has been confirmed
Track | CTDB Status
1 | (2839/2860) Accurately ripped
2 | (2675/2860) Accurately ripped, or (161/2860) differs in 53 samples @00:39:47-00:39:48,04:02:20,04:11:58,04:50:06,05:30:28,05:41:72,06:47:24
3 | (2845/2860) Accurately ripped
4 | (2845/2860) Accurately ripped
5 | (2843/2860) Accurately ripped
6 | (2838/2860) Accurately ripped
7 | (2832/2860) Accurately ripped
8 | (2834/2860) Accurately ripped
9 | (2838/2860) Accurately ripped
10 | (2834/2860) Accurately ripped
11 | (2671/2860) Accurately ripped, or (161/2860) differs in 7510 samples @03:17:26-03:17:32


==== Log checksum A47D3D1700294466EDFDE44F43B3DB73257488E5A8A965488900FBD1083E4932 ====

[CUETools log; Date: 04.02.2020 19:41:42; Version: 2.1.4]
[CTDB TOCID: DVqv32BTZ0Zu9F6BhbprZMyw7xk-] found.
Track | CTDB Status
1 | (3998/4029) Accurately ripped
2 | (3773/4029) Accurately ripped, or (219/4029) differs in 53 samples @00:39:47-00:39:48,04:02:20,04:11:58,04:50:06,05:30:28,05:41:72,06:47:24
3 | (4007/4029) Accurately ripped
4 | (4008/4029) Accurately ripped
5 | (4008/4029) Accurately ripped
6 | (3999/4029) Accurately ripped
7 | (3991/4029) Accurately ripped
8 | (3994/4029) Accurately ripped
9 | (3993/4029) Accurately ripped
10 | (3994/4029) Accurately ripped
11 | (3774/4029) Accurately ripped, or (219/4029) differs in 7510 samples @03:17:26-03:17:32
[AccurateRip ID: 0017b266-00ca91a1-a80c840b] found.
Track [ CRC | V2 ] Status
01 [c6d97361|0741b4ab] (041+050/1761) Accurately ripped
02 [b6af2113|2c4b9e55] (043+051/1769) Accurately ripped
03 [8ba95734|44b4b5f4] (042+052/1773) Accurately ripped
04 [b8ca03d3|1e224e7b] (041+052/1765) Accurately ripped
05 [1019c4bb|f27599b6] (041+052/1770) Accurately ripped
06 [1b9b4d0f|79dde323] (041+052/1769) Accurately ripped
07 [cade731a|705195bc] (041+052/1756) Accurately ripped
08 [18a7157f|4fda4488] (040+051/1768) Accurately ripped
09 [0202203a|0ffa6963] (042+050/1762) Accurately ripped
10 [932bfbe4|eb8d1545] (042+050/1760) Accurately ripped
11 [c192278a|d9f75a7b] (037+050/1747) Accurately ripped
Offsetted by -950:
01 [b7ca60d8] (028/1761) Accurately ripped
02 [d5e28f59] (030/1769) Accurately ripped
03 [fe5bb9a3] (030/1773) Accurately ripped
04 [15ffbc0f] (030/1765) Accurately ripped
05 [35abc1fa] (030/1770) Accurately ripped
06 [c4d5d432] (030/1769) Accurately ripped
07 [900d6e55] (030/1756) Accurately ripped
08 [b7d4cf8b] (030/1768) Accurately ripped
09 [aa4a5eb8] (030/1762) Accurately ripped
10 [32f35dea] (031/1760) Accurately ripped
11 [c507d85e] (029/1747) Accurately ripped
Offsetted by -946:
01 [397a7e67] (002/1761) Accurately ripped
02 [d7a3647c] (002/1769) Accurately ripped
03 [3baf511a] (002/1773) Accurately ripped
04 [6843393a] (002/1765) Accurately ripped
05 [a1fe6a5e] (002/1770) Accurately ripped
06 [56145871] (002/1769) Accurately ripped
07 [485f806a] (002/1756) Accurately ripped
08 [93b9eea5] (002/1768) Accurately ripped
09 [65a736c8] (002/1762) Accurately ripped
10 [1d7bd95f] (002/1760) Accurately ripped
11 [8b03a063] (002/1747) Accurately ripped
Offsetted by -941:
01 [6e0e367c] (020/1761) Accurately ripped
02 [e0a2f04d] (021/1769) Accurately ripped
03 [07e0b944] (021/1773) Accurately ripped
04 [04f7126f] (021/1765) Accurately ripped
05 [fcc2a4e8] (021/1770) Accurately ripped
06 [171b348e] (020/1769) Accurately ripped
07 [cf398e74] (021/1756) Accurately ripped
08 [facf84d9] (021/1768) Accurately ripped
09 [deb28844] (021/1762) Accurately ripped
10 [0eb8248d] (021/1760) Accurately ripped
11 [4cc9b291] (021/1747) Accurately ripped
Offsetted by -940:
01 [54238c02] (007/1761) Accurately ripped
02 [e353a5e2] (007/1769) Accurately ripped
03 [3151cf34] (007/1773) Accurately ripped
04 [7bd5f88e] (007/1765) Accurately ripped
05 [fdf265b6] (007/1770) Accurately ripped
06 [a914d587] (007/1769) Accurately ripped
07 [d5a52695] (007/1756) Accurately ripped
08 [de986763] (007/1768) Accurately ripped
09 [fd9a0184] (007/1762) Accurately ripped
10 [69bd8aed] (007/1760) Accurately ripped
11 [3dbbe406] (007/1747) Accurately ripped
Offsetted by -938:
01 [e35c4e1c] (009/1761) Accurately ripped
02 [e6ad1117] (009/1769) Accurately ripped
03 [10c57ef4] (009/1773) Accurately ripped
04 [e03fa936] (009/1765) Accurately ripped
05 [187de787] (009/1770) Accurately ripped
06 [dfa0ce91] (010/1769) Accurately ripped
07 [2e40a50c] (009/1756) Accurately ripped
08 [4be7d19c] (010/1768) Accurately ripped
09 [dc48b6b9] (009/1762) Accurately ripped
10 [0e4393e6] (009/1760) Accurately ripped
11 [2c4d46bc] (010/1747) Accurately ripped
Offsetted by -799:
01 [31d1f1c7] (002/1761) Accurately ripped
02 [fd4309fd] (002/1769) Accurately ripped
03 [4630977e] (002/1773) Accurately ripped
04 [034c38aa] (002/1765) Accurately ripped
05 [c253f667] (002/1770) Accurately ripped
06 [60e678b7] (002/1769) Accurately ripped
07 [8207ad89] (002/1756) Accurately ripped
08 [1f48ffd6] (002/1768) Accurately ripped
09 [0d4847b7] (002/1762) Accurately ripped
10 [d238fef2] (002/1760) Accurately ripped
11 [64c14bee] (002/1747) Accurately ripped
Offsetted by -795:
01 [f56f393b] (006/1761) Accurately ripped
02 [12cedbcd] (006/1769) Accurately ripped
03 [cbb5cd22] (006/1773) Accurately ripped
04 [91f47a59] (006/1765) Accurately ripped
05 [30787c68] (006/1770) Accurately ripped
06 [09568cef] (006/1769) Accurately ripped
07 [b2294c93] (006/1756) Accurately ripped
08 [5ec88248] (006/1768) Accurately ripped
09 [a522d0af] (006/1762) Accurately ripped
10 [3679ef40] (006/1760) Accurately ripped
11 [da7bdcd1] (005/1747) Accurately ripped
Offsetted by -794:
01 [253813c0] (002/1761) Accurately ripped
02 [183d9036] (002/1769) Accurately ripped
03 [e1957ef0] (002/1773) Accurately ripped
04 [eee843d4] (002/1765) Accurately ripped
05 [7f6cf429] (002/1770) Accurately ripped
06 [9cbc1f07] (002/1769) Accurately ripped
07 [29518280] (002/1756) Accurately ripped
08 [9b73bdb0] (002/1768) Accurately ripped
09 [d35edd4d] (002/1762) Accurately ripped
10 [83352786] (002/1760) Accurately ripped
11 [c1460416] (002/1747) Accurately ripped
Offsetted by -47:
01 [bb242b4d] (139/1761) Accurately ripped
02 [cd5a37ec] (140/1769) Accurately ripped
03 [9fe9dba4] (140/1773) Accurately ripped
04 [25cc94f1] (143/1765) Accurately ripped
05 [4cce47c1] (142/1770) Accurately ripped
06 [2de0659f] (144/1769) Accurately ripped
07 [0c13f825] (139/1756) Accurately ripped
08 [8879a888] (143/1768) Accurately ripped
09 [0941b49d] (138/1762) Accurately ripped
10 [756a8b4c] (136/1760) Accurately ripped
11 [7dd50b7b] (136/1747) Accurately ripped
Offsetted by 2:
01 [5bcda85b] (040/1761) Accurately ripped
02 [dc859bf2] (041/1769) Accurately ripped
03 [ec8ab6a2] (041/1773) Accurately ripped
04 [aef23674] (039/1765) Accurately ripped
05 [e75344bb] (041/1770) Accurately ripped
06 [82560730] (041/1769) Accurately ripped
07 [2165ea8e] (040/1756) Accurately ripped
08 [8a922c03] (040/1768) Accurately ripped
09 [7bb16c99] (040/1762) Accurately ripped
10 [6176e975] (040/1760) Accurately ripped
11 [25d5008b] (037/1747) Accurately ripped
Offsetted by 75:
01 [dc2b23bb] (031/1761) Accurately ripped
02 [d74b0bc5] (031/1769) Accurately ripped
03 [0aa9b569] (032/1773) Accurately ripped
04 [1f420dd6] (031/1765) Accurately ripped
05 [306762fc] (032/1770) Accurately ripped
06 [e233bb0f] (032/1769) Accurately ripped
07 [ed1f0b7e] (032/1756) Accurately ripped
08 [3d7fe7c3] (032/1768) Accurately ripped
09 [8d0ea5a2] (032/1762) Accurately ripped
10 [41cda50f] (032/1760) Accurately ripped
11 [e7587d49] (032/1747) Accurately ripped
Offsetted by 150:
01 [37fc83a2] (169/1761) Accurately ripped
02 [13475aa9] (169/1769) Accurately ripped
03 [eb70c27e] (169/1773) Accurately ripped
04 [5bfa5bab] (171/1765) Accurately ripped
05 [52bc890a] (169/1770) Accurately ripped
06 [23e547bd] (169/1769) Accurately ripped
07 [b435ad16] (170/1756) Accurately ripped
08 [31e0503f] (171/1768) Accurately ripped
09 [5516135e] (171/1762) Accurately ripped
10 [809c19a5] (173/1760) Accurately ripped
11 [068f0669] (171/1747) Accurately ripped
Offsetted by 152:
01 [773faf70] (018/1761) Accurately ripped
02 [3dd2de21] (018/1769) Accurately ripped
03 [7d794a2e] (018/1773) Accurately ripped
04 [1ad38ec9] (017/1765) Accurately ripped
05 [35d1f9fb] (018/1770) Accurately ripped
06 [7ed9d62e] (018/1769) Accurately ripped
07 [a7e56ff3] (018/1756) Accurately ripped
08 [49ee0cfa] (017/1768) Accurately ripped
09 [301f8e73] (017/1762) Accurately ripped
10 [40fcf993] (019/1760) Accurately ripped
11 [3ab2cae2] (019/1747) Accurately ripped
Offsetted by 197:
01 [dbdec04c] (017/1761) Accurately ripped
02 [32872ba6] (017/1769) Accurately ripped
03 [d4ecd481] (017/1773) Accurately ripped
04 [c2102388] (017/1765) Accurately ripped
05 [eefaa74d] (017/1770) Accurately ripped
06 [d8335c67] (017/1769) Accurately ripped
07 [a1423684] (017/1756) Accurately ripped
08 [8031d0a5] (018/1768) Accurately ripped
09 [0135c4f4] (017/1762) Accurately ripped
10 [4939f18b] (017/1760) Accurately ripped
11 [809a09fa] (016/1747) Accurately ripped
Offsetted by 1378:
01 [a7a98f62] (002/1761) Accurately ripped
02 [ec12bcd8] (002/1769) Accurately ripped
03 [a5d4aee3] (002/1773) Accurately ripped
04 [2bd21367] (002/1765) Accurately ripped
05 [5f4d76c5] (002/1770) Accurately ripped
06 [ef0dbe8f] (002/1769) Accurately ripped
07 [0cf85a29] (002/1756) Accurately ripped
08 [a6621905] (002/1768) Accurately ripped
09 [349eefbe] (002/1762) Accurately ripped
10 [7e7352a3] (002/1760) Accurately ripped
11 [86d72ed1] (002/1747) Accurately ripped
Offsetted by 1517:
01 [ea621efd] (010/1761) Accurately ripped
02 [b3def76a] (010/1769) Accurately ripped
03 [2dd3fac6] (010/1773) Accurately ripped
04 [136213a1] (010/1765) Accurately ripped
05 [2c8fb8ca] (010/1770) Accurately ripped
06 [cf5ddfa3] (010/1769) Accurately ripped
07 [c9d5d3d2] (010/1756) Accurately ripped
08 [8465851d] (010/1768) Accurately ripped
09 [fce8f15c] (010/1762) Accurately ripped
10 [43b1ad6c] (010/1760) Accurately ripped
11 [68310b2e] (010/1747) Accurately ripped
Offsetted by 1547:
01 [ea26424e] (146/1761) Accurately ripped
02 [a612e02e] (148/1769) Accurately ripped
03 [d9868857] (148/1773) Accurately ripped
04 [9051f5cb] (145/1765) Accurately ripped
05 [f373002c] (145/1770) Accurately ripped
06 [b0b08ec4] (148/1769) Accurately ripped
07 [9ecaa038] (145/1756) Accurately ripped
08 [04a3aa99] (146/1768) Accurately ripped
09 [92531ed7] (143/1762) Accurately ripped
10 [3433243d] (147/1760) Accurately ripped
11 [465a7e65] (141/1747) Accurately ripped
Offsetted by -798:
01 [1d047af7] (000/1761) No match (V2 was not tested)
02 [029abe77] (000/1769) No match (V2 was not tested)
03 [500872b8] (000/1773) No match (V2 was not tested)
04 [60340234] (000/1765) No match (V2 was not tested)
05 [d24191d7] (000/1770) No match (V2 was not tested)
06 [5b2bfc23] (000/1769) No match (V2 was not tested)
07 [bdb4bc58] (000/1756) No match (V2 was not tested)
08 [5c9ae07a] (000/1768) No match (V2 was not tested)
09 [fbf7919b] (000/1762) No match (V2 was not tested)
10 [397091a0] (000/1760) No match (V2 was not tested)
11 [3f776696] (000/1747) No match (V2 was not tested)
Offsetted by -627:
01 [377ab26c] (002/1761) Accurately ripped
02 [999eb746] (002/1769) Accurately ripped
03 [de0c311b] (000/1773) No match (V2 was not tested)
04 [beb63d55] (000/1765) No match (V2 was not tested)
05 [5be49139] (002/1770) Accurately ripped
06 [4fd569bb] (002/1769) Accurately ripped
07 [87237ca6] (002/1756) Accurately ripped
08 [a4eeb55c] (002/1768) Accurately ripped
09 [b67fb6e2] (002/1762) Accurately ripped
10 [bf6721ab] (002/1760) Accurately ripped
11 [d2d44854] (002/1747) Accurately ripped
Offsetted by -582:
01 [302b3838] (000/1761) No match (V2 was not tested)
02 [b780b146] (000/1769) No match (V2 was not tested)
03 [58c98a8c] (000/1773) No match (V2 was not tested)
04 [0d7312ff] (000/1765) No match (V2 was not tested)
05 [f36797d8] (000/1770) No match (V2 was not tested)
06 [6ae36e28] (000/1769) No match (V2 was not tested)
07 [0b694708] (000/1756) No match (V2 was not tested)
08 [27bb2616] (000/1768) No match (V2 was not tested)
09 [471a9ea5] (000/1762) No match (V2 was not tested)
10 [d7f7cb77] (000/1760) No match (V2 was not tested)
11 [8186442e] (000/1747) No match (V2 was not tested)
Offsetted by -265:
01 [2f75dda3] (043/1761) Accurately ripped
02 [3d94907d] (000/1769) No match (V2 was not tested)
03 [f55ee549] (043/1773) Accurately ripped
04 [a164ce77] (042/1765) Accurately ripped
05 [1db6f0cb] (043/1770) Accurately ripped
06 [6e15861f] (043/1769) Accurately ripped
07 [2fd794ab] (042/1756) Accurately ripped
08 [34fca91e] (043/1768) Accurately ripped
09 [57a15dc8] (043/1762) Accurately ripped
10 [c3c7a2ca] (042/1760) Accurately ripped
11 [1a7a3e7f] (000/1747) No match (V2 was not tested)
Offsetted by -3:
01 [2607e378] (000/1761) No match (V2 was not tested)
02 [7f67e843] (000/1769) No match (V2 was not tested)
03 [85bdaf6d] (000/1773) No match (V2 was not tested)
04 [99da4573] (000/1765) No match (V2 was not tested)
05 [475b3d5b] (000/1770) No match (V2 was not tested)
06 [d60e3944] (000/1769) No match (V2 was not tested)
07 [215473c8] (000/1756) No match (V2 was not tested)
08 [21f3d6ba] (000/1768) No match (V2 was not tested)
09 [bb0a88b3] (000/1762) No match (V2 was not tested)
10 [9c645b59] (000/1760) No match
11 [d84e548c] (000/1747) No match
Offsetted by 6:
01 [55ea85f3] (000/1761) No match
02 [2f8b94d8] (000/1769) No match
03 [00bb67aa] (000/1773) No match
04 [62a6d296] (000/1765) No match
05 [f794c90f] (000/1770) No match
06 [535d4188] (000/1769) No match
07 [cd4e006a] (000/1756) No match
08 [149ba366] (000/1768) No match (V2 was not tested)
09 [a7764f55] (000/1762) No match
10 [ca276a42] (000/1760) No match
11 [d317be97] (000/1747) No match (V2 was not tested)
Offsetted by 238:
01 [d268e803] (000/1761) No match (V2 was not tested)
02 [ccf6c42c] (000/1769) No match (V2 was not tested)
03 [600ce415] (000/1773) No match (V2 was not tested)
04 [f0a24dad] (000/1765) No match (V2 was not tested)
05 [56aadd84] (000/1770) No match
06 [44ebf2e0] (000/1769) No match
07 [6eba1b10] (000/1756) No match
08 [e99a323d] (000/1768) No match
09 [1f74ebc4] (000/1762) No match
10 [2a6e7a7f] (000/1760) No match
11 [241b3917] (000/1747) No match
Offsetted by 250:
01 [3f1e0e54] (000/1761) No match
02 [e1ad18f5] (000/1769) No match
03 [e5a59c22] (000/1773) No match
04 [148c6c5f] (000/1765) No match
05 [129898ff] (000/1770) No match (V2 was not tested)
06 [577104f7] (000/1769) No match
07 [dec7b1e2] (000/1756) No match
08 [47fd47ee] (000/1768) No match
09 [85e6c4fa] (000/1762) No match
10 [ddfbaefa] (000/1760) No match
11 [22fcb144] (000/1747) No match
Offsetted by 684:
01 [320d227d] (024/1761) Accurately ripped
02 [e928ea5e] (000/1769) No match (V2 was not tested)
03 [195a3a7d] (025/1773) Accurately ripped
04 [8782b706] (025/1765) Accurately ripped
05 [69f3fcdd] (025/1770) Accurately ripped
06 [ca0d803f] (025/1769) Accurately ripped
07 [b9b12811] (025/1756) Accurately ripped
08 [e8d6ae89] (025/1768) Accurately ripped
09 [da14c8a5] (025/1762) Accurately ripped
10 [1c1043a0] (025/1760) Accurately ripped
11 [9de4048e] (000/1747) No match (V2 was not tested)

Track Peak [ CRC32 ] [W/O NULL] [ LOG ]
– 100,0 [EFD1127D] [43AB2989] CRC32
01 61,9 [BFE2D04C] [4BFC700B]
02 82,2 [3FF3F0A1] [571B96F2]
03 100,0 [E6075EA9] [F8DE2775]
04 82,5 [6E7188C0] [46CFC129]
05 100,0 [44DE2769] [3A934108]
06 97,2 [493F38B3] [E7612C9C]
07 88,2 [5ABCDC8E] [0DFB4D55]
08 98,4 [8695F6D3] [49AF56EF]
09 98,4 [3F429EC6] [D38EA680]
10 96,3 [B4A1B661] [4FE2D4D0]
11 56,1 [E3573C2A] [84EC7462]

foobar2000 1.3.16 / Dynamic Range Meter 1.1.1
log date: 2018-07-08 22:30:58

––––––––––––––––––––––––––––––––––––––––
Analyzed: Billy Joel / Greatest Hits Volume I (G2K 40121)
––––––––––––––––––––––––––––––––––––––––

DR Peak RMS Duration Track
––––––––––––––––––––––––––––––––––––––––
DR12 -4.15 dB -19.01 dB 5:37 01-Piano Man
DR12 -1.69 dB -18.50 dB 7:15 02-Captain Jack
DR14 0.00 dB -17.31 dB 3:39 03-The Entertainer
DR13 -1.67 dB -16.85 dB 3:55 04-Say Goodbye To Hollywood
DR15 0.00 dB -18.31 dB 6:03 05-New York State Of Mind
DR15 -0.24 dB -18.58 dB 5:08 06-The Stranger
DR14 -1.09 dB -18.36 dB 7:33 07-Scenes From An Italian Restaurant
DR16 -0.14 dB -19.43 dB 3:36 08-Just the Way You Are
DR14 -0.14 dB -17.03 dB 3:28 09-Movin' Out (Anthony's Song)
DR15 -0.32 dB -17.72 dB 3:53 10-Only The Good Die Young
DR12 -5.01 dB -20.12 dB 3:18 11-She's Always A Woman
––––––––––––––––––––––––––––––––––––––––

Number of tracks: 11
Official DR value: DR14

Samplerate: 44100 Hz
Channels: 2
Bits per sample: 16
Bitrate: 746 kbps
Codec: FLAC
================================================================================


Exact Audio Copy V1.3 from 2. September 2016

EAC extraction logfile from 7. July 2018, 8:47

Billy Joel / Greatest Hits Volume II (G2K 40121)

Used drive : PLEXTOR DVDR PX-891SA Adapter: 1 ID: 0

Read mode : Secure
Utilize accurate stream : Yes
Defeat audio cache : Yes
Make use of C2 pointers : No

Read offset correction : 6
Overread into Lead-In and Lead-Out : No
Fill up missing offset samples with silence : Yes
Delete leading and trailing silent blocks : No
Null samples used in CRC calculations : Yes
Used interface : Native Win32 interface for Win NT & 2000

Used output format : User Defined Encoder
Selected bitrate : 768 kBit/s
Quality : High
Add ID3 tag : No
Command line compressor : C:\Program Files (x86)\Exact Audio Copy\Flac\flac.exe
Additional command line options : -V -8 -T "Genre=%genre%" -T "Artist=%artist%" -T "Title=%title%" -T "Album=%albumtitle%" -T "Date=%year%" -T "Tracknumber=%tracknr%" -T "Comment=%comment%" %source%


TOC of the extracted CD

Track | Start | Length | Start sector | End sector
––––––––––––––––––––––––––––-
1 | 0:00.00 | 3:51.70 | 0 | 17394
2 | 3:51.70 | 3:43.65 | 17395 | 34184
3 | 7:35.60 | 4:09.37 | 34185 | 52896
4 | 11:45.22 | 2:54.58 | 52897 | 66004
5 | 14:40.05 | 2:57.00 | 66005 | 79279
6 | 17:37.05 | 3:00.47 | 79280 | 92826
7 | 20:37.52 | 3:15.45 | 92827 | 107496
8 | 23:53.22 | 3:48.70 | 107497 | 124666
9 | 27:42.17 | 7:00.03 | 124667 | 156169
10 | 34:42.20 | 3:35.45 | 156170 | 172339
11 | 38:17.65 | 3:15.07 | 172340 | 186971
12 | 41:32.72 | 3:36.03 | 186972 | 203174
13 | 45:09.00 | 4:48.47 | 203175 | 224821
14 | 49:57.47 | 5:28.68 | 224822 | 249489


Range status and errors

Selected range

Filename H:\dafnaplus\Billy Joel - Greatest Hits Volume I & Volume II\Disc 2\Billy Joel - Greatest Hits Volume II (G2K 40121).wav

Peak level 100.0 %
Extraction speed 8.5 X
Range quality 100.0 %
Test CRC 79F6DE58
Copy CRC 79F6DE58
Copy OK

No errors occurred


AccurateRip summary

Track 1 accurately ripped (confidence 25) [6CE70BB6] (AR v2)
Track 2 accurately ripped (confidence 25) [D5CE4C98] (AR v2)
Track 3 accurately ripped (confidence 25) [C63891A6] (AR v2)
Track 4 accurately ripped (confidence 25) [1F3B2441] (AR v2)
Track 5 accurately ripped (confidence 25) [947613BA] (AR v2)
Track 6 accurately ripped (confidence 25) [1385189A] (AR v2)
Track 7 accurately ripped (confidence 25) [D84AE987] (AR v2)
Track 8 accurately ripped (confidence 25) [24A317EF] (AR v2)
Track 9 accurately ripped (confidence 25) [2AC3796C] (AR v2)
Track 10 accurately ripped (confidence 25) [BDDFF27D] (AR v2)
Track 11 accurately ripped (confidence 25) [70F3FCF0] (AR v2)
Track 12 accurately ripped (confidence 25) [AA39456C] (AR v2)
Track 13 accurately ripped (confidence 25) [33668C94] (AR v2)
Track 14 accurately ripped (confidence 25) [FEA9C608] (AR v2)

All tracks accurately ripped

End of status report

–– CUETools DB Plugin V2.1.6

[CTDB TOCID: 5nqHoBWUFy3pvlnNeA1xCoZb6Jg-] found
Submit result: 5nqHoBWUFy3pvlnNeA1xCoZb6Jg- has been confirmed
Track | CTDB Status
1 | (667/672) Accurately ripped
2 | (669/672) Accurately ripped
3 | (670/672) Accurately ripped
4 | (663/672) Accurately ripped
5 | (665/672) Accurately ripped
6 | (669/672) Accurately ripped
7 | (668/672) Accurately ripped
8 | (667/672) Accurately ripped
9 | (663/672) Accurately ripped
10 | (668/672) Accurately ripped
11 | (666/672) Accurately ripped
12 | (664/672) Accurately ripped
13 | (664/672) Accurately ripped
14 | (657/672) Accurately ripped


==== Log checksum 0D360E861455EA6761EEA6C7CF186AD33E50FF1BE607DAF3C683D4220690997C ====

[CUETools log; Date: 04.02.2020 19:42:08; Version: 2.1.4]
[CTDB TOCID: 5nqHoBWUFy3pvlnNeA1xCoZb6Jg-] found.
Track | CTDB Status
1 | (942/950) Accurately ripped
2 | (944/950) Accurately ripped
3 | (945/950) Accurately ripped
4 | (938/950) Accurately ripped
5 | (942/950) Accurately ripped
6 | (945/950) Accurately ripped
7 | (945/950) Accurately ripped
8 | (944/950) Accurately ripped
9 | (939/950) Accurately ripped
10 | (945/950) Accurately ripped
11 | (943/950) Accurately ripped
12 | (942/950) Accurately ripped
13 | (940/950) Accurately ripped
14 | (932/950) Accurately ripped
[AccurateRip ID: 001af92a-01223394-d50cfe0e] found.
Track [ CRC | V2 ] Status
01 [c0d048b8|6ce70bb6] (023+027/813) Accurately ripped
02 [98643fe5|d5ce4c98] (023+027/812) Accurately ripped
03 [7a6de13b|c63891a6] (024+027/823) Accurately ripped
04 [6c130b2d|1f3b2441] (023+027/823) Accurately ripped
05 [8e04d75c|947613ba] (024+027/820) Accurately ripped
06 [f2da7e96|1385189a] (023+027/815) Accurately ripped
07 [ba454e3a|d84ae987] (023+027/821) Accurately ripped
08 [3435746c|24a317ef] (021+027/822) Accurately ripped
09 [dba239ed|2ac3796c] (021+027/807) Accurately ripped
10 [cdb795ed|bddff27d] (024+027/816) Accurately ripped
11 [f8597707|70f3fcf0] (025+027/818) Accurately ripped
12 [aebd7b3c|aa39456c] (022+027/819) Accurately ripped
13 [a7e7f705|33668c94] (022+027/817) Accurately ripped
14 [3faa69fe|fea9c608] (019+027/788) Accurately ripped
Offsetted by -2195:
01 [2851691e] (013/813) Accurately ripped
02 [c9491683] (013/812) Accurately ripped
03 [4e2a5eac] (014/823) Accurately ripped
04 [aa6ca38e] (014/823) Accurately ripped
05 [5701d460] (013/820) Accurately ripped
06 [40e52a47] (013/815) Accurately ripped
07 [d602fe20] (013/821) Accurately ripped
08 [ab947e90] (014/822) Accurately ripped
09 [7bcba836] (014/807) Accurately ripped
10 [c85d5107] (014/816) Accurately ripped
11 [84c4fabe] (014/818) Accurately ripped
12 [fbe0e317] (014/819) Accurately ripped
13 [7fca565d] (014/817) Accurately ripped
14 [246293a9] (013/788) Accurately ripped
Offsetted by -2194:
01 [dddfc1cf] (012/813) Accurately ripped
02 [825f8425] (012/812) Accurately ripped
03 [2d356f6c] (012/823) Accurately ripped
04 [18c223e1] (012/823) Accurately ripped
05 [31709d63] (012/820) Accurately ripped
06 [e6c07db3] (012/815) Accurately ripped
07 [78c4b351] (012/821) Accurately ripped
08 [a6fddb13] (012/822) Accurately ripped
09 [77aa0955] (012/807) Accurately ripped
10 [aefebb7e] (012/816) Accurately ripped
11 [a40ab9c9] (012/818) Accurately ripped
12 [289c0003] (012/819) Accurately ripped
13 [5ee60c23] (012/817) Accurately ripped
14 [2a2ecdac] (012/788) Accurately ripped
Offsetted by -2188:
01 [7ce453ea] (004/813) Accurately ripped
02 [e8ef8345] (004/812) Accurately ripped
03 [bd98f0cb] (004/823) Accurately ripped
04 [952f9365] (004/823) Accurately ripped
05 [ff383923] (004/820) Accurately ripped
06 [2453ce87] (004/815) Accurately ripped
07 [a1bdecfc] (004/821) Accurately ripped
08 [067c1066] (004/822) Accurately ripped
09 [1f202acc] (004/807) Accurately ripped
10 [a86b8b51] (004/816) Accurately ripped
11 [bdd4f5ec] (004/818) Accurately ripped
12 [f2406bce] (004/819) Accurately ripped
13 [b7a54eac] (004/817) Accurately ripped
14 [fa429a67] (004/788) Accurately ripped
Offsetted by -1387:
01 [6a13c2dd] (032/813) Accurately ripped
02 [4469c49f] (032/812) Accurately ripped
03 [4e3f5da5] (032/823) Accurately ripped
04 [f7c4ff0f] (032/823) Accurately ripped
05 [b09708aa] (032/820) Accurately ripped
06 [4c1ab2e0] (033/815) Accurately ripped
07 [57230fc7] (032/821) Accurately ripped
08 [3e8f90d0] (032/822) Accurately ripped
09 [e845ceb5] (030/807) Accurately ripped
10 [d2dabd25] (030/816) Accurately ripped
11 [42b02e8c] (030/818) Accurately ripped
12 [184b7016] (032/819) Accurately ripped
13 [3b547fce] (031/817) Accurately ripped
14 [c61bcd8a] (029/788) Accurately ripped
Offsetted by -1245:
01 [a31bb230] (030/813) Accurately ripped
02 [f12ce87c] (030/812) Accurately ripped
03 [82e85383] (030/823) Accurately ripped
04 [f3dfc34e] (030/823) Accurately ripped
05 [7ead264f] (030/820) Accurately ripped
06 [b3f5c419] (029/815) Accurately ripped
07 [43034263] (030/821) Accurately ripped
08 [5df38d64] (030/822) Accurately ripped
09 [2710d9f8] (030/807) Accurately ripped
10 [463f1aac] (030/816) Accurately ripped
11 [0acb323d] (030/818) Accurately ripped
12 [43c6ad24] (030/819) Accurately ripped
13 [a08529c7] (030/817) Accurately ripped
14 [4e9ff2d5] (028/788) Accurately ripped
Offsetted by -1243:
01 [9682f81d] (003/813) Accurately ripped
02 [b7bc8ae7] (003/812) Accurately ripped
03 [7673ec36] (003/823) Accurately ripped
04 [590539f4] (004/823) Accurately ripped
05 [55106293] (003/820) Accurately ripped
06 [d264fafa] (003/815) Accurately ripped
07 [5713fdd8] (003/821) Accurately ripped
08 [23fc9050] (003/822) Accurately ripped
09 [f330cc36] (003/807) Accurately ripped
10 [9d4580e9] (004/816) Accurately ripped
11 [cd7eba70] (004/818) Accurately ripped
12 [2611dc30] (004/819) Accurately ripped
13 [e8b24266] (003/817) Accurately ripped
14 [ab92e3de] (002/788) Accurately ripped
Offsetted by -386:
01 [8ff4d589] (047/813) Accurately ripped
02 [e7b1a3ce] (047/812) Accurately ripped
03 [1ad06f6a] (047/823) Accurately ripped
04 [5693f084] (047/823) Accurately ripped
05 [499985cf] (047/820) Accurately ripped
06 [99c8acd4] (047/815) Accurately ripped
07 [99f4f145] (048/821) Accurately ripped
08 [be5298ed] (047/822) Accurately ripped
09 [5d18ba57] (048/807) Accurately ripped
10 [6eab7a94] (048/816) Accurately ripped
11 [d282f8a6] (047/818) Accurately ripped
12 [ebd94c53] (047/819) Accurately ripped
13 [e54bc601] (047/817) Accurately ripped
14 [1f423f10] (044/788) Accurately ripped
Offsetted by -342:
01 [f1e909e5] (007/813) Accurately ripped
02 [d6a27682] (007/812) Accurately ripped
03 [2882145c] (007/823) Accurately ripped
04 [57701271] (007/823) Accurately ripped
05 [4cc4a1a8] (007/820) Accurately ripped
06 [09b6fa95] (007/815) Accurately ripped
07 [2c65a8ff] (007/821) Accurately ripped
08 [1c24f8f0] (007/822) Accurately ripped
09 [836b2788] (007/807) Accurately ripped
10 [4a616730] (007/816) Accurately ripped
11 [698864c9] (007/818) Accurately ripped
12 [1337f903] (007/819) Accurately ripped
13 [fefda7c5] (007/817) Accurately ripped
14 [29bc240c] (007/788) Accurately ripped
Offsetted by -296:
01 [d022fe35] (033/813) Accurately ripped
02 [3dcd99ab] (033/812) Accurately ripped
03 [b5fe7c23] (033/823) Accurately ripped
04 [1a78ce51] (033/823) Accurately ripped
05 [eec6ff26] (033/820) Accurately ripped
06 [28845114] (033/815) Accurately ripped
07 [47d03c02] (033/821) Accurately ripped
08 [ab4b26f9] (033/822) Accurately ripped
09 [bd1e8619] (033/807) Accurately ripped
10 [38796c47] (033/816) Accurately ripped
11 [9fae32dc] (033/818) Accurately ripped
12 [df458214] (033/819) Accurately ripped
13 [f51fad66] (032/817) Accurately ripped
14 [923b7f18] (033/788) Accurately ripped
Offsetted by -291:
01 [e85b6fdc] (044/813) Accurately ripped
02 [92099466] (043/812) Accurately ripped
03 [ba6afdd5] (045/823) Accurately ripped
04 [5a688e47] (046/823) Accurately ripped
05 [157f637e] (046/820) Accurately ripped
06 [4386383e] (044/815) Accurately ripped
07 [529facac] (046/821) Accurately ripped
08 [79a357a1] (045/822) Accurately ripped
09 [85da9e47] (042/807) Accurately ripped
10 [4871a089] (043/816) Accurately ripped
11 [c8a6658a] (046/818) Accurately ripped
12 [14413529] (047/819) Accurately ripped
13 [7bc9f24b] (045/817) Accurately ripped
14 [ae81eec8] (042/788) Accurately ripped
Offsetted by -227:
01 [c96bb154] (035/813) Accurately ripped
02 [4559c098] (034/812) Accurately ripped
03 [a3efaf8b] (035/823) Accurately ripped
04 [4156d8c1] (035/823) Accurately ripped
05 [05e6bb22] (035/820) Accurately ripped
06 [2145cfa7] (035/815) Accurately ripped
07 [4dbbe102] (035/821) Accurately ripped
08 [0515a6fa] (035/822) Accurately ripped
09 [d681e3b8] (035/807) Accurately ripped
10 [f489cc2c] (035/816) Accurately ripped
11 [34fb58c5] (035/818) Accurately ripped
12 [6a2467b8] (034/819) Accurately ripped
13 [618c88dc] (035/817) Accurately ripped
14 [452d0337] (035/788) Accurately ripped
Offsetted by -36:
01 [5dbb5ee2] (011/813) Accurately ripped
02 [220fb149] (011/812) Accurately ripped
03 [aa34bb4c] (011/823) Accurately ripped
04 [121e1f8e] (011/823) Accurately ripped
05 [97fb271c] (011/820) Accurately ripped
06 [e3747203] (011/815) Accurately ripped
07 [d0dee3dc] (011/821) Accurately ripped
08 [e9e064be] (011/822) Accurately ripped
09 [6a28d752] (011/807) Accurately ripped
10 [71036db3] (011/816) Accurately ripped
11 [ee8b8b7c] (011/818) Accurately ripped
12 [7fcf493b] (011/819) Accurately ripped
13 [4434766e] (011/817) Accurately ripped
14 [afb51179] (009/788) Accurately ripped
Offsetted by 128:
01 [44c82752] (064/813) Accurately ripped
02 [0ea9ec91] (065/812) Accurately ripped
03 [446beb09] (066/823) Accurately ripped
04 [acc4316d] (066/823) Accurately ripped
05 [9c3df885] (066/820) Accurately ripped
06 [1f91df9f] (065/815) Accurately ripped
07 [e69db16c] (064/821) Accurately ripped
08 [a81ae17c] (067/822) Accurately ripped
09 [268f51d1] (065/807) Accurately ripped
10 [b6ed6358] (066/816) Accurately ripped
11 [a6e76e8d] (066/818) Accurately ripped
12 [faf14043] (066/819) Accurately ripped
13 [fa64c024] (067/817) Accurately ripped
14 [6ac15b14] (061/788) Accurately ripped
Offsetted by -2192:
01 [7fd6852f] (000/813) No match (V2 was not tested)
02 [3bd471bd] (000/812) No match (V2 was not tested)
03 [cfc2572b] (000/823) No match (V2 was not tested)
04 [5145bff2] (000/823) No match (V2 was not tested)
05 [caef147d] (000/820) No match (V2 was not tested)
06 [be1c247d] (000/815) No match (V2 was not tested)
07 [cfcec3cc] (000/821) No match (V2 was not tested)
08 [3260864f] (000/822) No match (V2 was not tested)
09 [081b255a] (000/807) No match (V2 was not tested)
10 [a5cba4c9] (000/816) No match (V2 was not tested)
11 [334837ff] (000/818) No match (V2 was not tested)
12 [80f7794c] (000/819) No match (V2 was not tested)
13 [aaab06c5] (000/817) No match (V2 was not tested)
14 [c57441bc] (000/788) No match (V2 was not tested)
Offsetted by -1386:
01 [6b4f4b03] (000/813) No match (V2 was not tested)
02 [2aa1236c] (000/812) No match (V2 was not tested)
03 [2adb77f9] (000/823) No match (V2 was not tested)
04 [6f037cc8] (000/823) No match (V2 was not tested)
05 [b9c3f4da] (000/820) No match (V2 was not tested)
06 [5c1efb3d] (000/815) No match (V2 was not tested)
07 [0c08b0c6] (000/821) No match (V2 was not tested)
08 [1388ccde] (000/822) No match (V2 was not tested)
09 [7fce65bc] (000/807) No match (V2 was not tested)
10 [f47ab06e] (000/816) No match (V2 was not tested)
11 [4756a35e] (000/818) No match (V2 was not tested)
12 [5cb8c7cd] (000/819) No match (V2 was not tested)
13 [a3d97db9] (000/817) No match (V2 was not tested)
14 [177f004c] (000/788) No match (V2 was not tested)
Offsetted by -1246:
01 [17c92142] (000/813) No match (V2 was not tested)
02 [aa6ee062] (000/812) No match (V2 was not tested)
03 [a6f85bcc] (000/823) No match (V2 was not tested)
04 [29f7ec8b] (000/823) No match (V2 was not tested)
05 [9436b0b4] (000/820) No match (V2 was not tested)
06 [a4faee8d] (000/815) No match (V2 was not tested)
07 [f2470727] (000/821) No match (V2 was not tested)
08 [66b48546] (000/822) No match (V2 was not tested)
09 [93a98da4] (000/807) No match (V2 was not tested)
10 [10836787] (000/816) No match (V2 was not tested)
11 [95879219] (000/818) No match (V2 was not tested)
12 [6270b55b] (000/819) No match (V2 was not tested)
13 [6c3748ca] (000/817) No match (V2 was not tested)
14 [43323279] (000/788) No match (V2 was not tested)
Offsetted by -1242:
01 [34679af7] (000/813) No match (V2 was not tested)
02 [ecb7379f] (000/812) No match (V2 was not tested)
03 [53abaa13] (000/823) No match (V2 was not tested)
04 [22dc10b9] (000/823) No match (V2 was not tested)
05 [4175443c] (000/820) No match (V2 was not tested)
06 [6d23d08e] (000/815) No match (V2 was not tested)
07 [a2730179] (000/821) No match (V2 was not tested)
08 [1c0ba5c7] (000/822) No match (V2 was not tested)
09 [2f37657b] (000/807) No match (V2 was not tested)
10 [e7813401] (000/816) No match (V2 was not tested)
11 [fa6712bf] (000/818) No match (V2 was not tested)
12 [c7e3d3fc] (000/819) No match (V2 was not tested)
13 [1c45eaf0] (000/817) No match (V2 was not tested)
14 [fed4a433] (000/788) No match (V2 was not tested)
Offsetted by 134:
01 [f47a1abf] (000/813) No match (V2 was not tested)
02 [147f731e] (000/812) No match (V2 was not tested)
03 [60a49bf8] (000/823) No match (V2 was not tested)
04 [d0b2b306] (000/823) No match (V2 was not tested)
05 [1f43397c] (000/820) No match (V2 was not tested)
06 [5e0addea] (000/815) No match (V2 was not tested)
07 [df707a3e] (000/821) No match (V2 was not tested)
08 [8b7b2bf0] (000/822) No match (V2 was not tested)
09 [e234681e] (000/807) No match (V2 was not tested)
10 [655f68cc] (000/816) No match (V2 was not tested)
11 [c69d67b4] (000/818) No match (V2 was not tested)
12 [9e3f95bf] (000/819) No match (V2 was not tested)
13 [452a8e55] (000/817) No match (V2 was not tested)
14 [84891aa4] (000/788) No match (V2 was not tested)

Track Peak [ CRC32 ] [W/O NULL] [ LOG ]
– 100,0 [79F6DE58] [C002F97B] CRC32
01 85,4 [AFAA4AB6] [B0ACD3E6]
02 69,1 [41BA952A] [87F8183B]
03 82,0 [50703597] [766F4AC7]
04 100,0 [5D67ECD6] [0423B65A]
05 86,4 [DB91A716] [886F86D9]
06 54,1 [3738ED53] [6C7DB539]
07 94,0 [2A604FB3] [E2B8CF57]
08 89,9 [E0919A6E] [7F2B4D4F]
09 100,0 [2FF0F507] [480CE3AE]
10 98,3 [D57E56BF] [50B0B062]
11 100,0 [2573051E] [BBFA1261]
12 66,0 [997D7F6B] [84B39F69]
13 100,0 [C9CB2A71] [5432253E]
14 100,0 [B3A8F52B] [FEDBA458]

foobar2000 1.3.16 / Dynamic Range Meter 1.1.1
log date: 2018-07-08 22:32:27

––––––––––––––––––––––––––––––––––––––––
Analyzed: Billy Joel / Greatest Hits Volume II (G2K 40121)
––––––––––––––––––––––––––––––––––––––––

DR Peak RMS Duration Track
––––––––––––––––––––––––––––––––––––––––
DR15 -1.37 dB -18.03 dB 3:52 01-My Life
DR14 -3.20 dB -19.30 dB 3:44 02-Big Shot
DR13 -1.71 dB -17.23 dB 4:09 03-You May Be Right
DR15 0.00 dB -17.70 dB 2:55 04-It's Still Rock And Roll To Me
DR15 -1.26 dB -18.34 dB 2:57 05-Don't Ask Me Why
DR14 -5.32 dB -24.37 dB 3:01 06-She's Got A Way
DR14 -0.53 dB -16.93 dB 3:16 07-Pressure
DR16 -0.92 dB -18.61 dB 3:49 08-Allentown
DR17 0.00 dB -22.21 dB 7:00 09-Goodnight Saigon
DR15 -0.15 dB -17.14 dB 3:36 10-Tell Her About It
DR15 0.00 dB -16.37 dB 3:15 11-Uptown Girl
DR14 -3.60 dB -20.13 dB 3:36 12-The Longest Time
DR15 0.00 dB -16.81 dB 4:49 13-You're Only Human (Second Wind)
DR14 0.00 dB -17.62 dB 5:29 14-The Night Is Still Young
––––––––––––––––––––––––––––––––––––––––

Number of tracks: 14
Official DR value: DR15

Samplerate: 44100 Hz
Channels: 2
Bits per sample: 16
Bitrate: 777 kbps
Codec: FLAC
================================================================================

Billy Joel - Greatest Hits Volume I & Volume II: 1973-1985 (1985) 2CD [Re-Up]

Billy Joel - Greatest Hits Volume I & Volume II: 1973-1985 (1985) 2CD [Re-Up]

All thanks to original releaser - dafnaplus

More interesting music in My Blog