Subcategories

Billy Joel - Greatest Hits Volume I & Volume II (1985) [2017, MFSL]

Posted By: v3122
Billy Joel - Greatest Hits Volume I & Volume II (1985) [2017, MFSL]

Billy Joel - Greatest Hits Volume I & Volume II (1985)
EAC | Flac(Image) + Cue + Log & MP3 CBR 320Kbps
2CD | MFSL, UDSACD 2-2121 | ~ 688 or 285 Mb | Scans(png) -> 389 Mb
Pop Rock / Ballad / Classic Rock

Although it's missing a few important (not to mention big) hits, Greatest Hits, Vols. 1 & 2 is an excellent retrospective of the first half of Billy Joel's career. Beginning with "Piano Man," the first disc runs through a number of early songs before arriving at the hit-making days of the late '70s; some of these songs, including "Captain Jack" and "New York State of Mind," weren't strictly hits, but were popular numbers within his stage show and became radio hits. Once the songs from The Stranger arrive halfway through the first disc, there's no stopping the hits (although "Scenes From an Italian Restaurant," an album track from The Stranger, manages its way onto the collection). In fact, over the next disc and a half, there's so many hits, it's inevitable that some are left off – to be specific, "Honesty," "Sometimes a Fantasy," "An Innocent Man," "Leave a Tender Moment," and "Keeping the Faith" aren't included. But all the other hits – including "Just the Way You Are," "Only the Good Die Young," "My Life," "You May Be Right," "It's Still Rock and Roll to Me," "Don't Ask Me Why," "Allentown," "Tell Her About It" and "Uptown Girl," among many others – are present and accounted for, as are two new songs ("You're Only Human (Second Wind)," "The Night Is Still Young") that became hits as well. In short, Greatest Hits, Vols. 1 & 2 does its job perfectly, encapsulating exactly why Billy Joel was one of the most popular singer/songwriters of the late '70s and early '80s.

by Stephen Thomas Erlewine, allmusic
Billy Joel - Greatest Hits Volume I & Volume II (1985):

Billy Joel - Greatest Hits Volume I & Volume II (1985) [2017, MFSL]

Tracklist CD1 - Volume I:

01 Piano Man
02 Captain Jack
03 The Entertainer
04 Say Goodbye To Hollywood
05 New York State Of Mind
06 The Stranger
07 Scenes From An Italian Restaurant
08 Just The Way You Are
09 Movin' Out (Anthony's Song)
10 Only The Good Die Young
11 She's Always A Woman

Exact Audio Copy V1.3 from 2. September 2016

EAC extraction logfile from 27. September 2017, 10:33

Billy Joel / Greatest Hits MFSL I

Used drive : PLEXTOR BD-R PX-B950SA Adapter: 1 ID: 1

Read mode : Secure
Utilize accurate stream : Yes
Defeat audio cache : Yes
Make use of C2 pointers : No

Read offset correction : 6
Overread into Lead-In and Lead-Out : No
Fill up missing offset samples with silence : Yes
Delete leading and trailing silent blocks : No
Null samples used in CRC calculations : Yes
Used interface : Native Win32 interface for Win NT & 2000

Used output format : Internal WAV Routines
Sample format : 44.100 Hz; 16 Bit; Stereo


TOC of the extracted CD

Track | Start | Length | Start sector | End sector
––––––––––––––––––––––––––––-
1 | 0:00.00 | 5:40.01 | 0 | 25500
2 | 5:40.01 | 7:01.12 | 25501 | 57087
3 | 12:41.13 | 3:42.11 | 57088 | 73748
4 | 16:23.24 | 4:39.43 | 73749 | 94716
5 | 21:02.67 | 6:06.29 | 94717 | 122195
6 | 27:09.21 | 5:10.10 | 122196 | 145455
7 | 32:19.31 | 7:36.06 | 145456 | 179661
8 | 39:55.37 | 4:52.14 | 179662 | 201575
9 | 44:47.51 | 3:31.24 | 201576 | 217424
10 | 48:19.00 | 3:55.55 | 217425 | 235104
11 | 52:14.55 | 3:22.11 | 235105 | 250265


Range status and errors

Selected range

Filename C:\Users\Alex\Desktop\ALLexxess\AF MFSL\Billy Joel\1985 Greatest Hits Volume I & Volume II (2 Hybrid SACD MFSL 2017)\Volume 1\Billy Joel - Greatest Hits MFSL I.wav

Peak level 97.8 %
Extraction speed 3.7 X
Range quality 100.0 %
Test CRC D3689AAD
Copy CRC D3689AAD
Copy OK

No errors occurred


AccurateRip summary

Track 1 accurately ripped (confidence 2) [A2A3CEA2] (AR v2)
Track 2 accurately ripped (confidence 2) [3359129D] (AR v2)
Track 3 accurately ripped (confidence 2) [88B0CAE9] (AR v2)
Track 4 accurately ripped (confidence 2) [0BA3ABD8] (AR v2)
Track 5 accurately ripped (confidence 2) [B821A0B4] (AR v2)
Track 6 accurately ripped (confidence 2) [DFBD5DE7] (AR v2)
Track 7 accurately ripped (confidence 2) [DAC7A9C9] (AR v2)
Track 8 accurately ripped (confidence 2) [5623F0B2] (AR v2)
Track 9 accurately ripped (confidence 2) [D41282FC] (AR v2)
Track 10 accurately ripped (confidence 2) [D1CA0FE2] (AR v2)
Track 11 accurately ripped (confidence 2) [454957CD] (AR v2)

All tracks accurately ripped

End of status report

–– CUETools DB Plugin V2.1.6

[CTDB TOCID: RauuDSCLH5h3nDcdOnoerNPXDZc-] found
Submit result: RauuDSCLH5h3nDcdOnoerNPXDZc- has been confirmed
Track | CTDB Status
1 | (9/9) Accurately ripped
2 | (9/9) Accurately ripped
3 | (9/9) Accurately ripped
4 | (9/9) Accurately ripped
5 | (9/9) Accurately ripped
6 | (9/9) Accurately ripped
7 | (9/9) Accurately ripped
8 | (9/9) Accurately ripped
9 | (9/9) Accurately ripped
10 | (9/9) Accurately ripped
11 | (9/9) Accurately ripped


==== Log checksum 387E581A0C88E5132B6D63FC1141CACFBD2C8B5F3B6602ACDDC0370221764268 ====


[CUETools log; Date: 28.09.2017 22:07:48; Version: 2.1.5]
[CTDB TOCID: RauuDSCLH5h3nDcdOnoerNPXDZc-] found.
Track | CTDB Status
1 | (10/10) Accurately ripped
2 | (10/10) Accurately ripped
3 | (10/10) Accurately ripped
4 | (10/10) Accurately ripped
5 | (10/10) Accurately ripped
6 | (10/10) Accurately ripped
7 | (10/10) Accurately ripped
8 | (10/10) Accurately ripped
9 | (10/10) Accurately ripped
10 | (10/10) Accurately ripped
11 | (10/10) Accurately ripped
[AccurateRip ID: 001874b5-00d1eb6d-9f0d080b] found.
Track [ CRC | V2 ] Status
01 [b5105eb7|a2a3cea2] (0+2/2) Accurately ripped
02 [4294edd7|3359129d] (0+2/2) Accurately ripped
03 [86efb4ea|88b0cae9] (0+2/2) Accurately ripped
04 [12fcc101|0ba3abd8] (0+2/2) Accurately ripped
05 [6bdcb088|b821a0b4] (0+2/2) Accurately ripped
06 [7e290664|dfbd5de7] (0+2/2) Accurately ripped
07 [9ea905ce|dac7a9c9] (0+2/2) Accurately ripped
08 [6ea3765c|5623f0b2] (0+2/2) Accurately ripped
09 [70f819d5|d41282fc] (0+2/2) Accurately ripped
10 [662626a1|d1ca0fe2] (0+2/2) Accurately ripped
11 [de2768fc|454957cd] (0+2/2) Accurately ripped

Track Peak [ CRC32 ] [W/O NULL] [ LOG ]
– 97,8 [D3689AAD] [6BF729AD] CRC32
01 83,0 [AF42EFB4] [BE6AD40D]
02 81,4 [9DBC99E4] [7B36C2EA]
03 97,2 [267FA50D] [E40E42E4]
04 94,5 [F1508F21] [F71B44F1]
05 96,6 [7B473B5B] [AF58FF45]
06 93,0 [A1C28B6E] [51174243]
07 96,4 [8FA15E0E] [562568BA]
08 96,6 [030092CE] [8C48A05F]
09 97,8 [6C9866CF] [A4A704AF]
10 96,8 [30674CC0] [F8CA1658]
11 66,1 [A9653199] [DF71A3F6]


Billy Joel - Greatest Hits Volume I & Volume II (1985) [2017, MFSL]

Tracklist CD2 - Volume II:

01 My Life
02 Big Shot
03 Honesty
04 You May Be Right
05 It's Still Rock And Roll To Me
06 Don't Ask Me Why
07 She's Got A Way
08 Pressure
09 Allentown
10 Goodnight Saigon
11 Tell Her About It
12 Uptown Girl
13 The Longest Time
14 You're Only Human (Second Wind)
15 The Night Is Still Young

Exact Audio Copy V1.3 from 2. September 2016

EAC extraction logfile from 27. September 2017, 9:51

Billy Joel / Greatest Hits MFSL II

Used drive : PLEXTOR BD-R PX-B950SA Adapter: 1 ID: 1

Read mode : Secure
Utilize accurate stream : Yes
Defeat audio cache : Yes
Make use of C2 pointers : No

Read offset correction : 6
Overread into Lead-In and Lead-Out : No
Fill up missing offset samples with silence : Yes
Delete leading and trailing silent blocks : No
Null samples used in CRC calculations : Yes
Used interface : Native Win32 interface for Win NT & 2000

Used output format : Internal WAV Routines
Sample format : 44.100 Hz; 16 Bit; Stereo


TOC of the extracted CD

Track | Start | Length | Start sector | End sector
––––––––––––––––––––––––––––-
1 | 0:00.00 | 4:45.07 | 0 | 21381
2 | 4:45.07 | 4:03.03 | 21382 | 39609
3 | 8:48.10 | 3:55.21 | 39610 | 57255
4 | 12:43.31 | 4:14.27 | 57256 | 76332
5 | 16:57.58 | 2:58.63 | 76333 | 89745
6 | 19:56.46 | 3:00.42 | 89746 | 103287
7 | 22:57.13 | 3:02.74 | 103288 | 117011
8 | 26:00.12 | 4:40.44 | 117012 | 138055
9 | 30:40.56 | 3:52.21 | 138056 | 155476
10 | 34:33.02 | 7:00.19 | 155477 | 186995
11 | 41:33.21 | 3:53.25 | 186996 | 204495
12 | 45:26.46 | 3:17.13 | 204496 | 219283
13 | 48:43.59 | 3:39.73 | 219284 | 235781
14 | 52:23.57 | 4:50.22 | 235782 | 257553
15 | 57:14.04 | 5:29.50 | 257554 | 282278


Range status and errors

Selected range

Filename C:\Users\Alex\Desktop\ALLexxess\AF MFSL\Billy Joel\1985 Greatest Hits Volume I & Volume II (2 Hybrid SACD MFSL 2017)\Volume 2\Billy Joel - Greatest Hits MFSL II.wav

Peak level 98.8 %
Extraction speed 3.8 X
Range quality 100.0 %
Test CRC 04FCD972
Copy CRC 04FCD972
Copy OK

No errors occurred


AccurateRip summary

Track 1 accurately ripped (confidence 2) [A550F3B4] (AR v2)
Track 2 accurately ripped (confidence 2) [1CDE6031] (AR v2)
Track 3 accurately ripped (confidence 2) [633B9113] (AR v2)
Track 4 accurately ripped (confidence 2) [624EAC8D] (AR v2)
Track 5 accurately ripped (confidence 2) [ED48286A] (AR v2)
Track 6 accurately ripped (confidence 2) [010E0C0E] (AR v2)
Track 7 accurately ripped (confidence 2) [6D2C4AEE] (AR v2)
Track 8 accurately ripped (confidence 2) [D5944A01] (AR v2)
Track 9 accurately ripped (confidence 2) [30B3F43F] (AR v2)
Track 10 accurately ripped (confidence 2) [73C9F19D] (AR v2)
Track 11 accurately ripped (confidence 2) [1A577915] (AR v2)
Track 12 accurately ripped (confidence 2) [1891DAB6] (AR v2)
Track 13 accurately ripped (confidence 2) [2614A17E] (AR v2)
Track 14 accurately ripped (confidence 2) [9BA9128F] (AR v2)
Track 15 accurately ripped (confidence 2) [5F74BB85] (AR v2)

All tracks accurately ripped

End of status report

–– CUETools DB Plugin V2.1.6

[CTDB TOCID: los0JNzCMZVg17.JkVLZdtsEMJc-] found
Submit result: los0JNzCMZVg17.JkVLZdtsEMJc- has been confirmed
Track | CTDB Status
1 | (9/9) Accurately ripped
2 | (9/9) Accurately ripped
3 | (9/9) Accurately ripped
4 | (9/9) Accurately ripped
5 | (9/9) Accurately ripped
6 | (9/9) Accurately ripped
7 | (9/9) Accurately ripped
8 | (9/9) Accurately ripped
9 | (9/9) Accurately ripped
10 | (9/9) Accurately ripped
11 | (9/9) Accurately ripped
12 | (9/9) Accurately ripped
13 | (9/9) Accurately ripped
14 | (9/9) Accurately ripped
15 | (9/9) Accurately ripped


==== Log checksum 6FD08F3D4FE5917B7ACFB60B3F72E177B1DEEB15EE956653C6B428E993862725 ====


[CUETools log; Date: 28.09.2017 22:08:10; Version: 2.1.5]
[CTDB TOCID: los0JNzCMZVg17.JkVLZdtsEMJc-] found.
Track | CTDB Status
1 | (10/10) Accurately ripped
2 | (10/10) Accurately ripped
3 | (10/10) Accurately ripped
4 | (10/10) Accurately ripped
5 | (10/10) Accurately ripped
6 | (10/10) Accurately ripped
7 | (10/10) Accurately ripped
8 | (10/10) Accurately ripped
9 | (10/10) Accurately ripped
10 | (10/10) Accurately ripped
11 | (10/10) Accurately ripped
12 | (10/10) Accurately ripped
13 | (10/10) Accurately ripped
14 | (10/10) Accurately ripped
15 | (10/10) Accurately ripped
[AccurateRip ID: 00215567-017a8ffc-e00eb30f] found.
Track [ CRC | V2 ] Status
01 [ce8fa473|a550f3b4] (0+2/2) Accurately ripped
02 [588a27eb|1cde6031] (0+2/2) Accurately ripped
03 [45cdac65|633b9113] (0+2/2) Accurately ripped
04 [5f4e7f92|624eac8d] (0+2/2) Accurately ripped
05 [b93e2b04|ed48286a] (0+2/2) Accurately ripped
06 [39756e80|010e0c0e] (0+2/2) Accurately ripped
07 [c41704ee|6d2c4aee] (0+2/2) Accurately ripped
08 [30c314fd|d5944a01] (0+2/2) Accurately ripped
09 [7c3a2edd|30b3f43f] (0+2/2) Accurately ripped
10 [f30356d3|73c9f19d] (0+2/2) Accurately ripped
11 [4946a172|1a577915] (0+2/2) Accurately ripped
12 [4b550568|1891dab6] (0+2/2) Accurately ripped
13 [34e713aa|2614a17e] (0+2/2) Accurately ripped
14 [8e70d4ff|9ba9128f] (0+2/2) Accurately ripped
15 [f873f90b|5f74bb85] (0+2/2) Accurately ripped

Track Peak [ CRC32 ] [W/O NULL] [ LOG ]
– 98,8 [04FCD972] [3FAC1361] CRC32
01 90,9 [7D7E9D0A] [0BD281CC]
02 91,8 [2DD292FF] [7CE18F73]
03 70,6 [19673C97] [606FEF2C]
04 98,8 [57300BAD] [C4F368EB]
05 94,4 [A37C124E] [4857D73E]
06 89,2 [0B51F59A] [09C6D72E]
07 78,9 [5442D54A] [F130EFAC]
08 79,0 [AFB8C74F] [B440D840]
09 94,0 [4F021C21] [833697E7]
10 93,8 [4563C002] [74D4CFD1]
11 88,1 [2C893210] [BB447776]
12 91,6 [80DF7C3B] [65092272]
13 69,9 [FBE3AFDF] [66D60AAB]
14 94,6 [A4DB0A3E] [4F49E31D]
15 89,9 [C8C2EAB3] [4FE85FCF]


Billy Joel - Greatest Hits Volume I & Volume II (1985) [2017, MFSL]

All thanks go to the original releaser

Billy Joel or Billy Joel in my Blog

Download Billy Joel - Greatest Hits Volume I & Volume II (1985):