Subcategories

Billy Joel - Greatest Hits: Volume III (1997) {Japan 1st Press}

Posted By: popsakov
Billy Joel - Greatest Hits: Volume III (1997) {Japan 1st Press}

Billy Joel - Greatest Hits: Volume III (1997) {Japan 1st Press}
EAC Rip | FLAC (Img) + Cue + Log ~ 516 Mb | MP3 CBR320 ~ 182 Mb
Full Scans (JPG, 600 dpi) ~ 40 Mb | RAR 5% Recovery
Soft Rock, Pop Rock | Sony Records #SRCS 8410

The Greatest Hits Volume III album includes hits from 1983 to 1997. Two previously unreleased studio tracks are included, "To Make You Feel My Love" and "Hey Girl", while the third new track, "Light as the Breeze", was originally recorded for a Leonard Cohen tribute album known as Tower of Song in 1995. All three tracks are newly recorded covers (a rare occurrence in his catalogue). Chronologically, Greatest Hits Volume III overlaps slightly with Volume II, as the first two tracks, "Keeping the Faith" and "An Innocent Man", first appeared on his album An Innocent Man.
~ Wiki

***************

Billy Joel - Greatest Hits: Volume III (1997) {Japan 1st Press}

Billy Joel - Greatest Hits: Volume III (1997) {Japan 1st Press}

Track List:

01. Keeping The Faith [4:39]
02. An Innocent Man [5:19]
03. A Matter Of Trust [4:12]
04. Baby Grand (duet w/ Ray Charles) [4:06]
05. This Is The Time [5:01]
06. Leningrad [4:04]
07. We Didn't Start The Fire [4:49]
08. I Go To Extremes [4:25]
09. And So It Goes [3:38]
10. The Downeaster 'Alexa' [3:44]
11. Shameless [4:28]
12. All About Soul (Remix) [6:01]
13. Lullabye (Goodnight, My Angel) [3:34]
14. The River Of Dreams [4:12]
15. To Make You Feel My Love [3:54]
16. Hey Girl [3:57]
17. Light As The Breeze [6:14]

Exact Audio Copy V1.3 from 2. September 2016

EAC extraction logfile from 15. October 2017, 19:41

Billy Joel / Greatest Hits Volume III

Used drive : TSSTcorpCDDVDW TS-L633B Adapter: 1 ID: 0

Read mode : Secure
Utilize accurate stream : Yes
Defeat audio cache : Yes
Make use of C2 pointers : No

Read offset correction : 6
Overread into Lead-In and Lead-Out : No
Fill up missing offset samples with silence : Yes
Delete leading and trailing silent blocks : No
Null samples used in CRC calculations : Yes
Used interface : Native Win32 interface for Win NT & 2000

Used output format : Internal WAV Routines
Sample format : 44.100 Hz; 16 Bit; Stereo


TOC of the extracted CD

Track | Start | Length | Start sector | End sector
––––––––––––––––––––––––––––-
1 | 0:00.00 | 4:38.40 | 0 | 20889
2 | 4:38.40 | 5:19.32 | 20890 | 44846
3 | 9:57.72 | 4:12.15 | 44847 | 63761
4 | 14:10.12 | 4:05.65 | 63762 | 82201
5 | 18:16.02 | 5:01.00 | 82202 | 104776
6 | 23:17.02 | 4:04.28 | 104777 | 123104
7 | 27:21.30 | 4:49.00 | 123105 | 144779
8 | 32:10.30 | 4:24.40 | 144780 | 164619
9 | 36:34.70 | 3:37.62 | 164620 | 180956
10 | 40:12.57 | 3:44.13 | 180957 | 197769
11 | 43:56.70 | 4:28.05 | 197770 | 217874
12 | 48:25.00 | 6:01.20 | 217875 | 244969
13 | 54:26.20 | 3:34.27 | 244970 | 261046
14 | 58:00.47 | 4:12.08 | 261047 | 279954
15 | 62:12.55 | 3:53.50 | 279955 | 297479
16 | 66:06.30 | 3:57.25 | 297480 | 315279
17 | 70:03.55 | 6:13.70 | 315280 | 343324


Range status and errors

Selected range

Filename F:\Alexharvey\Billy Joel - Greatest Hits Volume III.wav

Peak level 99.8 %
Extraction speed 3.1 X
Range quality 100.0 %
Test CRC 301B835D
Copy CRC 301B835D
Copy OK

No errors occurred


AccurateRip summary

Track 1 accurately ripped (confidence 16) [D89E66BD] (AR v2)
Track 2 accurately ripped (confidence 16) [6D85C965] (AR v2)
Track 3 accurately ripped (confidence 16) [90CF5BC8] (AR v2)
Track 4 accurately ripped (confidence 16) [3723C1C0] (AR v2)
Track 5 accurately ripped (confidence 16) [13EA1448] (AR v2)
Track 6 accurately ripped (confidence 16) [6BC47606] (AR v2)
Track 7 accurately ripped (confidence 16) [3C1B9818] (AR v2)
Track 8 accurately ripped (confidence 16) [EFFD41A4] (AR v2)
Track 9 accurately ripped (confidence 16) [FACD5822] (AR v2)
Track 10 accurately ripped (confidence 16) [718DB391] (AR v2)
Track 11 accurately ripped (confidence 16) [BAF74DD5] (AR v2)
Track 12 accurately ripped (confidence 16) [E036A440] (AR v2)
Track 13 accurately ripped (confidence 16) [EAE58784] (AR v2)
Track 14 accurately ripped (confidence 16) [AA047665] (AR v2)
Track 15 accurately ripped (confidence 16) [FEA3B2CF] (AR v2)
Track 16 accurately ripped (confidence 16) [E35A15E9] (AR v2)
Track 17 accurately ripped (confidence 16) [EF209D62] (AR v2)

All tracks accurately ripped

End of status report

–– CUETools DB Plugin V2.1.6

[CTDB TOCID: 07Vi6SCgu_YCzQFH3ZqjRSNiGuQ-] found
Submit result: 07Vi6SCgu_YCzQFH3ZqjRSNiGuQ- has been confirmed
Track | CTDB Status
1 | (52/55) Accurately ripped
2 | (52/55) Accurately ripped
3 | (51/55) Accurately ripped
4 | (51/55) Accurately ripped
5 | (52/55) Accurately ripped
6 | (52/55) Accurately ripped
7 | (52/55) Accurately ripped
8 | (51/55) Accurately ripped
9 | (52/55) Accurately ripped
10 | (51/55) Accurately ripped
11 | (50/55) Accurately ripped
12 | (51/55) Accurately ripped
13 | (52/55) Accurately ripped
14 | (51/55) Accurately ripped
15 | (51/55) Accurately ripped
16 | (50/55) Accurately ripped
17 | (48/55) Accurately ripped


==== Log checksum 65A2E86C0464DA59F767569626752753155E846937DBF399949974F947A4D887 ====

foobar2000 1.3.16 / Dynamic Range Meter 1.1.1
log date: 2017-10-15 22:38:36

––––––––––––––––––––––––––––––––––––––––
Analyzed: Billy Joel / Greatest Hits Volume III
––––––––––––––––––––––––––––––––––––––––

DR Peak RMS Duration Track
––––––––––––––––––––––––––––––––––––––––
DR9 -0.01 dB -11.23 dB 4:39 01-Keeping The Faith
DR9 -0.01 dB -12.28 dB 5:19 02-An Innocent Man
DR9 -0.01 dB -9.77 dB 4:12 03-A Matter Of Trust
DR11 -0.01 dB -13.10 dB 4:06 04-Baby Grand (duet w/ Ray Charles)
DR9 -0.01 dB -11.26 dB 5:01 05-This Is The Time
DR9 -0.01 dB -11.38 dB 4:04 06-Leningrad
DR7 -0.01 dB -9.60 dB 4:49 07-We Didn't Start The Fire
DR8 -0.01 dB -9.41 dB 4:25 08-I Go To Extremes
DR14 -0.01 dB -16.40 dB 3:38 09-And So It Goes
DR8 -0.01 dB -9.80 dB 3:44 10-The Downeaster 'Alexa'
DR8 -0.01 dB -10.27 dB 4:28 11-Shameless
DR7 -0.01 dB -8.76 dB 6:01 12-All About Soul (Remix)
DR12 -0.01 dB -15.72 dB 3:34 13-Lullabye (Goodnight, My Angel)
DR8 -0.01 dB -10.53 dB 4:12 14-The River Of Dreams
DR9 -0.01 dB -12.14 dB 3:54 15-To Make You Feel My Love
DR8 -0.01 dB -10.04 dB 3:57 16-Hey Girl
DR8 -0.01 dB -11.40 dB 6:14 17-Light As The Breeze
––––––––––––––––––––––––––––––––––––––––

Number of tracks: 17
Official DR value: DR9

Samplerate: 44100 Hz
Channels: 2
Bits per sample: 16
Bitrate: 900 kbps
Codec: FLAC
================================================================================

[CUETools log; Date: 15.10.2017 22:38:44; Version: 2.1.5]
[CTDB TOCID: 07Vi6SCgu_YCzQFH3ZqjRSNiGuQ-] found.
Track | CTDB Status
1 | (53/56) Accurately ripped
2 | (53/56) Accurately ripped
3 | (52/56) Accurately ripped
4 | (52/56) Accurately ripped
5 | (53/56) Accurately ripped
6 | (53/56) Accurately ripped
7 | (53/56) Accurately ripped
8 | (52/56) Accurately ripped
9 | (53/56) Accurately ripped
10 | (52/56) Accurately ripped
11 | (51/56) Accurately ripped
12 | (52/56) Accurately ripped
13 | (53/56) Accurately ripped
14 | (52/56) Accurately ripped
15 | (52/56) Accurately ripped
16 | (51/56) Accurately ripped
17 | (49/56) Accurately ripped
[AccurateRip ID: 002f1d1a-0251b844-1411e111] found.
Track [ CRC | V2 ] Status
01 [99ca414c|d89e66bd] (05+16/23) Accurately ripped
02 [a3d34f75|6d85c965] (05+16/23) Accurately ripped
03 [dac74549|90cf5bc8] (05+16/23) Accurately ripped
04 [e83d5f66|3723c1c0] (05+16/23) Accurately ripped
05 [b896903b|13ea1448] (05+16/23) Accurately ripped
06 [4678ba16|6bc47606] (05+16/23) Accurately ripped
07 [1c168267|3c1b9818] (05+16/23) Accurately ripped
08 [4f05beac|effd41a4] (05+16/23) Accurately ripped
09 [71696cd5|facd5822] (05+16/23) Accurately ripped
10 [13fea716|718db391] (05+16/23) Accurately ripped
11 [c2495408|baf74dd5] (05+16/23) Accurately ripped
12 [92e491dc|e036a440] (05+16/23) Accurately ripped
13 [a5f4dd5a|eae58784] (05+16/21) Accurately ripped
14 [72b70460|aa047665] (05+16/23) Accurately ripped
15 [cd6a6021|fea3b2cf] (05+16/23) Accurately ripped
16 [fc147130|e35a15e9] (05+16/23) Accurately ripped
17 [f4ef2749|ef209d62] (05+16/23) Accurately ripped

Track Peak [ CRC32 ] [W/O NULL] [ LOG ]
– 99,8 [301B835D] [4A5E5ECA] CRC32
01 99,8 [77742516] [82A0FAD1]
02 99,8 [EFE10C5F] [E72437C6]
03 99,8 [31DC22DA] [EC846B68]
04 99,8 [920ACAF7] [473258CD]
05 99,8 [5B269692] [D71B7971]
06 99,8 [6D9C5E1C] [B22B48BB]
07 99,8 [2EE31A08] [36A5EB7B]
08 99,8 [7C90F078] [27619E45]
09 99,8 [3727C31B] [23E567E3]
10 99,8 [A6EA7BB0] [DC4393B1]
11 99,8 [211F268D] [E68B6C3A]
12 99,8 [0B535832] [9A8B47C1]
13 99,8 [D37FEBDC] [AEDAF94A]
14 99,8 [09E25EA8] [46A09E14]
15 99,8 [9B9593CB] [F9A43B0F]
16 99,8 [4C3F1E73] [F6DAA155]
17 99,8 [8E8CCE58] [CA33AF10]

Billy Joel - Greatest Hits: Volume III (1997) {Japan 1st Press}

All thanks go to Alexharvey

>>> Billy Joel in my Blog <<<

Download from icerbox.com: