Tags
Language
Tags

Billy Ocean - Here You Are: The Best Of (2016)

Posted By: popsakov
Billy Ocean - Here You Are: The Best Of (2016)

Billy Ocean - Here You Are: The Best Of (2016)
2CD | EAC Rip | FLAC (Img) + Cue + Log ~ 922 Mb | MP3 CBR320 ~ 330 Mb
Covers Included | 00:55:45 + 01:17:54 | RAR 5% Recovery
R&B, Pop, Funk, Soul | Sony Music #88985313022

Here You Are: The Best Of Billy Ocean is a new 2CD unique collection from original King Of Soul, packaged with a career spanning celebration of one of Britain’s biggest stars. Billy is a Grammy award winner with worldwide sales of over 30 million. He hit the number one spot across three continents in the 70s and 80s, counting no fewer than six UK top 10 singles. ‘Caribbean Queen’ stormed to number one on both the US singles chart and US R&B chart, and is amongst Billy’s six US top 10 singles. With top 10 albums the world over, Billy has notched up an impressive three Platinum albums (including two which are certified 2x Platinum).

Billy Ocean is the biggest black recording star Britain has ever produced, one who has sold over 30 million records in his lifetime. He has collected a pile of Gold and Platinum records across the world and hit the number one spot worldwide on pop charts including the USA, Australia, Germany, Holland, and the UK. Billy has achieved extraordinary success as both an artist and a songwriter

Born in Trinidad, Billy settled in London’s East End when just seven years old. The calypso crazy kid soon got turned on to soul singers like Otis Redding and Sam Cooke, as well as pop groups like The Beatles and The Rolling Stones, leading him to spend much of his study time in the music room. Billy got his first break when he signed to GTO records, for whom his second single was the Motown-ish Love Really Hurts Without You, which reached No. 2 in the UK charts and No. 12 in the US. Two top twenty singles followed; Love on Delivery and Stop Me, then Red Light Spells Danger became a smash in both the UK and the US.

Billy changed record labels and his move to Jive Records provided instant success, with the million selling American number one single Caribbean Queen (for which Billy won a Grammy for best R&B Vocal), followed by Loverboy, and Suddenly, which became the first of Billy’s killer ballads. The Album from which these singles came from spent a year in the US Charts selling double platinum (triple in Canada). Billy also performed on the American half of Live Aid, making 1985 a truly incredible year for him.

1986 wasn’t bad either, opening with When the Going gets Tough (the tough gets going), the theme song to the Michael Douglas/Kathleen Turner/Danny Devito movie Jewel of the Nile. Billy then launched the Love Zone album, which went straight to No. 2 in the UK charts, staying in the top 40 for six months. In the US, there was a No. 1 single with There’ll be Sad Songs (To Make You Cry). More Hits were to follow with the now classic Get Outta My Dreams; Get Into My Car, giving Billy yet another US No. 1 hit. More hits followed as Billy also proved himself to be one of the most hardworking artists on the live stage, touring the world to ever-growing enthusiastic audiences.

After huge worldwide success and with a young family at home, Billy decided to take a break to spend some well earned time with them. In 2007, with the kids all grown up, Billy went back out to perform his hits again, this time with his daughter Cherie on backing vocals, with live dates in the UK and Europe, USA, Canada, and the Caribbean. The tour was a great success and culminated in his getting the bug once more for writing and recording. 2008 saw Billy back in the studio for the first time in 15 years, recording his brand new album ‘Because I Love You’ - which was released in 2009. 2010 saw Billy back on the road again with his band in the UK, Europe and the US and the release of ‘The Very Best of Billy Ocean’, which entered the UK album charts at number 17 and sold 72,000 copies in 4 weeks. Billy recently headed over to America where he played to fantastic crowds in Las Vegas, Detroit and Pennsylvania, Virginia and Florida.
Billy Ocean - Here You Are: The Best Of (2016)


***************

Billy Ocean - Here You Are: The Best Of (2016)

Track List CD1 - Here You Are:

01. A Change Is Gonna Come [04:20]
02. Cry Me A River [04:12]
03. No Woman No Cry [05:26]
04. High Tide Low Tide [04:40]
05. You Send Me [04:52]
06. Here You Are [04:36]
07. A Simple Game [05:05]
08. It Was A Very Good Year [05:19]
09. Time And The River [03:54]
10. Having A Party [05:15]
11. These Foolish Things [04:39]
12. Judge Not [03:32]

Exact Audio Copy V1.1 from 23. June 2015

EAC extraction logfile from 15. May 2016, 20:45

Billy Ocean / Here You Are The Best Of (CD1)

Used drive : HL-DT-STDVDRAM GH24NSD1 Adapter: 0 ID: 0

Read mode : Secure
Utilize accurate stream : Yes
Defeat audio cache : Yes
Make use of C2 pointers : No

Read offset correction : 6
Overread into Lead-In and Lead-Out : No
Fill up missing offset samples with silence : Yes
Delete leading and trailing silent blocks : No
Null samples used in CRC calculations : Yes
Used interface : Installed external ASPI interface

Used output format : Internal WAV Routines
Sample format : 44.100 Hz; 16 Bit; Stereo


TOC of the extracted CD

Track | Start | Length | Start sector | End sector
––––––––––––––––––––––––––––-
1 | 0:00.00 | 4:19.19 | 0 | 19443
2 | 4:19.19 | 4:11.30 | 19444 | 38298
3 | 8:30.49 | 5:25.36 | 38299 | 62709
4 | 13:56.10 | 4:39.26 | 62710 | 83660
5 | 18:35.36 | 4:51.70 | 83661 | 105555
6 | 23:27.31 | 4:35.71 | 105556 | 126251
7 | 28:03.27 | 5:04.44 | 126252 | 149095
8 | 33:07.71 | 5:18.64 | 149096 | 173009
9 | 38:26.60 | 3:53.29 | 173010 | 190513
10 | 42:20.14 | 5:14.63 | 190514 | 214126
11 | 47:35.02 | 4:38.33 | 214127 | 235009
12 | 52:13.35 | 3:31.21 | 235010 | 250855


Range status and errors

Selected range

Filename H:\SPOTNET\Billy Ocean - Here You Are The Best Of (EAC)\CD1\Billy Ocean - Here You Are The Best Of (CD1).wav

Peak level 99.9 %
Extraction speed 7.2 X
Range quality 100.0 %
Test CRC 0283A5F8
Copy CRC 0283A5F8
Copy OK

No errors occurred


AccurateRip summary

Track 1 not present in database
Track 2 not present in database
Track 3 not present in database
Track 4 not present in database
Track 5 not present in database
Track 6 not present in database
Track 7 not present in database
Track 8 not present in database
Track 9 not present in database
Track 10 not present in database
Track 11 not present in database
Track 12 not present in database

None of the tracks are present in the AccurateRip database

End of status report

[CUETools log; Date: 24.01.2020 2:42:43; Version: 2.1.6]
[CTDB TOCID: Gwwyqu9t8eCqnD_o5Y63YdbRo2M-] found.
Track | CTDB Status
1 | (46/47) Accurately ripped
2 | (46/47) Accurately ripped
3 | (46/47) Accurately ripped
4 | (46/47) Accurately ripped
5 | (46/47) Accurately ripped
6 | (46/47) Accurately ripped
7 | (46/47) Accurately ripped
8 | (46/47) Accurately ripped
9 | (46/47) Accurately ripped
10 | (46/47) Accurately ripped
11 | (46/47) Accurately ripped
12 | (46/47) Accurately ripped
[AccurateRip ID: 00192797-00eb77fa-a90d100c] found.
Track [ CRC | V2 ] Status
01 [6c67bd35|50740c1e] (00+17/17) Accurately ripped
02 [1e3de009|d5b50a99] (00+17/17) Accurately ripped
03 [23dbd1af|4b4e8683] (00+17/17) Accurately ripped
04 [198cf66b|b37c09b9] (00+16/16) Accurately ripped
05 [3d8be3bf|051267c4] (00+17/17) Accurately ripped
06 [2fd0fab7|2e851e92] (00+17/17) Accurately ripped
07 [1d403a75|59e5a486] (00+17/17) Accurately ripped
08 [f67d5beb|e77f4f87] (00+17/17) Accurately ripped
09 [e59e920f|b4579e87] (00+17/17) Accurately ripped
10 [78c12f63|f1219f45] (00+17/17) Accurately ripped
11 [92aff060|d07084f1] (00+17/17) Accurately ripped
12 [4db5745b|08f1ccb6] (00+17/17) Accurately ripped

Track Peak [ CRC32 ] [W/O NULL] [ LOG ]
– 99,9 [0283A5F8] [78041BB2] CRC32
01 99,8 [545E1F75] [2C0DF548]
02 99,8 [CF37705F] [50C2CC02]
03 99,8 [BB81D1AF] [3C8BFD31]
04 99,9 [2D5B87FD] [E3836F59]
05 99,8 [AF03A36A] [FE683DDC]
06 99,8 [2F3FD686] [E5AFF7D8]
07 99,9 [7AE27B58] [DAF4CA98]
08 99,8 [91206830] [B0CE51DE]
09 99,8 [E3CF46DE] [992E54FD]
10 99,8 [22EE010A] [AD44CC17]
11 99,8 [443360D7] [81F35B7D]
12 99,8 [ED169867] [719EB4BF]

Billy Ocean - Here You Are: The Best Of (2016)

Track List CD2 - The Best Of:

01. When The Going Gets Tough, The Tough Get Going [04:11]
02. Suddenly [03:54]
03. Get Outta My Dreams, Get Into My Car [04:46]
04. Caribbean Queen (No More Love On The Run) [04:06]
05. Love Really Hurts Without You [03:01]
06. Red Light Spells Danger [03:32]
07. Stop Me (If You’ve Heard It All Before) [03:58]
08. There’ll Be Sad Songs (To Make You Cry) [04:51]
09. Loverboy [04:11]
10. L.O.D. (Love On Delivery) [02:46]
11. The Long And Winding Road [04:42]
12. Love Is Forever [04:11]
13. Calypso Crazy [04:27]
14. Are You Ready [04:29]
15. Bitter Sweet [04:58]
16. Mystery Lady [03:56]
17. Love Zone [04:15]
18. The Colour Of Love [04:18]
19. Love Train [03:32]

Exact Audio Copy V1.1 from 23. June 2015

EAC extraction logfile from 16. May 2016, 10:29

Billy Ocean / Here You Are The Best Of (CD2)

Used drive : HL-DT-STDVDRAM GH24NSD1 Adapter: 0 ID: 0

Read mode : Secure
Utilize accurate stream : Yes
Defeat audio cache : Yes
Make use of C2 pointers : No

Read offset correction : 6
Overread into Lead-In and Lead-Out : No
Fill up missing offset samples with silence : Yes
Delete leading and trailing silent blocks : No
Null samples used in CRC calculations : Yes
Used interface : Installed external ASPI interface

Used output format : Internal WAV Routines
Sample format : 44.100 Hz; 16 Bit; Stereo


TOC of the extracted CD

Track | Start | Length | Start sector | End sector
––––––––––––––––––––––––––––-
1 | 0:00.00 | 4:10.11 | 0 | 18760
2 | 4:10.11 | 3:53.08 | 18761 | 36243
3 | 8:03.19 | 4:45.11 | 36244 | 57629
4 | 12:48.30 | 4:05.48 | 57630 | 76052
5 | 16:54.03 | 3:00.70 | 76053 | 89622
6 | 19:54.73 | 3:31.35 | 89623 | 105482
7 | 23:26.33 | 3:57.67 | 105483 | 123324
8 | 27:24.25 | 4:51.00 | 123325 | 145149
9 | 32:15.25 | 4:10.19 | 145150 | 163918
10 | 36:25.44 | 2:45.01 | 163919 | 176294
11 | 39:10.45 | 4:41.51 | 176295 | 197420
12 | 43:52.21 | 4:10.25 | 197421 | 216195
13 | 48:02.46 | 4:26.31 | 216196 | 236176
14 | 52:29.02 | 4:28.13 | 236177 | 256289
15 | 56:57.15 | 4:57.37 | 256290 | 278601
16 | 61:54.52 | 3:55.58 | 278602 | 296284
17 | 65:50.35 | 4:14.16 | 296285 | 315350
18 | 70:04.51 | 4:17.26 | 315351 | 334651
19 | 74:22.02 | 3:31.30 | 334652 | 350506


Range status and errors

Selected range

Filename H:\SPOTNET\Billy Ocean - Here You Are The Best Of (EAC)\CD2\Billy Ocean - Here You Are The Best Of (CD2).wav

Peak level 99.4 %
Extraction speed 8.4 X
Range quality 100.0 %
Test CRC 705206B3
Copy CRC 705206B3
Copy OK

No errors occurred


AccurateRip summary

Track 1 not present in database
Track 2 not present in database
Track 3 not present in database
Track 4 not present in database
Track 5 not present in database
Track 6 not present in database
Track 7 not present in database
Track 8 not present in database
Track 9 not present in database
Track 10 not present in database
Track 11 not present in database
Track 12 not present in database
Track 13 not present in database
Track 14 not present in database
Track 15 not present in database
Track 16 not present in database
Track 17 not present in database
Track 18 not present in database
Track 19 not present in database

None of the tracks are present in the AccurateRip database

End of status report

[CUETools log; Date: 24.01.2020 2:43:46; Version: 2.1.6]
[CTDB TOCID: Ae4xFNNwtCPOcVE2wPn0yBjCF3U-] found.
Track | CTDB Status
1 | (46/48) Accurately ripped
2 | (46/48) Accurately ripped
3 | (46/48) Accurately ripped
4 | (46/48) Accurately ripped
5 | (46/48) Accurately ripped
6 | (46/48) Accurately ripped
7 | (47/48) Accurately ripped
8 | (47/48) Accurately ripped
9 | (46/48) Accurately ripped
10 | (46/48) Accurately ripped
11 | (46/48) Accurately ripped
12 | (46/48) Accurately ripped
13 | (46/48) Accurately ripped
14 | (46/48) Accurately ripped
15 | (46/48) Accurately ripped
16 | (47/48) Accurately ripped
17 | (46/48) Accurately ripped
18 | (47/48) Accurately ripped
19 | (46/48) Accurately ripped
[AccurateRip ID: 0035022c-02e83c97-16124113] found.
Track [ CRC | V2 ] Status
01 [87e85c2f|82e7e05d] (00+17/17) Accurately ripped
02 [7d865398|24653e00] (00+16/16) Accurately ripped
03 [881e5d97|d2078d5f] (00+17/17) Accurately ripped
04 [71f11d2b|71159ec5] (00+17/17) Accurately ripped
05 [12a97265|76e7a320] (00+17/17) Accurately ripped
06 [80d373ea|34c43770] (00+16/16) Accurately ripped
07 [9ec233f5|c07ddaae] (00+17/17) Accurately ripped
08 [5bdba789|481f87e4] (00+18/18) Accurately ripped
09 [8163ccc2|73d9d563] (00+18/18) Accurately ripped
10 [a16243bf|8090f570] (00+17/17) Accurately ripped
11 [391017bb|a966865b] (00+18/18) Accurately ripped
12 [f201f7df|d5248d8d] (00+18/18) Accurately ripped
13 [4c2f6f0f|ad2c6389] (00+18/18) Accurately ripped
14 [3b5e2ec3|5c3c10ff] (00+17/17) Accurately ripped
15 [e2dcf28a|2d058739] (00+17/17) Accurately ripped
16 [c883199e|dc25c19c] (00+18/18) Accurately ripped
17 [8c803b94|7d887f13] (00+18/18) Accurately ripped
18 [f7fee3ce|11801c41] (00+17/17) Accurately ripped
19 [f460d61a|33b1937f] (00+18/18) Accurately ripped

Track Peak [ CRC32 ] [W/O NULL] [ LOG ]
– 99,4 [705206B3] [3FD52F80] CRC32
01 97,7 [7EF14ADC] [8A644835]
02 97,7 [91AABC2D] [9AFDBB92]
03 93,8 [1075A190] [DB5A75BE]
04 97,7 [3DFF261D] [7CCDED71]
05 97,7 [FC571FFF] [39EDDD54]
06 99,4 [1EE1D716] [B595F0B5]
07 97,7 [492FD923] [DD9D36E3]
08 97,7 [36F49E0E] [D1A299A2]
09 97,7 [63B55AA5] [77A502B8]
10 99,4 [D351D9DD] [091E591C]
11 97,7 [F58BBF2A] [804CE0C0]
12 97,7 [C70FAC1F] [77C9A09F]
13 97,7 [701E3769] [D2E5F0D1]
14 99,4 [6788145D] [543D5266]
15 99,4 [AE9860A8] [6F58A72B]
16 97,7 [DA56E5A0] [E7D91052]
17 99,4 [925791DE] [02E2CDF7]
18 99,4 [9DCAFFFF] [FE24D9F8]
19 98,9 [80899C02] [F3B913C5]

Billy Ocean - Here You Are: The Best Of (2016)


See also:

Billy Ocean - Love Zone (1986)
Billy Ocean - Tear Down These Walls (1988) {Japan 1st Press}

All thanks go to the original ripper(s) …

>>> My Blog <<<

DOWNLOAD: