Subcategories

Billy Cobham - Art Of Four (2006) [Re-Up]

Posted By: tiburon
Billy Cobham - Art Of Four (2006) [Re-Up]

Billy Cobham - Art Of Four (2006)
EAC 0.95b3 | FLAC tracks level 8 | Cue+Log+M3U | Full Scans 300dpi | 362MB + 5% Recovery
Genre: Jazz

With 2004's Art of Five, the fusion drums pioneer Billy Cobham indicated that his mid-life return to his bebop roots was a hot ticket. And this album proves to be another, with a fizzing Cobham driving a pedigree postbop band featuring alto saxist Donald Harrison, short-lived pianist James Williams (on one of his last recordings) and the bass legend Ron Carter. Most of the material here is original, and the improvisation is often scorching - Williams' jubilant sweep across bop, modalism and Cecil Taylorish abstraction in particular. Good for the Soul and Cissy Strut have a heated Art Blakey atmosphere. Harrison and Williams play solos of such fresh phrasing that they almost seem to reinvent the postbop language, and a fast The Song Is You has Harrison in biting Jackie McLean mode over fiery drumming. Carter's Last Resort is like a sardonic Stan Tracey piece, and Williams' Four Play is a rugged, Breckerish tour de force of fast blues. It's four stars for the blowing quality alone.
Track List
1. Good For The Soul 6:20
2. New Waltz 10:19
3. Alter Ego 5:42
4. Song Is You 7:59
5. Last Resort 5:09
6. If I Were A Bell 4:17
7. Four Play 4:31
8. Cissy Strut 4:25
9. Mushu Blues 5:45

musicians
Billy Cobham - drums
Ron Carter - bass
Donald Harrison - alto sax
James Williams - piano

Produced by Billy Cobham


EAC extraction logfile from 6. June 2007, 10:37 for CD
Billy Cobham / Art Of Four

Used drive : PLEXTOR DVDR PX-716A Adapter: 1 ID: 0
Read mode : Secure with NO C2, accurate stream, disable cache
Read offset correction : 30
Overread into Lead-In and Lead-Out : No

Used output format : C:\Programmi\Exact Audio Copy\flac-1.1.2-win\bin\flac.exe (User Defined Encoder)
32 kBit/s
Additional command line options : -8 -V -T "artist=%a" -T "title=%t" -T "album=%g" -T "date=%y" -T "tracknumber=%n" -T "genre=%m" -T "comment=Exact Audio Copy 0.95 b3 Secure Mode / FLAC q8 v. 1.1.2" %s

Other options :
Fill up missing offset samples with silence : Yes
Delete leading and trailing silent blocks : No
Installed external ASPI interface


Track 1
Filename F:\[MyRip]\01 - Good For The Soul.wav

Pre-gap length 0:00:02.00

Peak level 99.9 %
Track quality 100.0 %
Test CRC 09AD1599
Copy CRC 09AD1599
Copy OK

Track 2
Filename F:\[MyRip]\02 - New Waltz.wav

Peak level 72.2 %
Track quality 99.9 %
Test CRC 75326CF1
Copy CRC 75326CF1
Copy OK

Track 3
Filename F:\[MyRip]\03 - Alter Ego.wav

Peak level 99.9 %
Track quality 100.0 %
Test CRC 6DE70733
Copy CRC 6DE70733
Copy OK

Track 4
Filename F:\[MyRip]\04 - Song Is You.wav

Peak level 99.9 %
Track quality 100.0 %
Test CRC 2C3881FF
Copy CRC 2C3881FF
Copy OK

Track 5
Filename F:\[MyRip]\05 - Last Resort.wav

Peak level 99.9 %
Track quality 100.0 %
Test CRC 2895EBE8
Copy CRC 2895EBE8
Copy OK

Track 6
Filename F:\[MyRip]\06 - If I Were A Bell.wav

Peak level 99.9 %
Track quality 100.0 %
Test CRC 89C53EEA
Copy CRC 89C53EEA
Copy OK

Track 7
Filename F:\[MyRip]\07 - Four Play.wav

Peak level 99.9 %
Track quality 100.0 %
Test CRC EB4FD6F3
Copy CRC EB4FD6F3
Copy OK

Track 8
Filename F:\[MyRip]\08 - Cissy Strut.wav

Peak level 99.9 %
Track quality 100.0 %
Test CRC AC5B71E4
Copy CRC AC5B71E4
Copy OK

Track 9
Filename F:\[MyRip]\09 - Mushu Blues.wav

Peak level 99.9 %
Track quality 100.0 %
Test CRC DE5B90CB
Copy CRC DE5B90CB
Copy OK

No errors occured


End of status report


––––––––––––––––––––––––––––––––––––––––
Analyzed: Billy Cobham / Art Of Four
––––––––––––––––––––––––––––––––––––––––

DR Peak RMS Duration Track
––––––––––––––––––––––––––––––––––––––––
DR13 -0.01 dB -14.15 dB 6:20 01-Good For The Soul
DR11 -2.82 dB -15.94 dB 10:20 02-New Waltz
DR13 -0.01 dB -14.17 dB 5:43 03-Alter Ego
DR12 -0.01 dB -12.93 dB 8:00 04-Song Is You
DR13 -0.01 dB -14.40 dB 5:09 05-Last Resort
DR13 -0.01 dB -14.29 dB 4:17 06-If I Were A Bell
DR12 -0.01 dB -13.41 dB 4:31 07-Four Play
DR12 -0.01 dB -12.97 dB 4:25 08-Cissy Strut
DR13 -0.01 dB -14.31 dB 5:46 09-Mushu Blues
––––––––––––––––––––––––––––––––––––––––

Number of tracks: 9
Official DR value: DR12

Samplerate: 44100 Hz
Channels: 2
Bits per sample: 16
Bitrate: 900 kbps
Codec: FLAC
================================================================================

Billy Cobham - Art Of Four (2006) [Re-Up]
Billy Cobham - Art Of Four (2006) [Re-Up]
Billy Cobham - Art Of Four (2006) [Re-Up]


Thanks to the original ripper