Billy Cobham - Drum 'n' Voice Vol.4 (2016) {NP}

Posted By: tiburon
Billy Cobham - Drum 'n' Voice Vol.4 (2016) {NP}

Billy Cobham - Drum 'n' Voice Vol.4 (2016) {NP}
EAC 1.3 | FLAC tracks level 8 | Cue+Log+M3U | Full Scans 300dpi | 391MB + 5% Recovery
Genre: Jazz, Fusion

Generally acclaimed as fusion's greatest drummer, Billy Cobham's explosive technique powered some of the genre's most important early recordings – including groundbreaking efforts by Miles Davis and the Mahavishnu Orchestra – before he became an accomplished bandleader in his own right. At his best, Cobham harnessed his amazing dexterity into thundering, high-octane hybrids of jazz complexity and rock & roll aggression.
Track List
01. Interactive (feat. Brian Auger) 5:22
02. Psychologic 4:47
03. Ata Y Che (feat. Gregg Kofi Brown) 5:06
04. Raised 5:00
05. The Vibe Inside (feat. Eumir Deodato, Novecento) 4:35
06. Le lis (feat. Influence, Gregg Kofi Brown) [Vocal Radio Version] 4:57
07. Over (feat. Frank Gambale) 5:17
08. Shining Sun (feat. Stanley Jordan) 6:15
09. Superstar (feat. Influence, Gregg Kofi Brown, Olives Caleb, Ruth Ellen) 4:40
10. Le lis 4:36

musicians
Billy Cobham - drums
Eumir Deodato - electric piano on 5
Stanley Jordan - lead guitar on 8
Frank Gambale - guitar on 7
Rossana Nicolosi - bass on1-3, 5, 7, 8
Brian Auger - Hammond organ on 1
Gregg Kofi Brown - vocals on 3, 6, 9
Lino Nicolosi - guitar on 2 to 6, 8, 10
Pino Nicolosi - keyboards
Olives Caleb, Dora Nicolosi, Ruth Ellen - vocals

Produced by Nicolosi / Novecento


Exact Audio Copy V1.3 from 2. September 2016

EAC extraction logfile from 28. April 2017, 13:37

Billy Cobham / Drum 'n' Voice Vol.4

Used drive : HL-DT-STDVDRAM GH20NS10 Adapter: 1 ID: 0

Read mode : Secure
Utilize accurate stream : Yes
Defeat audio cache : Yes
Make use of C2 pointers : No

Read offset correction : 667
Overread into Lead-In and Lead-Out : No
Fill up missing offset samples with silence : Yes
Delete leading and trailing silent blocks : No
Null samples used in CRC calculations : Yes
Used interface : Native Win32 interface for Win NT & 2000
Gap handling : Appended to previous track

Used output format : User Defined Encoder
Selected bitrate : 1024 kBit/s
Quality : High
Add ID3 tag : No
Command line compressor : C:\Program Files\Exact Audio Copy\Flac\flac.exe
Additional command line options : -8 -V -T "ARTIST=%artist%" -T "TITLE=%title%" -T "ALBUM=%albumtitle%" -T "DATE=%year%" -T "TRACKNUMBER=%tracknr%" -T "TOTALTRACKS=%numtracks%" -T "GENRE=%genre%" -T "ALBUMARTIST=%albumartist%" -T "ALBUM ARTIST=%albumartist%" -T "COMMENT=EAC Secure Mode, Test & Copy, AccurateRip, FLAC -8" %source%


TOC of the extracted CD

Track | Start | Length | Start sector | End sector
––––––––––––––––––––––––––––-
1 | 0:00.00 | 5:22.27 | 0 | 24176
2 | 5:22.27 | 4:47.23 | 24177 | 45724
3 | 10:09.50 | 5:06.24 | 45725 | 68698
4 | 15:15.74 | 5:00.55 | 68699 | 91253
5 | 20:16.54 | 4:35.01 | 91254 | 111879
6 | 24:51.55 | 4:57.24 | 111880 | 134178
7 | 29:49.04 | 5:17.19 | 134179 | 157972
8 | 35:06.23 | 6:15.17 | 157973 | 186114
9 | 41:21.40 | 4:40.01 | 186115 | 207115
10 | 46:01.41 | 4:36.65 | 207116 | 227880


Track 1

Filename E:\Billy Cobham - Drum 'n' Voice Vol.4 (2016) [FLAC]\01 - Interactive.wav

Pre-gap length 0:00:02.00

Peak level 99.5 %
Extraction speed 4.1 X
Track quality 99.9 %
Test CRC 36EE49B7
Copy CRC 36EE49B7
Track not present in AccurateRip database
Copy OK

Track 2

Filename E:\Billy Cobham - Drum 'n' Voice Vol.4 (2016) [FLAC]\02 - Psychologic.wav

Peak level 99.5 %
Extraction speed 5.2 X
Track quality 100.0 %
Test CRC 50B06C3A
Copy CRC 50B06C3A
Track not present in AccurateRip database
Copy OK

Track 3

Filename E:\Billy Cobham - Drum 'n' Voice Vol.4 (2016) [FLAC]\03 - Ata Y Che.wav

Peak level 99.5 %
Extraction speed 5.3 X
Track quality 100.0 %
Test CRC 383B5C18
Copy CRC 383B5C18
Track not present in AccurateRip database
Copy OK

Track 4

Filename E:\Billy Cobham - Drum 'n' Voice Vol.4 (2016) [FLAC]\04 - Raised.wav

Peak level 99.5 %
Extraction speed 5.9 X
Track quality 100.0 %
Test CRC 7BE772D9
Copy CRC 7BE772D9
Track not present in AccurateRip database
Copy OK

Track 5

Filename E:\Billy Cobham - Drum 'n' Voice Vol.4 (2016) [FLAC]\05 - The Vibe Inside.wav

Peak level 98.8 %
Extraction speed 6.2 X
Track quality 100.0 %
Test CRC BF059946
Copy CRC BF059946
Track not present in AccurateRip database
Copy OK

Track 6

Filename E:\Billy Cobham - Drum 'n' Voice Vol.4 (2016) [FLAC]\06 - Le Lis (Radio vocal).wav

Peak level 99.5 %
Extraction speed 6.5 X
Track quality 100.0 %
Test CRC 0B4DAB28
Copy CRC 0B4DAB28
Track not present in AccurateRip database
Copy OK

Track 7

Filename E:\Billy Cobham - Drum 'n' Voice Vol.4 (2016) [FLAC]\07 - Over.wav

Peak level 99.5 %
Extraction speed 6.8 X
Track quality 100.0 %
Test CRC 86FB503D
Copy CRC 86FB503D
Track not present in AccurateRip database
Copy OK

Track 8

Filename E:\Billy Cobham - Drum 'n' Voice Vol.4 (2016) [FLAC]\08 - Shining Sun.wav

Peak level 99.5 %
Extraction speed 7.4 X
Track quality 100.0 %
Test CRC B604BCD6
Copy CRC B604BCD6
Track not present in AccurateRip database
Copy OK

Track 9

Filename E:\Billy Cobham - Drum 'n' Voice Vol.4 (2016) [FLAC]\09 - Superstar.wav

Peak level 98.8 %
Extraction speed 7.3 X
Track quality 100.0 %
Test CRC F6A98CC1
Copy CRC F6A98CC1
Track not present in AccurateRip database
Copy OK

Track 10

Filename E:\Billy Cobham - Drum 'n' Voice Vol.4 (2016) [FLAC]\10 - Le Lis.wav

Peak level 99.5 %
Extraction speed 7.0 X
Track quality 100.0 %
Test CRC FD99D814
Copy CRC FD99D814
Track not present in AccurateRip database
Copy OK


None of the tracks are present in the AccurateRip database

No errors occurred

End of status report

–– CUETools DB Plugin V2.1.6

[CTDB TOCID: IuEITQFTUlcY3eM8GdsoKDkk.Y4-] found
Submit result: IuEITQFTUlcY3eM8GdsoKDkk.Y4- has been confirmed
Track | CTDB Status
1 | (2/2) Accurately ripped
2 | (2/2) Accurately ripped
3 | (2/2) Accurately ripped
4 | (2/2) Accurately ripped
5 | (2/2) Accurately ripped
6 | (2/2) Accurately ripped
7 | (2/2) Accurately ripped
8 | (2/2) Accurately ripped
9 | (2/2) Accurately ripped
10 | (2/2) Accurately ripped


==== Log checksum 7770C12D6004119894742FD9E1A7D22C14B9E119E546E7BC343AEC271569B0AE ====


––––––––––––––––––––––––––––––––––––––––
Analyzed: Billy Cobham / Drum 'n' Voice Vol.4
––––––––––––––––––––––––––––––––––––––––

DR Peak RMS Duration Track
––––––––––––––––––––––––––––––––––––––––
DR5 -0.04 dB -6.11 dB 5:22 01-Interactive
DR6 -0.04 dB -7.34 dB 4:47 02-Psychologic
DR7 -0.04 dB -7.76 dB 5:06 03-Ata Y Che
DR6 -0.04 dB -7.79 dB 5:01 04-Raised
DR7 -0.10 dB -8.61 dB 4:35 05-The Vibe Inside
DR6 -0.04 dB -7.06 dB 4:57 06-Le Lis (Radio vocal)
DR6 -0.04 dB -8.04 dB 5:17 07-Over
DR6 -0.04 dB -6.89 dB 6:15 08-Shining Sun
DR6 -0.10 dB -7.20 dB 4:40 09-Superstar
DR5 -0.04 dB -6.21 dB 4:37 10-Le Lis
––––––––––––––––––––––––––––––––––––––––

Number of tracks: 10
Official DR value: DR6

Samplerate: 44100 Hz
Channels: 2
Bits per sample: 16
Bitrate: 1004 kbps
Codec: FLAC
================================================================================

Billy Cobham - Drum 'n' Voice Vol.4 (2016) {NP}
Billy Cobham - Drum 'n' Voice Vol.4 (2016) {NP}
Billy Cobham - Drum 'n' Voice Vol.4 (2016) {NP}