Subcategories
Tags
Language
Tags

The Billy Cobham / George Duke Band - Live On Tour In Europe (1976) {Wounded Bird}

Posted By: tiburon
The Billy Cobham / George Duke Band - Live On Tour In Europe (1976) {Wounded Bird}

The Billy Cobham / George Duke Band - Live On Tour In Europe (1976) {Wounded Bird}
EAC 0.95b3 | FLAC tracks level 8 | Cue+Log+M3U | Full Scans 600dpi | 348MB + 5% Recovery
MP3 CBR 320 Kbps | 107MB + 5% Recovery
Genre: Jazz, Fusion, Jazz-Funk

Following two studio recordings, this impressive band hit the road and cut this session with keyboardist George Duke. Their encounter provided for an uneven, but infectious, recording. "Hip Pockets," composed by Cobham, and "Ivory Tattoo," composed by Scofield, begin the session with some intense playing. Things get a bit goofy with "Space Lady" (a song which probably worked better live), and a bit melodramatic with "Almustafa the Beloved."
Track List
1. Hip Pockets (7:09) (Billy Cobham)
2. Ivory Tattoo (4:28) (John Scofield)
3. Space Lady (4:39) (George Duke)
4. Almustafa The Beloved (6:54) (Al Johnson)
5. Do What Cha Wanna (4:34) (George Duke)
6. Frankenstein Goes To The Disco (7:16) (Billy Cobham)
7. Sweet Wine (3:53) (Billy Cobham)
8. Juicy (7:20) (George Duke)

musicians
Billy Cobham - percussion, drum synthesizer, background vocals on Do What CHa Wanna
George Duke - keyboards, lead voca! on Space Lady, Do What Cha Wanna & Juicy, vocals on Almustafa The Beloved
Alfonso Johnson - electric bass, Chapman Stick, background vocals on Do What Cha Wanna, vocals on Almustafa The Beloved
John Scofield - electric guitar, hole in the pants on stage
Jon Lucien - narration on track 4

Produced by George Duke & Billy Cobham


EAC extraction logfile from 7. March 2007, 7:43 for CD
The Billy Cobham - George Duke Band / "Live" - On Tour In Europe

Used drive : PLEXTOR DVDR PX-716A Adapter: 1 ID: 0
Read mode : Secure with NO C2, accurate stream, disable cache
Read offset correction : 30
Overread into Lead-In and Lead-Out : No

Used output format : C:\Programmi\Exact Audio Copy\flac-1.1.2-win\bin\flac.exe (User Defined Encoder)
32 kBit/s
Additional command line options : -8 -V %s

Other options :
Fill up missing offset samples with silence : Yes
Delete leading and trailing silent blocks : No
Installed external ASPI interface


Track 1
Filename F:\[MyRip]\01 - Hip Pockets.wav

Pre-gap length 0:00:02.00

Peak level 100.0 %
Track quality 100.0 %
Test CRC F2827D78
Copy CRC F2827D78
Copy OK

Track 2
Filename F:\[MyRip]\02 - Ivory Tattoo.wav

Peak level 100.0 %
Track quality 100.0 %
Test CRC F7650329
Copy CRC F7650329
Copy OK

Track 3
Filename F:\[MyRip]\03 - Space Lady.wav

Peak level 100.0 %
Track quality 100.0 %
Test CRC F4ACD9D8
Copy CRC F4ACD9D8
Copy OK

Track 4
Filename F:\[MyRip]\04 - Almustafa The Beloved.wav

Peak level 100.0 %
Track quality 100.0 %
Test CRC 06DE85F8
Copy CRC 06DE85F8
Copy OK

Track 5
Filename F:\[MyRip]\05 - Do What Cha Wanna.wav

Pre-gap length 0:00:02.00

Peak level 100.0 %
Track quality 100.0 %
Test CRC 59CDCAC1
Copy CRC 59CDCAC1
Copy OK

Track 6
Filename F:\[MyRip]\06 - Frankenstein Goes To The Disco.wav

Peak level 100.0 %
Track quality 100.0 %
Test CRC AB8AB9C9
Copy CRC AB8AB9C9
Copy OK

Track 7
Filename F:\[MyRip]\07 - Sweet Wine.wav

Peak level 100.0 %
Track quality 100.0 %
Test CRC FC4DE002
Copy CRC FC4DE002
Copy OK

Track 8
Filename F:\[MyRip]\08 - Juicy.wav

Peak level 100.0 %
Track quality 100.0 %
Test CRC 2EF6FED9
Copy CRC 2EF6FED9
Copy OK

No errors occured


End of status report


––––––––––––––––––––––––––––––––––––––––
Analyzed: The Billy Cobham - George Duke Band / "Live" - On Tour In Europe
––––––––––––––––––––––––––––––––––––––––

DR Peak RMS Duration Track
––––––––––––––––––––––––––––––––––––––––
DR16 0.00 dB -18.14 dB 7:08 01-Hip Pockets
DR14 0.00 dB -16.44 dB 4:28 02-Ivory Tattoo
DR15 0.00 dB -20.59 dB 4:39 03-Space Lady
DR13 0.00 dB -18.35 dB 6:58 04-Almustafa The Beloved
DR13 0.00 dB -15.66 dB 4:34 05-Do What Cha Wanna
DR16 0.00 dB -20.67 dB 7:16 06-Frankenstein Goes To The Disco
DR13 0.00 dB -16.05 dB 3:54 07-Sweet Wine
DR13 0.00 dB -16.91 dB 7:19 08-Juicy
––––––––––––––––––––––––––––––––––––––––

Number of tracks: 8
Official DR value: DR14

Samplerate: 44100 Hz
Channels: 2
Bits per sample: 16
Bitrate: 790 kbps
Codec: FLAC
================================================================================

The Billy Cobham / George Duke Band - Live On Tour In Europe (1976) {Wounded Bird}
The Billy Cobham / George Duke Band - Live On Tour In Europe (1976) {Wounded Bird}
The Billy Cobham / George Duke Band - Live On Tour In Europe (1976) {Wounded Bird}


Thanks to the original ripper