Subcategories

Antonio Pappano, The Orchestra of the Royal Opera House, Anna Caterina Antonacci, Jonas Kaufmann - Bizet: Carmen (2008)[BluRay]

Posted By: Vilboa
Antonio Pappano, The Orchestra of the Royal Opera House, Anna Caterina Antonacci, Jonas Kaufmann - Bizet: Carmen (2008)[BluRay]

Antonio Pappano, The Orchestra of the Royal Opera House, Anna Caterina Antonacci, Jonas Kaufmann - Bizet: Carmen (2008) [Blu-Ray]
BluRay | BDMV | MPEG-4 AVC Video / 24993 kbps / 1080i / 29,970 fps | 152 min | 34,5 Gb
Audio1: French / LPCM Audio / 2.0 / 24-bit | Audio2: DTS-HD Master Audio / 5.1 / 48 kHz / 2559 kbps / 24-bit

BluRay-rip | AVC | MKV 1920x1080 / 6215 kbps / 29,97 fps | 152 min | 8,23 Gb
Audio: French / DTS / 6ch / 48.0 KHz / 24 bits
Classical | DECCA | Sub: English, French, German, Spanish, Chinese

With Anna Caterina Antonacci and Jonas Kaufmann bringing rare erotic intensity to the drama of Carmen and Don Jose, this Royal Opera production is a darkly passionate reading of one of the world's favourite operas. Under the baton of Music Director Antonio Pappano, Bizet's irresistible score drives the tragedy forward - powering a landmark staging of a musical masterpiece.
‘Kaufmann and Antonacci are that rare breed: superb singers who can also act with subtlety and passion’ (The Guardian)

Cast:
Carmen – Anna Caterina Antonacci
Don José – Jonas Kaufmann
Escamillo – Ildebrando D’Arcangelo
Micaëla – Norah Amsellem
The Royal Opera Chorus
The Orchestra of the Royal Opera House
Conductor – Antonio Pappano


Disc Title: CARMEN
Disc Size: 37 072 131 790 bytes
Protection: AACS
BD-Java: No
Playlist: 00003.MPLS
Size: 36 089 081 856 bytes
Length: 2:32:04.248
Total Bitrate: 31,64 Mbps
Video: MPEG-4 AVC Video / 24993 kbps / 1080i / 29,970 fps / 16:9 / High Profile 4.1
Audio: French / LPCM Audio / 2.0 / 48 kHz / 2304 kbps / 24-bit
Audio: French / DTS-HD Master Audio / 5.1 / 48 kHz / 2559 kbps / 24-bit (DTS Core: 5.1 / 48 kHz / 1509 kbps / 24-bit)
Subtitle: English / 19,290 kbps
Subtitle: French / 19,543 kbps
Subtitle: German / 21,017 kbps
Subtitle: Spanish / 19,044 kbps
Subtitle: Chinese / 27,493 kbps


General
Unique ID : 187318990677953444483252852823238371859 (0x8CEC5348D21C6936941CC11DE5BFEA13)
Complete name : C:\Carmen.mkv
Format : Matroska
Format version : Version 2
File size : 8.23 GiB
Duration : 2h 32mn
Overall bit rate : 7 753 Kbps
Movie name : Carmen
Encoded date : UTC 2017-05-11 18:57:29
Writing application : DVDFab 9.1.6.8
Writing library : libebml v0.7.8 + libmatroska v0.8.1

Video
ID : 1
Format : AVC
Format/Info : Advanced Video Codec
Format profile : High@L4.1
Format settings, CABAC : Yes
Format settings, ReFrames : 2 frames
Codec ID : V_MPEG4/ISO/AVC
Duration : 2h 32mn
Bit rate : 6 215 Kbps
Width : 1 920 pixels
Height : 1 080 pixels
Display aspect ratio : 16:9
Frame rate mode : Constant
Frame rate : 29.970 fps
Color space : YUV
Chroma subsampling : 4:2:0
Bit depth : 8 bits
Scan type : Progressive
Bits/(Pixel*Frame) : 0.100
Stream size : 6.47 GiB (79%)
Writing library : x264 core 142
Encoding settings : cabac=1 / ref=1 / deblock=1:-1:-1 / analyse=0x3:0 / me=hex / subme=5 / psy=0 / mixed_ref=0 / me_range=16 / chroma_me=1 / trellis=0 / 8x8dct=1 / cqm=0 / deadzone=21,11 / fast_pskip=1 / chroma_qp_offset=0 / threads=8 / lookahead_threads=2 / sliced_threads=0 / nr=0 / decimate=1 / interlaced=0 / bluray_compat=0 / constrained_intra=0 / bframes=2 / b_pyramid=0 / b_adapt=1 / b_bias=0 / direct=1 / weightb=1 / open_gop=0 / weightp=0 / keyint=24 / keyint_min=13 / scenecut=40 / intra_refresh=0 / rc=abr / mbtree=0 / bitrate=6215 / ratetol=1.0 / qcomp=0.60 / qpmin=0 / qpmax=69 / qpstep=4 / ip_ratio=1.40 / pb_ratio=1.30 / aq=1:1.00
Default : Yes
Forced : No
Color primaries : BT.709
Transfer characteristics : BT.709
Matrix coefficients : BT.709
Color range : Limited

Audio
ID : 2
Format : DTS
Format/Info : Digital Theater Systems
Mode : 16
Format settings, Endianness : Big
Codec ID : A_DTS
Duration : 2h 32mn
Bit rate mode : Constant
Bit rate : 1 509 Kbps
Channel(s) : 6 channels
Channel positions : Front: L C R, Side: L R, LFE
Sampling rate : 48.0 KHz
Bit depth : 24 bits
Compression mode : Lossy
Stream size : 1.60 GiB (19%)
Language : French
Default : Yes
Forced : No

Text #1
ID : 3
Format : VobSub
Codec ID : S_VOBSUB
Codec ID/Info : The same subtitle format used on DVDs
Language : English
Default : Yes
Forced : No

Text #2
ID : 4
Format : VobSub
Codec ID : S_VOBSUB
Codec ID/Info : The same subtitle format used on DVDs
Language : French
Default : No
Forced : No

Text #3
ID : 5
Format : VobSub
Codec ID : S_VOBSUB
Codec ID/Info : The same subtitle format used on DVDs
Language : German
Default : No
Forced : No

Text #4
ID : 6
Format : VobSub
Codec ID : S_VOBSUB
Codec ID/Info : The same subtitle format used on DVDs
Language : Spanish
Default : No
Forced : No

Text #5
ID : 7
Format : VobSub
Codec ID : S_VOBSUB
Codec ID/Info : The same subtitle format used on DVDs
Language : Chinese
Default : No
Forced : No

Menu
00:00:00.000 : en:Chapter 01
00:00:28.261 : en:Chapter 02
00:03:57.470 : en:Chapter 03
00:10:09.241 : en:Chapter 04
00:14:56.128 : en:Chapter 05
00:19:01.373 : en:Chapter 06
00:20:15.247 : en:Chapter 07
00:23:55.667 : en:Chapter 08
00:27:03.054 : en:Chapter 09
00:30:49.080 : en:Chapter 10
00:35:02.533 : en:Chapter 11
00:38:30.207 : en:Chapter 12
00:42:09.426 : en:Chapter 13
00:46:31.555 : en:Chapter 14
00:48:45.155 : en:Chapter 15
00:50:45.275 : en:Chapter 16
00:55:30.760 : en:Chapter 17
01:03:39.582 : en:Chapter 18
01:08:18.527 : en:Chapter 19
01:10:20.449 : en:Chapter 20
01:15:44.773 : en:Chapter 21
01:20:19.047 : en:Chapter 22
01:24:08.276 : en:Chapter 23
01:29:09.110 : en:Chapter 24
01:32:50.665 : en:Chapter 25
01:38:21.061 : en:Chapter 26
01:41:07.161 : en:Chapter 27
01:45:26.420 : en:Chapter 28
01:48:48.688 : en:Chapter 29
01:54:09.142 : en:Chapter 30
01:58:43.349 : en:Chapter 31
02:07:14.727 : en:Chapter 32
02:09:28.994 : en:Chapter 33
02:13:21.560 : en:Chapter 34
02:16:33.285 : en:Chapter 35
02:30:07.198 : en:Chapter 36


All screenshots taken from Blu-ray

Antonio Pappano, The Orchestra of the Royal Opera House, Anna Caterina Antonacci, Jonas Kaufmann - Bizet: Carmen (2008)[BluRay]
Antonio Pappano, The Orchestra of the Royal Opera House, Anna Caterina Antonacci, Jonas Kaufmann - Bizet: Carmen (2008)[BluRay]
Antonio Pappano, The Orchestra of the Royal Opera House, Anna Caterina Antonacci, Jonas Kaufmann - Bizet: Carmen (2008)[BluRay]
Antonio Pappano, The Orchestra of the Royal Opera House, Anna Caterina Antonacci, Jonas Kaufmann - Bizet: Carmen (2008)[BluRay]