Subcategories

Bjork - Utopia (2017)

Posted By: Pisulik
Bjork - Utopia (2017)

Bjork - Utopia (2017)
EAC Rip | FLAC (image) +cue, log, artworks - 450 MB | 01:07:00
Alternative, Electronic, Art Pop, Abstract, Trip-Hop | Label: One Little Indian

On album highlight “Tabula Rasa”, the theme Björk enforces is that of empowerment, and of personal redemption; urging for “us women to rise and not take it lying down”, and to not repeat others’ failures – in specific, her own. Vulnicara and its sister album Utopia are, thematically, two sides of the same coin; both feature producer Arca prominently and adding a new depth to Björk’s music, but the Icelandic songstress herself was found in a different frame of mind both times, one of that of a woman in great emotional distress, and of a woman rediscovering love and finding great elation in that magical revelation. Utopia finds Björk almost bewildered, near ecstatic at the potential the future has for her and her lover; “Blissing Me” has this very potent emotion that lingers about, Björk trying to find it in herself to be in love again, but reassuring herself it’s a relationship merely limited to a mutual interest (“Sending each other MP3s / Falling in love to a song”) – only to resign herself to the fact that she has fallen in love with this individual (“Did I just fall in love with love"”). This constant state of discovery, awakening, and intimacy markedly defines Utopia, a record that follows a similar path that 2001’s Vespertine once did with several songs dedicated to Björk’s beloved and the palpable euphoria that laced each and every song.

Utopia, being Björk’s longest record yet, slowly burns with greatly atmospheric instrumentation that ranges from waifish vocalizations, to chirping birdsongs, and scatty glitch percussion that clash with Björk’s voice, which at times, like 2004’s Medúlla, is another instrument in the wide array present on Utopia, whether it be part of a heavenly choir or a fragile acapella accompaniment. Standouts such as the ten-minute epic “Body Memory”, written as a response to the melancholic “Black Lake”, is worthy of every single minute dedicated to it, evoking images of foggy hillsides and icy landscapes interspersed with the themes of humanity and nature, which Björk uses magnificently to emphasize a personal revival within herself (“Then the body memory kicks in / My warrior awakens / My turn to defend / Urban didn't tame me”) and a conflict against outside forces, both internal and external. “Courtship” juxtaposes airy flutes against uptempo, surging beats; even further lyrically with a concept that is centered around personal relationships through a screen – for the lack of a better word, it’s a song that only proves Björk was half-serious about Utopia being her “Tinder album”. “Losss’s” vulnerability offers warmth joined with themes of loss, suffering, and overcoming such complications while acknowledging there was a time where there was a mutual respect between the couple, and the desires that came with that respect.

In being so enraptured in its drama, Utopia features Björk at her most intense; “Sue Me”, a song about the divorcée’s custody battle over her daughter Isodora, is a plea for maturity and dignity from her ex-husband Matthew Barney, who attempted to sue his wife for spending too much time with their child. At her most confrontational, Björk’s frustration is highly substantial, and rightfully so, demanding that their child doesn’t get caught within the crossfire of an already-disastrous ordeal for all parties involved; while also proclaiming that, as the child’s mother, will not “denounce her origin” no matter what. The aforementioned “Tabula Rasa” continues this theme, with an urgency nowhere else to be found on Utopia despite its abstract composition, whilst “Saint” is the singer’s paean to music itself, and the boundless power it has to heal oneself spiritually and emotionally.

Slowly, but surely, Utopia is conceptually, in some ways, a successor to Vespertine, an album that honed a distinct sound that couldn’t be replicated; but unlike its spiritual predecessor, Utopia leaves traces slightly bitter behind, while encouraging its creator that it can, against all odds, move on and begin again. It’s an album that, like Björk’s music itself, grows on you – and even if it doesn’t, you can find a great deal of respect in its sophistication and its intricacies.

TRACKLIST

01. Arisen My Senses
02. Blissing Me
03. The Gate
04. Utopia
05. Body Memory
06. Features Creatures
07. Courtship
08. Loss
09. Sue Me
10. Tabula Rasa
11. Claimstaker
12. Paradisia
13. Saint
14. Future Forever

Exact Audio Copy V1.3 from 2. September 2016

EAC extraction logfile from 22. November 2017, 13:00

Björk / Utopia

Used drive : TSSTcorpCD/DVDW SH-S182D Adapter: 1 ID: 0

Read mode : Secure
Utilize accurate stream : Yes
Defeat audio cache : Yes
Make use of C2 pointers : No

Read offset correction : 6
Overread into Lead-In and Lead-Out : No
Fill up missing offset samples with silence : Yes
Delete leading and trailing silent blocks : No
Null samples used in CRC calculations : Yes
Used interface : Native Win32 interface for Win NT & 2000

Used output format : User Defined Encoder
Selected bitrate : 896 kBit/s
Quality : High
Add ID3 tag : No
Command line compressor : F:\flac.exe
Additional command line options : -8 -V -T "ARTIST=%artist%" -T "TITLE=%title%" -T "ALBUM=%albumtitle%" -T "DATE=%year%" -T "TRACKNUMBER=%tracknr%" -T "GENRE=%genre%" -T "COMMENT=Ripped by waddaw" -T "BAND=%albuminterpret%" -T "ALBUMARTIST=%albuminterpret%" -T "COMPOSER=%composer%" %haslyrics%–tag-from-file=LYRICS="%lyricsfile%"%haslyrics% -T "DISCNUMBER=%cdnumber%" -T "TOTALDISCS=%totalcds%" -T "TOTALTRACKS=%numtracks%" %hascover%–picture="%coverfile%"%hascover% %source% -o %dest%


TOC of the extracted CD

Track | Start | Length | Start sector | End sector
––––––––––––––––––––––––––––-
1 | 0:00.00 | 4:59.72 | 0 | 22496
2 | 4:59.72 | 5:05.53 | 22497 | 45424
3 | 10:05.50 | 6:33.43 | 45425 | 74942
4 | 16:39.18 | 4:42.56 | 74943 | 96148
5 | 21:21.74 | 9:46.39 | 96149 | 140137
6 | 31:08.38 | 4:49.72 | 140138 | 161884
7 | 35:58.35 | 4:44.48 | 161885 | 183232
8 | 40:43.08 | 6:51.35 | 183233 | 214092
9 | 47:34.43 | 4:57.63 | 214093 | 236430
10 | 52:32.31 | 4:42.01 | 236431 | 257581
11 | 57:14.32 | 3:18.61 | 257582 | 272492
12 | 60:33.18 | 1:44.72 | 272493 | 280364
13 | 62:18.15 | 4:41.27 | 280365 | 301466
14 | 66:59.42 | 4:47.38 | 301467 | 323029


Range status and errors

Selected range

Filename F:\Björk - Utopia (2017) [FLAC CD]\Björk - Utopia.wav

Peak level 100.0 %
Extraction speed 8.1 X
Range quality 99.9 %
Test CRC 71673521
Copy CRC 71673521
Copy OK

No errors occurred

End of status report

–– AcoustID Plugin V1.2.0

Total fingerprints: 14


–– CUETools DB Plugin V2.1.6

[CTDB TOCID: gFHDR6ZOP8snnF8DMHOu.26XvMQ-] found
Submit result: already submitted
Track | CTDB Status
1 | (2/2) Accurately ripped
2 | (2/2) Accurately ripped
3 | (2/2) Accurately ripped
4 | (2/2) Accurately ripped
5 | (2/2) Accurately ripped
6 | (2/2) Accurately ripped
7 | (2/2) Accurately ripped
8 | (2/2) Accurately ripped
9 | (2/2) Accurately ripped
10 | (2/2) Accurately ripped
11 | (2/2) Accurately ripped
12 | (2/2) Accurately ripped
13 | (2/2) Accurately ripped
14 | (2/2) Accurately ripped


==== Log checksum 9C2950FBFE8F2754D723255B3B7B354DFE4F2364F157C2CE4B4EFD0A6A3F054D ====


All thanks go to the original releaser