Subcategories
Please register here if you want to download anything!

If domain in your address bar is different from the list below
PLEASE LEAVE THAT SITE IMMEDIATELY
❗IT'S A DANGEROUS FAKE❗



Spicy Magazines for Men! ;-)

Black Sabbath: Singles Collection (1988 - 1999)

Posted By: v3122
Black Sabbath: Singles Collection (1988 - 1999)

Black Sabbath: Singles Collection (1988 - 1999)
EAC | Flac(Image) + Cue + Log & MP3 CBR 320Kbps
15CD | Label: Various | ~ 1851 or 547 Mb | Artwork(jpg) -> 343 Mb
Hard Rock / Classic Rock / Heavy Metal

Considered by many to be the first heavy metal band, Black Sabbath was formed in 1968 by Tony Iommi, Ozzy Osbourne, Geezer Butler and Bill Ward.
The band's original name was the Polka Tulk Blues Band (later shortened to Polka Tulk) and later on changed to Earth before becoming Black Sabbath inspired by an Italian horror movie of the same name.
The original line-up lasted until 1979, after which Osbourne was fired and replaced by Ronnie James Dio. The line-up changes would continue, with no line-up remaining intact for consecutive studio releases. Throughout the changes, only Tony Iommi and keyboardist Geoff Nicholls, who also joined the band in 1979, would remain with Black Sabbath, although Nicholls would not always be credited as a full member. In 1997, Iommi, Butler, Ward, and Osbourne reunited, touring and releasing a live album in 1998, although a long-rumored studio release did not appear (the group attempted to record a new album in 2001 with producer Rick Rubin but the sessions were scrapped). After that, the group periodically reunited to tour with Ozzy's "Ozzfest" tour. In 2004, longtime keyboardist Geoff Nicholls was replaced by Adam Wakeman for an Ozzfest tour. No reason was given for the replacement. In 2006, the original line-up was inducted into the Rock 'n' Roll Hall Of Fame.

In 2007, Tony Iommi, Geezer Butler, Ronnie James Dio, and drummer Vinny Appice (who were featured on 1981's "Mob Rules" and 1992's "Dehumanizer") announced that they would tour together as Heaven & Hell (2) (with Iommi, who owns the Black Sabbath name, deciding to keep the Black Sabbath name solely for the original line-up in light of their Rock 'n' Roll HOF induction) to support a Dio-era greatest hits release, which also featured 3 new Dio/Iommi compositions. A brand new live album was released under the Heaven & Hell name that same year, followed by a studio album in 2009.

In 2009, Osbourne sued Iommi over control of the Black Sabbath name. The lawsuit was settled the following year. In late 2011, it was announced that the original line-up would be recording and touring. Shortly, afterward, Bill Ward dropped out, stating he had been given a contract that was "unsignable". The three remaining members opted to continue without him. In 2013, the band released "13", their first studio album with Osbourne in 34 years. The band played their final live show in Birmingham, UK, on February 4, 2017. Although the band has announced that full-scale touring is done, Tony Iommi has stated that the door is still open for future music and possible live appearances.

Line-Ups:
Guitar:
Tony Iommi - 1968-2017

Vocals:
Ozzy Osbourne - 1968-1977, 1978-1979, 1997-2017
Dave Walker - 1977-1978 (rehearsals and a TV appearance only)
Ronnie James Dio - 1979-1982, 1991-1992
Ian Gillan - 1983-1984
Glenn Hughes - 1985-1986
Ray Gillen - 1986-1987 (live only)
Tony Martin - 1987-1991, 1993-1996

Bass:
Geezer Butler - 1968-1984, 1991-1994, 1997-2017
Craig Gruber - 1979 (rehearsals only while Butler contemplated leaving the band, the extent of his participation has been disputed)
Gordon Copley -1985 (rehearsals and one studio track only)
Dave "The Beast" Spitz - 1985-1986, 1987 (live appearances only in 1987)
Bob Daisley - 1987 (studio only)
Jo Bert - 1987 (live only)
Laurence Cottle - 1988 (studio only)
Neil Murray - 1989-1992, 1995-1996

Drums:
Bill Ward - 1968-1980, 1983 (studio only in 1983), 1994 (live appearances), 1997-2011
Vinny Appice - 1981-1982, 1991-1992, 1998 (live only in 1998, filling in for a sick Bill Ward)
Bev Bevan - 1983-1984, 1987 (live only)
Eric Singer - 1985-1987
Terry Chimes - 1987-1988 (live only)
Cozy Powell - 1988-1991, 1994-1995
Bobby Rondinelli - 1993-1994, 1995 (live appearances only in 1995)
Mike Bordin - 1997 (live only, not a full member)
Brad Wilk - 2013 (studio only, not a full member)
Tommy Clufetos - 2012-2017 (live only, not a full member)

Keyboards:
Rick Wakeman - 1973 (studio only, not a full member)
Jezz Woodruffe - ?-1977 (not a full member)
Don Airey - 1978 (not a full member)
Geoff Nicholls - 1979-2004
Adam Wakeman - 2004-2017 (live only, not a full member)

~ discogs
Black Sabbath: Singles Collection (1988 - 1999)

Black Sabbath: Singles Collection (1988 - 1999):

Tracklist CD1 - 1988 Black Sabbath [France CD3-5 Castle]:

01. Paranoid - 2:49
02. Iron Man - 5:56
03. War Pigs - 7:53

Exact Audio Copy V1.0 beta 3 from 29. August 2011

EAC extraction logfile from 24. October 2013, 23:13

Black Sabbath / Black Sabbath (3" CD Single CD3-5)

Used drive : BUFFALO Optical Drive Adapter: 2 ID: 1

Read mode : Secure
Utilize accurate stream : Yes
Defeat audio cache : Yes
Make use of C2 pointers : No

Read offset correction : 6
Overread into Lead-In and Lead-Out : No
Fill up missing offset samples with silence : Yes
Delete leading and trailing silent blocks : No
Null samples used in CRC calculations : Yes
Used interface : Native Win32 interface for Win NT & 2000

Used output format : User Defined Encoder
Selected bitrate : 1024 kBit/s
Quality : High
Add ID3 tag : No
Command line compressor : C:\Program Files\Exact Audio Copy\Flac\flac.exe
Additional command line options : -8 -V %source% -o %dest%


TOC of the extracted CD

Track | Start | Length | Start sector | End sector
––––––––––––––––––––––––––––-
1 | 0:00.33 | 2:48.67 | 33 | 12699
2 | 2:49.25 | 5:55.73 | 12700 | 39397
3 | 8:45.23 | 7:52.65 | 39398 | 74862


Range status and errors

Selected range

Filename C:\BLACK SABBATH\Black Sabbath - Black Sabbath (3'' CD Single CD3-5).wav

Peak level 87.5 %
Extraction speed 1.4 X
Range quality 100.0 %
Test CRC 6FC98D8C
Copy CRC 6FC98D8C
Copy OK

No errors occurred


AccurateRip summary

Track 1 accurately ripped (confidence 2) [E27F502E] (AR v2)
Track 2 accurately ripped (confidence 2) [F7A460D9] (AR v2)
Track 3 accurately ripped (confidence 1) [CCF39673] (AR v2)

All tracks accurately ripped

End of status report

==== Log checksum B9835037AF84D9697280605D9641BF07F41E48B7C14133173EEBD80096FD6AF6 ====


Tracklist CD2 - 1989 Paranoid 3'' Single [Austria OG 6129 Old Gold Records Ltd]:

01. Paranoid - 2:52
02. Electric Funeral - 4:51
03. Sabbath Bloody Sabbath - 5:42

Exact Audio Copy V1.0 beta 3 from 29. August 2011

EAC extraction logfile from 26. July 2013, 21:10

Black Sabbath / Paranoid / Electric Funeral / Sabath Bloddy Sabbath 3'' CD Single

Used drive : BUFFALO Optical Drive Adapter: 2 ID: 0

Read mode : Secure
Utilize accurate stream : Yes
Defeat audio cache : Yes
Make use of C2 pointers : No

Read offset correction : 6
Overread into Lead-In and Lead-Out : No
Fill up missing offset samples with silence : Yes
Delete leading and trailing silent blocks : No
Null samples used in CRC calculations : Yes
Used interface : Native Win32 interface for Win NT & 2000

Used output format : User Defined Encoder
Selected bitrate : 1024 kBit/s
Quality : High
Add ID3 tag : No
Command line compressor : C:\Program Files\Exact Audio Copy\Flac\flac.exe
Additional command line options : -8 -V %source% -o %dest%


TOC of the extracted CD

Track | Start | Length | Start sector | End sector
––––––––––––––––––––––––––––-
1 | 0:00.32 | 2:52.05 | 32 | 12936
2 | 2:52.37 | 4:51.03 | 12937 | 34764
3 | 7:43.40 | 5:41.67 | 34765 | 60406


Range status and errors

Selected range

Filename C:\BLACK SABBATH\Black Sabbath - Paranoid , Electric Funeral , Sabath Bloddy Sabbath 3'' CD Single.wav

Peak level 89.7 %
Extraction speed 1.1 X
Range quality 99.9 %
Test CRC 15556611
Copy CRC 15556611
Copy OK

No errors occurred


AccurateRip summary

Track 1 not present in database
Track 2 not present in database
Track 3 not present in database

None of the tracks are present in the AccurateRip database

End of status report

==== Log checksum D648580219177C941FA16115E93F99B372E7E83CF48EA88BB0BD51BCA4AEEF74 ====


Tracklist CD3 - 1989 Black Moon [USA IRSD-002 I.R.S.]:

01. Black Moon - 4:06
02. Cloak & Dagger - 4:38

Exact Audio Copy V0.99 prebeta 5 from 4. May 2009

Archivo Log de extracciones desde 1. Abril 2013, 16:21

BLACK SABBATH / Black Moon

Usar unidad : HL-DT-STDVDRAM GH22NS70 Adapter: 0 ID: 0

Modo de Lectura : Seguro
Utilizar Corriente Exacta : Sн
Descartar Audio cachй : Sн
Utilizar los punteros C2 : No

Correcciуn de Desplazamiento de Lectura : 667
Sobreleer tanto en Lead-In como en Lead-Out : No
Rellenar las muestras faltantes con silencios : Sн
Eliminar silencios inicial y final : No
Se han usado muestras nulas en los cбlculos CRC : Sн
Interfaz usada : Interfaz propio de Win32 para Windowns NT y 2000

Formato de Salida utilizado : Compresor definido por el usuario
Bitrate seleccionado : 32 kBit/s
Calidad : Alta
Aсadir Etiqueta ID3 : No
Compresor de linea de comandos : C:\Program Files (x86)\Exact Audio Copy\Flac\flac.exe
Opciones adicionales en lнnea de comandos : -6 -V %s


TOC del CD extraido

Pista | Inicio | Duraciуn | Sector inicial | Sector final
––––––––––––––––––––––––––––––-
1 | 0:00.00 | 4:06.25 | 0 | 18474
2 | 4:06.25 | 4:37.40 | 18475 | 39289


Gama de estados y errores

Seleccionar gama

Nombre de Archivo E:\Mъsica\EAC\Black Sabbath\BLACK SABBATH - Black Moon.wav

Nivel Pico 100.0 %
Gama de Calidad 100.0 %
Test CRC AD3C5D90
Copiar CRC AD3C5D90
Copia OK

Sin Errores


Resumen AccurateRip

Pista 1 no presente en la base de datos
Pista 2 no presente en la base de datos

Ninguna de las pistas estб presente en la base de datos AccurateRip

Final del Informe


Tracklist CD4 - 1989 Headless Cross [USA CD45-8202 I.R.S.]:

01. The Gates Of Hell - 1:06
02. Headless Cross - 6:30
03. Headless Cross (Edit) - 5:03

Exact Audio Copy V1.0 beta 2 from 29. April 2011

Отчёт EAC об извлечении, выполненном 9. января 2013, 19:05

Black Sabbath / Headless Cross

Дисковод: MATSHITADVD-RAM UJ8B1AS Adapter: 0 ID: 1

Режим чтения : Достоверность
Использование точного потока : Да
Отключение кэша аудио : Да
Использование указателей C2 : Нет

Коррекция смещения при чтении : 6
Способность читать области Lead-in и Lead-out : Нет
Заполнение пропущенных сэмплов тишиной : Да
Удаление блоков с тишиной в начале и конце : Нет
При вычислениях CRC использовались нулевые сэмплы : Да
Интерфейс : Встроенный Win32-интерфейс для Win NT/2000

Выходной формат : Пользовательский кодировщик
Выбранный битрейт : 768 kBit/s
Качество : Высокий
Добавление ID3-тега : Нет
Утилита сжатия : C:\Program Files (x86)\Exact Audio Copy\FLAC\FLAC.EXE
Дополнительные параметры : -6 -V -T "ARTIST=%artist%" -T "TITLE=%title%" -T "ALBUM=%albumtitle%" -T "DATE=%year%" -T "TRACKNUMBER=%tracknr%" -T "GENRE=%genre%" -T "COMMENT=%comment%" -T "BAND=%albuminterpret%" -T "COMPOSER=%composer%" %haslyrics%–tag-from-


TOC извлечённого CD

Трек | Старт | Длительность | Начальный сектор | Конечный сектор
––––––––––––––––––––––––––––––––––-
1 | 0:00.00 | 1:06.15 | 0 | 4964
2 | 1:06.15 | 6:30.37 | 4965 | 34251
3 | 7:36.52 | 5:02.48 | 34252 | 56949


Характеристики диапазона извлечения и сообщения об ошибках

Выбранный диапазон

Имя файла D:\MUSIC\Black Sabbath - Headless Cross single\Black Sabbath - Headless Cross.wav

Пиковый уровень 97.7 %
Скорость извлечения 3.2 X
Качество диапазона 100.0 %
CRC теста 64E5823C
CRC копии 64E5823C
Копирование… OK

Ошибок не произошло


AccurateRip: сводка

Трек 1 отсутствует в базе данных
Трек 2 отсутствует в базе данных
Трек 3 отсутствует в базе данных

Ни одного трека нет в базе AccurateRip

Конец отчёта

==== Контрольная сумма отчёта 315D6853635954E34A35C933CB8739BEDA29F5994508418CD54BC9329903CF95 ====


Tracklist CD5 - 1990 Feels Good To Me [UK EIRSCD 148 I.R.S.]:

01. Feels Good To Me (Edit) (4:48)
02. Heaven And Hell (9:54)
03. Paranoid (4:10)

Exact Audio Copy V1.0 beta 4 from 7. December 2014

EAC extraction logfile from 23. February 2015, 17:27

Black Sabbath / Feels Good To Me (EIRSCD 148)

Used drive : HL-DT-STDVDRAM GSA-T10N Adapter: 1 ID: 0

Read mode : Secure
Utilize accurate stream : Yes
Defeat audio cache : Yes
Make use of C2 pointers : No

Read offset correction : 667
Overread into Lead-In and Lead-Out : No
Fill up missing offset samples with silence : Yes
Delete leading and trailing silent blocks : No
Null samples used in CRC calculations : Yes
Used interface : Native Win32 interface for Win NT & 2000

Used output format : User Defined Encoder
Selected bitrate : 1024 kBit/s
Quality : High
Add ID3 tag : No
Command line compressor : C:\Program Files\Exact Audio Copy\Flac\flac.exe
Additional command line options : -8 -V %source% -o %dest%


TOC of the extracted CD

Track | Start | Length | Start sector | End sector
––––––––––––––––––––––––––––-
1 | 0:00.33 | 4:48.17 | 33 | 21649
2 | 4:48.50 | 9:53.70 | 21650 | 66194
3 | 14:42.45 | 4:10.08 | 66195 | 84952


Range status and errors

Selected range

Filename C:\BLACK SABBATH\Black Sabbath - Feels Good To Me (EIRSCD 148).wav

Peak level 80.7 %
Extraction speed 3.2 X
Range quality 100.0 %
Test CRC 7E466776
Copy CRC 7E466776
Copy OK

No errors occurred


AccurateRip summary

Track 1 accurately ripped (confidence 2) [E41576B0] (AR v2)
Track 2 accurately ripped (confidence 2) [66C1EA9C] (AR v2)
Track 3 accurately ripped (confidence 2) [B96A0C31] (AR v2)

All tracks accurately ripped

End of status report

–– CUETools DB Plugin V2.1.4

[CTDB TOCID: SpemjWk8UvgP6SCfVODeqaOO6fo-] found
Submit result: SpemjWk8UvgP6SCfVODeqaOO6fo- has been confirmed
Track | CTDB Status
1 | (1/1) Accurately ripped
2 | (1/1) Accurately ripped
3 | (1/1) Accurately ripped


==== Log checksum F6405EDAEE6742D6F281DE86ACAB585FEC4466E1491DF22F18C1A0A4F730BD0C ====


Tracklist CD6 - 1992 I [USA PRO-CD-5704 Reprise]:

01. I (5:12)

Exact Audio Copy V1.0 beta 4 from 7. December 2014

EAC extraction logfile from 23. February 2015, 17:11

Black Sabbath / I (PRO-CD-5704)

Used drive : HL-DT-STDVDRAM GSA-T10N Adapter: 1 ID: 0

Read mode : Secure
Utilize accurate stream : Yes
Defeat audio cache : Yes
Make use of C2 pointers : No

Read offset correction : 667
Overread into Lead-In and Lead-Out : No
Fill up missing offset samples with silence : Yes
Delete leading and trailing silent blocks : No
Null samples used in CRC calculations : Yes
Used interface : Native Win32 interface for Win NT & 2000

Used output format : User Defined Encoder
Selected bitrate : 1024 kBit/s
Quality : High
Add ID3 tag : No
Command line compressor : C:\Program Files\Exact Audio Copy\Flac\flac.exe
Additional command line options : -8 -V %source% -o %dest%


TOC of the extracted CD

Track | Start | Length | Start sector | End sector
––––––––––––––––––––––––––––-
1 | 0:00.00 | 5:11.52 | 0 | 23376


Range status and errors

Selected range

Filename C:\BLACK SABBATH\Black Sabbath - I (PRO-CD-5704).wav

Peak level 100.0 %
Extraction speed 2.0 X
Range quality 100.0 %
Test CRC 8D625D0A
Copy CRC 8D625D0A
Copy OK

No errors occurred


AccurateRip summary

Track 1 not present in database

None of the tracks are present in the AccurateRip database

End of status report

–– CUETools DB Plugin V2.1.4

[CTDB TOCID: sgvJSfwugftNpnDLHxl4AHro36s-] disk not present in database
Submit result: sgvJSfwugftNpnDLHxl4AHro36s- has been uploaded


==== Log checksum 18D87BF0DE4EAC028392B64E56143A519BB350716DA85523DFA46CF849BB5DB6 ====


Tracklist CD7 - 1992 Master Of Insanity [Holland 8 802 43 2 8 802 45 2 IRS]:

CD Red:
01. Master of Insanity - 4:10
02. TV Crimes (Live - Tampa, FL) - 4:23
03. Neon Knights (Live - Tampa, FL) - 5:22

Exact Audio Copy V1.0 beta 1 from 15. November 2010

EAC extraction logfile from 9. February 2012, 0:25

Black Sabbath / Master of Insanity

Used drive : Optiarc DVD RW AD-7203S Adapter: 3 ID: 1

Read mode : Secure
Utilize accurate stream : Yes
Defeat audio cache : Yes
Make use of C2 pointers : No

Read offset correction : 48
Overread into Lead-In and Lead-Out : No
Fill up missing offset samples with silence : Yes
Delete leading and trailing silent blocks : No
Null samples used in CRC calculations : Yes
Used interface : Native Win32 interface for Win NT & 2000

Used output format : User Defined Encoder
Selected bitrate : 96 kBit/s
Quality : High
Add ID3 tag : No
Command line compressor : C:\Program Files\Exact Audio Copy\Flac\flac.exe
Additional command line options : -6 -T "artist=%a" -T "title=%t" -T "album=%g" -T "date=%y" -T "tracknumber=%n" -T "genre=%m" %s


TOC of the extracted CD

Track | Start | Length | Start sector | End sector
––––––––––––––––––––––––––––-
1 | 0:00.33 | 4:09.42 | 33 | 18749
2 | 4:10.00 | 4:22.53 | 18750 | 38452
3 | 8:32.53 | 5:21.45 | 38453 | 62572


Range status and errors

Selected range

Filename C:\Uploads\Black Sabbath - Master Of Insanity\Digipak\Black Sabbath - Master of Insanity.wav

Peak level 95.3 %
Extraction speed 1.1 X
Range quality 100.0 %
Test CRC 2FB63E6D
Copy CRC 2FB63E6D
Copy OK

No errors occurred


AccurateRip summary

Track 1 not present in database
Track 2 accurately ripped (confidence 1) [E5BC1D03]
Track 3 accurately ripped (confidence 1) [C9A0FC10]

2 track(s) accurately ripped
1 track(s) not present in the AccurateRip database

Some tracks could not be verified as accurate

End of status report


Tracklist CD8 - 1992 Master Of Insanity [Holland 8 802 43 2 8 802 45 2 IRS]:

CD Blue:
01. Master Of Insanity - 4:09
02. Die Young (live) - 2:23
03. Children Of The Sea (live) - 6:34

Exact Audio Copy V1.0 beta 1 from 15. November 2010

EAC extraction logfile from 9. February 2012, 11:07

Black Sabbath / Master of Insanity

Used drive : Optiarc DVD RW AD-7203S Adapter: 3 ID: 1

Read mode : Secure
Utilize accurate stream : Yes
Defeat audio cache : Yes
Make use of C2 pointers : No

Read offset correction : 48
Overread into Lead-In and Lead-Out : No
Fill up missing offset samples with silence : Yes
Delete leading and trailing silent blocks : No
Null samples used in CRC calculations : Yes
Used interface : Native Win32 interface for Win NT & 2000

Used output format : User Defined Encoder
Selected bitrate : 96 kBit/s
Quality : High
Add ID3 tag : No
Command line compressor : C:\Program Files\Exact Audio Copy\Flac\flac.exe
Additional command line options : -6 -T "artist=%a" -T "title=%t" -T "album=%g" -T "date=%y" -T "tracknumber=%n" -T "genre=%m" %s


TOC of the extracted CD

Track | Start | Length | Start sector | End sector
––––––––––––––––––––––––––––-
1 | 0:00.33 | 4:09.10 | 33 | 18717
2 | 4:09.43 | 2:22.72 | 18718 | 29439
3 | 6:32.40 | 6:33.45 | 29440 | 58959


Range status and errors

Selected range

Filename C:\Uploads\Black Sabbath - Master Of Insanity\Slim Case (Blue)\Black Sabbath - Master of Insanity.wav

Peak level 100.0 %
Extraction speed 1.4 X
Range quality 100.0 %
Test CRC 4EDEEBB1
Copy CRC 4EDEEBB1
Copy OK

No errors occurred


AccurateRip summary

Track 1 accurately ripped (confidence 4) [084CAA75]
Track 2 accurately ripped (confidence 4) [BB6F6CED]
Track 3 accurately ripped (confidence 4) [654CE2FB]

All tracks accurately ripped

End of status report


Tracklist CD9 - 1992 Time Machine [USA PRO-CD-5311 Reprise]:

01. Time Machine - 4:18

Exact Audio Copy V1.0 beta 3 from 29. August 2011

EAC extraction logfile from 27. April 2014, 18:11

Black Sabbath / Time Machine (PRO-CD-5311)

Used drive : BUFFALO Optical Drive Adapter: 2 ID: 0

Read mode : Secure
Utilize accurate stream : Yes
Defeat audio cache : Yes
Make use of C2 pointers : No

Read offset correction : 6
Overread into Lead-In and Lead-Out : No
Fill up missing offset samples with silence : Yes
Delete leading and trailing silent blocks : No
Null samples used in CRC calculations : Yes
Used interface : Installed external ASPI interface

Used output format : User Defined Encoder
Selected bitrate : 1024 kBit/s
Quality : High
Add ID3 tag : No
Command line compressor : C:\Program Files\Exact Audio Copy\Flac\flac.exe
Additional command line options : -8 -V %source% -o %dest%


TOC of the extracted CD

Track | Start | Length | Start sector | End sector
––––––––––––––––––––––––––––-
1 | 0:00.32 | 4:17.60 | 32 | 19366


Range status and errors

Selected range

Filename C:\Black Sabbath - Time Machine (PRO-CD-5311).wav

Peak level 96.0 %
Extraction speed 1.0 X
Range quality 100.0 %
Test CRC 127380FF
Copy CRC 127380FF
Copy OK

No errors occurred


AccurateRip summary

Track 1 not present in database

None of the tracks are present in the AccurateRip database

End of status report

==== Log checksum 17BB6586F5F3E1A76EDD817DA0588D71ED7FFD7FE1717DC4411F1B7161C53495 ====


Tracklist CD10 - 1992 TV Crimes [Holland 7243 8 80130 2 4 EMI]:

01. TV Crimes - 4:01
02. Letters From Earth (Alternative Version) - 4:41
03. Time Machine (Wayne's World Version) - 4:19

Exact Audio Copy V1.0 beta 3 from 29. August 2011

EAC extraction logfile from 24. October 2013, 23:46

Black Sabbath / TV Crimes (Holland 7243 8 80130 2 4)

Used drive : BUFFALO Optical Drive Adapter: 2 ID: 1

Read mode : Secure
Utilize accurate stream : Yes
Defeat audio cache : Yes
Make use of C2 pointers : No

Read offset correction : 6
Overread into Lead-In and Lead-Out : No
Fill up missing offset samples with silence : Yes
Delete leading and trailing silent blocks : No
Null samples used in CRC calculations : Yes
Used interface : Native Win32 interface for Win NT & 2000

Used output format : User Defined Encoder
Selected bitrate : 1024 kBit/s
Quality : High
Add ID3 tag : No
Command line compressor : C:\Program Files\Exact Audio Copy\Flac\flac.exe
Additional command line options : -8 -V %source% -o %dest%


TOC of the extracted CD

Track | Start | Length | Start sector | End sector
––––––––––––––––––––––––––––-
1 | 0:00.33 | 4:00.70 | 33 | 18102
2 | 4:01.28 | 4:41.25 | 18103 | 39202
3 | 8:42.53 | 4:18.67 | 39203 | 58619


Range status and errors

Selected range

Filename C:\BLACK SABBATH\Black Sabbath - TV Crimes (Holland 7243 8 80130 2 4).wav

Peak level 100.0 %
Extraction speed 1.4 X
Range quality 100.0 %
Test CRC 97BC0A2C
Copy CRC 97BC0A2C
Copy OK

No errors occurred


AccurateRip summary

Track 1 accurately ripped (confidence 3) [5B5E98A7] (AR v1)
Track 2 accurately ripped (confidence 3) [D9AB05E5] (AR v1)
Track 3 accurately ripped (confidence 3) [F8E665A7] (AR v1)

All tracks accurately ripped

End of status report

==== Log checksum 90CC754F3E5D23935000D988AFC96602813C31D515B3DD9E3D62DD4FB2987B1E ====


Tracklist CD11 - 1995 Get A Grip [Holland CDSP111 I.R.S.]:

01. Get A Grip - 4:01

Exact Audio Copy V1.0 beta 3 from 29. August 2011

EAC extraction logfile from 1. December 2013, 18:02

Black Sabbath / Get A Grip (Holland CDSP111)

Used drive : BUFFALO Optical Drive Adapter: 2 ID: 0

Read mode : Secure
Utilize accurate stream : Yes
Defeat audio cache : Yes
Make use of C2 pointers : No

Read offset correction : 6
Overread into Lead-In and Lead-Out : No
Fill up missing offset samples with silence : Yes
Delete leading and trailing silent blocks : No
Null samples used in CRC calculations : Yes
Used interface : Native Win32 interface for Win NT & 2000

Used output format : User Defined Encoder
Selected bitrate : 1024 kBit/s
Quality : High
Add ID3 tag : No
Command line compressor : C:\Program Files\Exact Audio Copy\Flac\flac.exe
Additional command line options : -8 -V %source% -o %dest%


TOC of the extracted CD

Track | Start | Length | Start sector | End sector
––––––––––––––––––––––––––––-
1 | 0:00.33 | 4:01.32 | 33 | 18139


Range status and errors

Selected range

Filename F:\Black Sabbath - Get A Grip (Holland CDSP111).wav

Peak level 99.2 %
Extraction speed 0.9 X
Range quality 100.0 %
Test CRC 0B9248CA
Copy CRC 0B9248CA
Copy OK

No errors occurred


AccurateRip summary

Track 1 not present in database

None of the tracks are present in the AccurateRip database

End of status report

==== Log checksum 1C31D43D5F15DDCED3ADF58CFEF03C36E8216DA269A59417F152610E60754DE6 ====


Tracklist CD12 - 1998 Psycho Man [USA ESK 41026 Epic]:

01. Psycho Man (Danny Saber Remix Edit) - 4:17
02. Psycho Man (Radio Edit) - 4:06
03. Psycho Man (Album Version) - 5:23

Exact Audio Copy V1.0 beta 1 from 15. November 2010

EAC extraction logfile from 26. October 2011, 8:54

Black Sabbath / Psycho Man (CDS, ESK 41026)

Used drive : TSSTcorpCDDVDW SH-S223F Adapter: 3 ID: 0

Read mode : Secure
Utilize accurate stream : Yes
Defeat audio cache : Yes
Make use of C2 pointers : No

Read offset correction : 6
Overread into Lead-In and Lead-Out : No
Fill up missing offset samples with silence : Yes
Delete leading and trailing silent blocks : No
Null samples used in CRC calculations : Yes
Used interface : Native Win32 interface for Win NT & 2000

Used output format : Internal WAV Routines
Sample format : 44.100 Hz; 16 Bit; Stereo


TOC of the extracted CD

Track | Start | Length | Start sector | End sector
––––––––––––––––––––––––––––-
1 | 0:00.00 | 4:16.55 | 0 | 19254
2 | 4:16.55 | 4:05.70 | 19255 | 37699
3 | 8:22.50 | 5:23.12 | 37700 | 61936


Range status and errors

Selected range

Filename D:\.www.AvaxHome.ru.lossless\Black Sabbath - Psycho Man (CDS, ESK 41026).wav

Peak level 99.8 %
Extraction speed 0.8 X
Range quality 99.9 %
Test CRC 6FC0BA75
Copy CRC 6FC0BA75
Copy OK

No errors occurred


AccurateRip summary

Track 1 not present in database
Track 2 not present in database
Track 3 not present in database

None of the tracks are present in the AccurateRip database

End of status report

==== Log checksum C312B0A02F7D4AEE44C373504A6E32DF6192F0E96C3CE30C112D30134020E0F2 ====


Tracklist CD13 - 1998 Psycho Man [Austria SAMPCS 5513 Epic]:

01. Psycho Man (Radio Edit) - 4:06
02. Psycho Man (Danny Saber Remix) - 4:16

Exact Audio Copy V1.0 beta 3 from 29. August 2011

EAC extraction logfile from 25. October 2013, 0:30

Black Sabbath / Psycho Man (Austria SAMPCS 5513)

Used drive : BUFFALO Optical Drive Adapter: 2 ID: 1

Read mode : Secure
Utilize accurate stream : Yes
Defeat audio cache : Yes
Make use of C2 pointers : No

Read offset correction : 6
Overread into Lead-In and Lead-Out : No
Fill up missing offset samples with silence : Yes
Delete leading and trailing silent blocks : No
Null samples used in CRC calculations : Yes
Used interface : Native Win32 interface for Win NT & 2000

Used output format : User Defined Encoder
Selected bitrate : 1024 kBit/s
Quality : High
Add ID3 tag : No
Command line compressor : C:\Program Files\Exact Audio Copy\Flac\flac.exe
Additional command line options : -8 -V %source% -o %dest%


TOC of the extracted CD

Track | Start | Length | Start sector | End sector
––––––––––––––––––––––––––––-
1 | 0:00.00 | 4:06.00 | 0 | 18449
2 | 4:06.00 | 4:15.57 | 18450 | 37631


Range status and errors

Selected range

Filename C:\BLACK SABBATH\Black Sabbath - Psycho Man (Austria SAMPCS 5513).wav

Peak level 99.8 %
Extraction speed 1.3 X
Range quality 100.0 %
Test CRC E46AF132
Copy CRC E46AF132
Copy OK

No errors occurred


AccurateRip summary

Track 1 accurately ripped (confidence 1) [235D147C] (AR v1)
Track 2 accurately ripped (confidence 1) [592977F6] (AR v1)

All tracks accurately ripped

End of status report

==== Log checksum 283917F8B1894299E3CB7C44D4DDA75AFE8D66B1D0D973E867C00CF8157A6628 ====


Tracklist CD14 - 1998 Paranoid [Austria EPC 666599 2 Epic Sony]:

01. Paranoid (Live) - 3:52
02. Psycho Man (Radio Edit) - 4:06
03. Psycho Man (Danny Saber Remix Edit) - 4:16

Exact Audio Copy V1.0 beta 1 from 15. November 2010

EAC extraction logfile from 13. July 2011, 18:24

Black Sabbath / Paranoid (CDS, EPC 666599 2)

Used drive : SONY DVD RW AW-G170A Adapter: 1 ID: 0

Read mode : Secure
Utilize accurate stream : Yes
Defeat audio cache : Yes
Make use of C2 pointers : No

Read offset correction : 48
Overread into Lead-In and Lead-Out : No
Fill up missing offset samples with silence : Yes
Delete leading and trailing silent blocks : No
Null samples used in CRC calculations : Yes
Used interface : Native Win32 interface for Win NT & 2000

Used output format : Internal WAV Routines
Sample format : 44.100 Hz; 16 Bit; Stereo


TOC of the extracted CD

Track | Start | Length | Start sector | End sector
––––––––––––––––––––––––––––-
1 | 0:00.00 | 3:51.60 | 0 | 17384
2 | 3:51.60 | 4:05.52 | 17385 | 35811
3 | 7:57.37 | 4:15.55 | 35812 | 54991


Range status and errors

Selected range

Filename F:\.www.AvaxHome.ru.lossless\Black Sabbath - Paranoid (CDS, EPC 666599 2).wav

Peak level 99.8 %
Extraction speed 1.2 X
Range quality 100.0 %
Test CRC C4FB2462
Copy CRC C4FB2462
Copy OK

No errors occurred


AccurateRip summary

Track 1 accurately ripped (confidence 1) [47A33D8A]
Track 2 accurately ripped (confidence 1) [EDE8BED1]
Track 3 accurately ripped (confidence 1) [C3DEDD40]

All tracks accurately ripped

End of status report

==== Log checksum CE607C75E2EF3B732C6101887C48EEC742C3201526EFA56F76DE28EE8007C70F ====


Tracklist CD15 - 1999 Black Mass [Live 1970, NMC Ltd., PILOT49]:

01. Paranoid - 2:50
02. Black Sabbath - 6:34
03. Iron Man - 5:59
04. Blue Suede Shoes - 2:06

Exact Audio Copy V1.0 beta 3 from 29. August 2011

EAC extraction logfile from 29. November 2011, 20:40

Black Sabbath / Black Mass

Used drive : PIONEER DVD-RW DVR-219L Adapter: 4 ID: 0

Read mode : Secure
Utilize accurate stream : Yes
Defeat audio cache : Yes
Make use of C2 pointers : No

Read offset correction : 6
Overread into Lead-In and Lead-Out : No
Fill up missing offset samples with silence : Yes
Delete leading and trailing silent blocks : No
Null samples used in CRC calculations : Yes
Used interface : Native Win32 interface for Win NT & 2000

Used output format : Internal WAV Routines
Sample format : 44.100 Hz; 16 Bit; Stereo


TOC of the extracted CD

Track | Start | Length | Start sector | End sector
––––––––––––––––––––––––––––-
1 | 0:00.00 | 2:49.74 | 0 | 12748
2 | 2:49.74 | 6:33.73 | 12749 | 42296
3 | 9:23.72 | 5:59.25 | 42297 | 69246
4 | 15:23.22 | 2:06.31 | 69247 | 78727
5 | 20:01.53 | 49:54.29 | 90128 | 314706


Range status and errors

Selected range

Filename F:\.www.AvaxHome.ru.lossless\Black Sabbath - Black Mass.wav

Peak level 100.0 %
Extraction speed 6.2 X
Range quality 100.0 %
Test CRC 2C18A927
Copy CRC 2C18A927
Copy OK

No errors occurred


AccurateRip summary

Track 1 accurately ripped (confidence 4) [C2C46390] (AR v1)
Track 2 accurately ripped (confidence 4) [7D7355B5] (AR v1)
Track 3 accurately ripped (confidence 4) [6C1E1379] (AR v1)
Track 4 accurately ripped (confidence 4) [7F4A42F7] (AR v1)

All tracks accurately ripped

End of status report

==== Log checksum 2EA10DFB236557DEA09DAB205B087E7719CD40FC85F0E2C212954CCBEC4FF0CC ====


All thanks go to the original releasers

Black Sabbath in my Blog

Download Black Sabbath: Singles Collection (1988 - 1999):