Subcategories

Black Sabbath - The Ozzy Osbourne Years (1991) {3CD Box Set}

Posted By: popsakov
Black Sabbath - The Ozzy Osbourne Years (1991) {3CD Box Set}

Black Sabbath - The Ozzy Osbourne Years (1991) {3CD Box Set}
EAC Rip | FLAC (Img) + Cue + Log ~ 1,41 Gb | MP3 CBR320 ~ 569 Mb
Full Scans (JPG, 600 dpi) ~ 34 Mb | RAR 5% Recovery
Hard Rock, Heavy Metal | Castle Communications / Essential! Records #ESBCD 142

This import, three-CD box set collects Black Sabbath's first six albums in near-entirety, excising a few lesser tracks and shorter instrumental pieces like "Laguna Sunrise," the only track from We Sold Our Soul for Rock 'n' Roll not present ("Children of the Grave" is here, but mistitled "Embryo," which is actually its instrumental introduction). The tracks are ordered chronologically, often in their original LP sequence. It isn't as necessary to hear Sabbath's albums in their original forms as, for example, Led Zeppelin's, so if you can find it, this set is a less expensive (and definitive) way to acquire all of Black Sabbath's worthwhile material at once.
~ Steve Huey, All Music
Black Sabbath - The Ozzy Osbourne Years (1991) {3CD Box Set}


***************

Black Sabbath - The Ozzy Osbourne Years (1991) {3CD Box Set}

Track List CD1:

01. Black Sabbath [6:21]
02. The Wizard [4:25]
03. Behind The Wall Of Sleep [3:38]
04. N.I.B. [6:09]
05. Evil Woman [3:25]
06. Sleeping Village [10:45]
07. Warning [3:33]
08. War Pigs [7:54]
09. Paranoid [2:49]
10. Planet Caravan [4:25]
11. Iron Man [5:55]
12. Hand Of Doom [7:09]
13. Fairies Wear Boots [6:12]

Exact Audio Copy V1.3 from 2. September 2016

EAC extraction logfile from 27. March 2018, 10:18

Black Sabbath / The Ozzy Osbourne Years (Disc 1)

Used drive : ATAPI iHAS122 C Adapter: 1 ID: 0

Read mode : Secure
Utilize accurate stream : Yes
Defeat audio cache : Yes
Make use of C2 pointers : No

Read offset correction : 6
Overread into Lead-In and Lead-Out : No
Fill up missing offset samples with silence : Yes
Delete leading and trailing silent blocks : No
Null samples used in CRC calculations : Yes
Used interface : Native Win32 interface for Win NT & 2000

Used output format : Internal WAV Routines
Sample format : 44.100 Hz; 16 Bit; Stereo


TOC of the extracted CD

Track | Start | Length | Start sector | End sector
––––––––––––––––––––––––––––-
1 | 0:00.33 | 6:21.20 | 33 | 28627
2 | 6:21.53 | 4:24.57 | 28628 | 48484
3 | 10:46.35 | 3:37.38 | 48485 | 64797
4 | 14:23.73 | 6:08.52 | 64798 | 92449
5 | 20:32.50 | 3:24.60 | 92450 | 107809
6 | 23:57.35 | 10:44.38 | 107810 | 156147
7 | 34:41.73 | 3:33.00 | 156148 | 172122
8 | 38:14.73 | 7:54.05 | 172123 | 207677
9 | 46:09.03 | 2:49.02 | 207678 | 220354
10 | 48:58.05 | 4:25.35 | 220355 | 240264
11 | 53:23.40 | 5:54.48 | 240265 | 266862
12 | 59:18.13 | 7:09.02 | 266863 | 299039
13 | 66:27.15 | 6:11.60 | 299040 | 326924


Range status and errors

Selected range

Filename C:\Users\London\Desktop\Black Sabbath - The Ozzy Osbourne Years (Disc 1).wav

Peak level 100.0 %
Extraction speed 9.6 X
Range quality 100.0 %
Test CRC 00D798CB
Copy CRC 00D798CB
Copy OK

No errors occurred


AccurateRip summary

Track 1 accurately ripped (confidence 29) [C7775EB7] (AR v2)
Track 2 accurately ripped (confidence 29) [2A96E425] (AR v2)
Track 3 accurately ripped (confidence 30) [BE503C6F] (AR v2)
Track 4 accurately ripped (confidence 32) [D3CF0060] (AR v2)
Track 5 accurately ripped (confidence 31) [F89357A7] (AR v2)
Track 6 accurately ripped (confidence 29) [A6320BC9] (AR v2)
Track 7 accurately ripped (confidence 31) [001D0DFB] (AR v2)
Track 8 accurately ripped (confidence 29) [6BDDFB2F] (AR v2)
Track 9 accurately ripped (confidence 30) [200C5234] (AR v2)
Track 10 accurately ripped (confidence 31) [077D158B] (AR v2)
Track 11 accurately ripped (confidence 31) [9102F12A] (AR v2)
Track 12 accurately ripped (confidence 30) [4D55E1D7] (AR v2)
Track 13 accurately ripped (confidence 29) [66989C52] (AR v2)

All tracks accurately ripped

End of status report

–– CUETools DB Plugin V2.1.6

[CTDB TOCID: bShk8_ZqqeBjc_VKtu_jp9UMu1o-] found
Submit result: bShk8_ZqqeBjc_VKtu_jp9UMu1o- has been confirmed
Track | CTDB Status
1 | (40/46) Accurately ripped
2 | (40/46) Accurately ripped
3 | (40/46) Accurately ripped
4 | (40/46) Accurately ripped
5 | (40/46) Accurately ripped
6 | (39/46) Accurately ripped
7 | (41/46) Accurately ripped
8 | (40/46) Accurately ripped
9 | (40/46) Accurately ripped
10 | (41/46) Accurately ripped
11 | (39/46) Accurately ripped
12 | (37/46) Accurately ripped
13 | (38/46) Accurately ripped


==== Log checksum 579F10E0500826E848B1D09425AB0FE92610585C25DEE5387F173EC38004A9FA ====

foobar2000 1.3.16 / Dynamic Range Meter 1.1.1
log date: 2018-03-28 22:10:45

––––––––––––––––––––––––––––––––––––––––
Analyzed: Black Sabbath / The Ozzy Osbourne Years (Disc 1)
––––––––––––––––––––––––––––––––––––––––

DR Peak RMS Duration Track
––––––––––––––––––––––––––––––––––––––––
DR11 0.00 dB -15.05 dB 6:21 01-Black Sabbath
DR11 -0.65 dB -14.79 dB 4:25 02-The Wizard
DR11 -0.61 dB -13.63 dB 3:38 03-Behind The Wall Of Sleep
DR11 -0.74 dB -13.62 dB 6:09 04-N.I.B.
DR12 -0.85 dB -14.98 dB 3:25 05-Evil Woman
DR12 0.00 dB -14.19 dB 10:45 06-Sleeping Village
DR11 -0.70 dB -14.92 dB 3:33 07-Warning
DR13 0.00 dB -15.40 dB 7:54 08-War Pigs
DR12 0.00 dB -13.18 dB 2:49 09-Paranoid
DR15 -4.08 dB -21.36 dB 4:25 10-Planet Caravan
DR14 0.00 dB -15.07 dB 5:55 11-Iron Man
DR12 0.00 dB -15.15 dB 7:09 12-Hand Of Doom
DR12 0.00 dB -12.95 dB 6:12 13-Fairies Wear Boots
––––––––––––––––––––––––––––––––––––––––

Number of tracks: 13
Official DR value: DR12

Samplerate: 44100 Hz
Channels: 2
Bits per sample: 16
Bitrate: 824 kbps
Codec: FLAC
================================================================================

[CUETools log; Date: 28.03.2018 22:10:56; Version: 2.1.6]
Pregap length 00:00:33.
[CTDB TOCID: bShk8_ZqqeBjc_VKtu_jp9UMu1o-] found.
Track | CTDB Status
1 | (41/47) Accurately ripped
2 | (41/47) Accurately ripped
3 | (41/47) Accurately ripped
4 | (41/47) Accurately ripped
5 | (41/47) Accurately ripped
6 | (40/47) Accurately ripped
7 | (42/47) Accurately ripped
8 | (41/47) Accurately ripped
9 | (41/47) Accurately ripped
10 | (42/47) Accurately ripped
11 | (40/47) Accurately ripped
12 | (38/47) Accurately ripped
13 | (39/47) Accurately ripped
[AccurateRip ID: 00220d31-015627a3-c511070d] found.
Track [ CRC | V2 ] Status
01 [dea195cc|c7775eb7] (43+29/72) Accurately ripped
02 [982fe445|2a96e425] (47+29/76) Accurately ripped
03 [a0e83558|be503c6f] (46+30/76) Accurately ripped
04 [db333727|d3cf0060] (47+32/79) Accurately ripped
05 [7f6f7df5|f89357a7] (46+31/77) Accurately ripped
06 [fd884039|a6320bc9] (45+29/74) Accurately ripped
07 [e8725295|001d0dfb] (45+31/76) Accurately ripped
08 [c63ab44a|6bddfb2f] (46+29/75) Accurately ripped
09 [23322462|200c5234] (47+30/77) Accurately ripped
10 [e0fe9694|077d158b] (45+31/76) Accurately ripped
11 [fb0142af|9102f12a] (47+31/78) Accurately ripped
12 [83f4ca67|4d55e1d7] (45+30/75) Accurately ripped
13 [e8275761|66989c52] (46+29/75) Accurately ripped

Track Peak [ CRC32 ] [W/O NULL] [ LOG ]
– 100,0 [00D798CB] [B817A385] CRC32
01 100,0 [A66DDF90] [819C5894]
02 92,8 [F0B8510D] [C542F5B4]
03 93,2 [B8D41EF6] [323FBCAF]
04 91,7 [CD05446B] [3AF7CD07]
05 90,6 [6EFEF893] [65EA0779]
06 100,0 [4D0B72D6] [45A2682F]
07 92,2 [3074C391] [85B9DF4E]
08 100,0 [8283B220] [4911E3A4]
09 100,0 [DF158F6D] [21B98127]
10 62,5 [D1693025] [55398C63]
11 100,0 [9CDEFDF7] [12088CD6]
12 100,0 [58E33A9A] [7B1DE6AE]
13 100,0 [EADBA0F5] [906A16B2]

Track List CD2:

01. Electric Funeral [4:48]
02. Sweet Leaf [5:05]
03. After Forever [5:27]
04. Embryo [5:01]
05. Lord of This World [5:26]
06. Solitude [5:02]
07. Into the Void [6:13]
08. Wheels of Confusion [8:00]
09. Tomorrow's Dream [3:07]
10. Changes [4:43]
11. Supernaut [4:44]
12. Snowblind [5:28]
13. Cornucopia [3:52]
14. St. Vitus Dance [2:26]
15. Under the Sun [5:50]

Exact Audio Copy V1.3 from 2. September 2016

EAC extraction logfile from 27. March 2018, 11:08

Black Sabbath / The Ozzy Osbourne Years (Disc 2)

Used drive : ATAPI iHAS122 C Adapter: 1 ID: 0

Read mode : Secure
Utilize accurate stream : Yes
Defeat audio cache : Yes
Make use of C2 pointers : No

Read offset correction : 6
Overread into Lead-In and Lead-Out : No
Fill up missing offset samples with silence : Yes
Delete leading and trailing silent blocks : No
Null samples used in CRC calculations : Yes
Used interface : Native Win32 interface for Win NT & 2000

Used output format : Internal WAV Routines
Sample format : 44.100 Hz; 16 Bit; Stereo


TOC of the extracted CD

Track | Start | Length | Start sector | End sector
––––––––––––––––––––––––––––-
1 | 0:00.33 | 4:48.27 | 33 | 21659
2 | 4:48.60 | 5:04.65 | 21660 | 44524
3 | 9:53.50 | 5:27.20 | 44525 | 69069
4 | 15:20.70 | 5:01.03 | 69070 | 91647
5 | 20:21.73 | 5:26.35 | 91648 | 116132
6 | 25:48.33 | 5:02.12 | 116133 | 138794
7 | 30:50.45 | 6:12.65 | 138795 | 166759
8 | 37:03.35 | 8:00.10 | 166760 | 202769
9 | 45:03.45 | 3:07.25 | 202770 | 216819
10 | 48:10.70 | 4:42.68 | 216820 | 238037
11 | 52:53.63 | 4:43.65 | 238038 | 259327
12 | 57:37.53 | 5:28.20 | 259328 | 283947
13 | 63:05.73 | 3:51.55 | 283948 | 301327
14 | 66:57.53 | 2:26.22 | 301328 | 312299
15 | 69:24.00 | 5:49.70 | 312300 | 338544


Range status and errors

Selected range

Filename C:\Users\London\Desktop\Black Sabbath - The Ozzy Osbourne Years (Disc 2).wav

Peak level 100.0 %
Extraction speed 9.7 X
Range quality 100.0 %
Test CRC 9B0EB297
Copy CRC 9B0EB297
Copy OK

No errors occurred


AccurateRip summary

Track 1 accurately ripped (confidence 29) [B63338EF] (AR v2)
Track 2 accurately ripped (confidence 30) [DC7D9855] (AR v2)
Track 3 accurately ripped (confidence 28) [39260C7C] (AR v2)
Track 4 accurately ripped (confidence 28) [0F698838] (AR v2)
Track 5 accurately ripped (confidence 30) [5CEA7208] (AR v2)
Track 6 accurately ripped (confidence 28) [8F7A9F29] (AR v2)
Track 7 accurately ripped (confidence 29) [6B2E3594] (AR v2)
Track 8 accurately ripped (confidence 28) [E658E155] (AR v2)
Track 9 accurately ripped (confidence 29) [2F62DC52] (AR v2)
Track 10 accurately ripped (confidence 29) [5D0DD6D3] (AR v2)
Track 11 accurately ripped (confidence 29) [D353C989] (AR v2)
Track 12 accurately ripped (confidence 30) [F4BE1B46] (AR v2)
Track 13 accurately ripped (confidence 30) [9CAE6A70] (AR v2)
Track 14 accurately ripped (confidence 29) [DFEE4874] (AR v2)
Track 15 accurately ripped (confidence 28) [EDBFA370] (AR v2)

All tracks accurately ripped

End of status report

–– CUETools DB Plugin V2.1.6

[CTDB TOCID: cjRamLTHmB7sX.PTcq1LqTcjct8-] found
Submit result: cjRamLTHmB7sX.PTcq1LqTcjct8- has been confirmed
Track | CTDB Status
1 | (40/42) Accurately ripped
2 | (39/42) Accurately ripped
3 | (38/42) Accurately ripped
4 | (37/42) Accurately ripped
5 | (38/42) Accurately ripped
6 | (38/42) Accurately ripped
7 | (37/42) Accurately ripped
8 | (37/42) Accurately ripped
9 | (38/42) Accurately ripped
10 | (38/42) Accurately ripped
11 | (39/42) Accurately ripped
12 | (38/42) Accurately ripped
13 | (37/42) Accurately ripped
14 | (38/42) Accurately ripped
15 | (38/42) Accurately ripped


==== Log checksum CA855776D93AFB7AE1710260C048A8F21A8021B0E9040BD8A933B984BED594CD ====

foobar2000 1.3.16 / Dynamic Range Meter 1.1.1
log date: 2018-03-28 22:09:02

––––––––––––––––––––––––––––––––––––––––
Analyzed: Black Sabbath / The Ozzy Osbourne Years (Disc 2)
––––––––––––––––––––––––––––––––––––––––

DR Peak RMS Duration Track
––––––––––––––––––––––––––––––––––––––––
DR11 -0.34 dB -13.72 dB 4:48 01-Electric Funeral
DR13 0.00 dB -14.68 dB 5:05 02-Sweet Leaf
DR12 -1.29 dB -15.00 dB 5:27 03-After Forever
DR14 0.00 dB -16.62 dB 5:01 04-Embryo
DR13 -0.37 dB -15.37 dB 5:26 05-Lord of This World
DR11 -4.39 dB -20.42 dB 5:02 06-Solitude
DR14 0.00 dB -15.74 dB 6:13 07-Into the Void
DR11 -0.48 dB -13.91 dB 8:00 08-Wheels of Confusion
DR10 -2.95 dB -15.15 dB 3:07 09-Tomorrow's Dream
DR12 -1.81 dB -16.31 dB 4:43 10-Changes
DR11 -0.38 dB -14.39 dB 4:44 11-Supernaut
DR12 -1.82 dB -16.49 dB 5:28 12-Snowblind
DR13 -0.94 dB -17.24 dB 3:52 13-Cornucopia
DR11 -1.15 dB -13.84 dB 2:26 14-St. Vitus Dance
DR12 0.00 dB -14.39 dB 5:50 15-Under the Sun
––––––––––––––––––––––––––––––––––––––––

Number of tracks: 15
Official DR value: DR12

Samplerate: 44100 Hz
Channels: 2
Bits per sample: 16
Bitrate: 790 kbps
Codec: FLAC
================================================================================

[CUETools log; Date: 28.03.2018 22:09:09; Version: 2.1.6]
Pregap length 00:00:33.
[CTDB TOCID: cjRamLTHmB7sX.PTcq1LqTcjct8-] found.
Track | CTDB Status
1 | (41/43) Accurately ripped
2 | (40/43) Accurately ripped
3 | (39/43) Accurately ripped
4 | (38/43) Accurately ripped
5 | (39/43) Accurately ripped
6 | (39/43) Accurately ripped
7 | (38/43) Accurately ripped
8 | (38/43) Accurately ripped
9 | (39/43) Accurately ripped
10 | (39/43) Accurately ripped
11 | (40/43) Accurately ripped
12 | (39/43) Accurately ripped
13 | (38/43) Accurately ripped
14 | (39/43) Accurately ripped
15 | (39/43) Accurately ripped
[AccurateRip ID: 002ac025-01e2eaff-db11a10f] found.
Track [ CRC | V2 ] Status
01 [a78cf72f|b63338ef] (43+29/72) Accurately ripped
02 [43acc9a2|dc7d9855] (44+30/74) Accurately ripped
03 [35519912|39260c7c] (44+28/72) Accurately ripped
04 [2d4b6e53|0f698838] (44+28/72) Accurately ripped
05 [be3197f4|5cea7208] (42+30/72) Accurately ripped
06 [46c3ff1f|8f7a9f29] (43+28/71) Accurately ripped
07 [cf2ae559|6b2e3594] (43+29/72) Accurately ripped
08 [f792d340|e658e155] (43+28/71) Accurately ripped
09 [386edad3|2f62dc52] (44+29/73) Accurately ripped
10 [cf0fc926|5d0dd6d3] (44+29/73) Accurately ripped
11 [4fd1fb55|d353c989] (43+29/72) Accurately ripped
12 [2bdef49d|f4be1b46] (43+30/73) Accurately ripped
13 [6bd2a0e0|9cae6a70] (42+30/72) Accurately ripped
14 [1d6e4c60|dfee4874] (42+29/71) Accurately ripped
15 [94adad43|edbfa370] (42+28/70) Accurately ripped

Track Peak [ CRC32 ] [W/O NULL] [ LOG ]
– 100,0 [9B0EB297] [7F03327E] CRC32
01 96,1 [BEC09A72] [B44E8E9E]
02 100,0 [A7167AAA] [DEB4F86A]
03 86,2 [7A1ACB14] [025BD867]
04 100,0 [DBC478C1] [7B066E87]
05 95,8 [8D7DF2D5] [FCAF3CCE]
06 60,3 [F3744BFE] [2DAF5A38]
07 100,0 [D753EC0A] [5453FC9A]
08 94,6 [459BAF8B] [FB1609DB]
09 71,1 [DF04D5BE] [16FE6E5D]
10 81,2 [49577A61] [16C37C67]
11 95,6 [1F3F81AB] [04A00AA1]
12 81,1 [F5094BCE] [071F9CC2]
13 89,7 [76A15323] [D54D7C30]
14 87,6 [65903B85] [A9D011B7]
15 100,0 [CD5AD746] [2A281BF6]

Track List CD3:

01. Sabbath Bloody Sabbath [5:47]
02. A National Acrobat [6:17]
03. Sabbra Cadabra [5:57]
04. Killing Yourself To Live [5:41]
05. Who Are You [4:11]
06. Looking For Today [5:00]
07. Spiral Architect [5:30]
08. Hole In The Sky [4:00]
09. Symptom Of The Universe [6:30]
10. Am I Going Insane (Radio) [4:17]
11. Thrill Of It All [5:54]
12. Meglomania [9:42]
13. The Writ [7:46]

Exact Audio Copy V1.3 from 2. September 2016

EAC extraction logfile from 27. March 2018, 9:56

Black Sabbath / The Ozzy Osbourne Years (Disc 3)

Used drive : ATAPI iHAS122 C Adapter: 1 ID: 0

Read mode : Secure
Utilize accurate stream : Yes
Defeat audio cache : Yes
Make use of C2 pointers : No

Read offset correction : 6
Overread into Lead-In and Lead-Out : No
Fill up missing offset samples with silence : Yes
Delete leading and trailing silent blocks : No
Null samples used in CRC calculations : Yes
Used interface : Native Win32 interface for Win NT & 2000

Used output format : Internal WAV Routines
Sample format : 44.100 Hz; 16 Bit; Stereo


TOC of the extracted CD

Track | Start | Length | Start sector | End sector
––––––––––––––––––––––––––––-
1 | 0:00.32 | 5:46.55 | 32 | 26036
2 | 5:47.12 | 6:16.60 | 26037 | 54296
3 | 12:03.72 | 5:57.08 | 54297 | 81079
4 | 18:01.05 | 5:41.15 | 81080 | 106669
5 | 23:42.20 | 4:11.12 | 106670 | 125506
6 | 27:53.32 | 5:00.00 | 125507 | 148006
7 | 32:53.32 | 5:30.18 | 148007 | 172774
8 | 38:23.50 | 4:00.05 | 172775 | 190779
9 | 42:23.55 | 6:29.52 | 190780 | 220006
10 | 48:53.32 | 4:17.08 | 220007 | 239289
11 | 53:10.40 | 5:54.12 | 239290 | 265851
12 | 59:04.52 | 9:42.15 | 265852 | 309516
13 | 68:46.67 | 7:45.58 | 309517 | 344449


Range status and errors

Selected range

Filename C:\Users\London\Desktop\Black Sabbath - The Ozzy Osbourne Years (Disc 3).wav

Peak level 100.0 %
Extraction speed 3.8 X
Range quality 100.0 %
Test CRC 0225DA29
Copy CRC 0225DA29
Copy OK

No errors occurred


AccurateRip summary

Track 1 accurately ripped (confidence 32) [C9BD8BAA] (AR v2)
Track 2 accurately ripped (confidence 32) [21A0FED1] (AR v2)
Track 3 accurately ripped (confidence 31) [183001E4] (AR v2)
Track 4 accurately ripped (confidence 32) [90E3E632] (AR v2)
Track 5 accurately ripped (confidence 30) [FE9CF771] (AR v2)
Track 6 accurately ripped (confidence 31) [B0A1F162] (AR v2)
Track 7 accurately ripped (confidence 31) [D4A01A39] (AR v2)
Track 8 accurately ripped (confidence 31) [B5C1DB8A] (AR v2)
Track 9 accurately ripped (confidence 32) [1073912A] (AR v2)
Track 10 accurately ripped (confidence 31) [1338268C] (AR v2)
Track 11 accurately ripped (confidence 31) [61E055BC] (AR v2)
Track 12 accurately ripped (confidence 30) [B9555D26] (AR v2)
Track 13 accurately ripped (confidence 30) [F8D05936] (AR v2)

All tracks accurately ripped

End of status report

–– CUETools DB Plugin V2.1.6

[CTDB TOCID: Jz_vv2gTQDFO0wb_Qwx9nhGmmn8-] found
Submit result: Jz_vv2gTQDFO0wb_Qwx9nhGmmn8- has been confirmed
Track | CTDB Status
1 | (42/48) Accurately ripped
2 | (43/48) Accurately ripped
3 | (43/48) Accurately ripped
4 | (42/48) Accurately ripped
5 | (43/48) Accurately ripped
6 | (43/48) Accurately ripped
7 | (43/48) Accurately ripped
8 | (43/48) Accurately ripped
9 | (43/48) Accurately ripped
10 | (42/48) Accurately ripped
11 | (42/48) Accurately ripped
12 | (41/48) Accurately ripped
13 | (40/48) Accurately ripped


==== Log checksum A3B061EE703E6375EDE733AE1C6A62F3D82DEA31DA917FF047E9476AEFF90344 ====

foobar2000 1.3.16 / Dynamic Range Meter 1.1.1
log date: 2018-03-28 22:07:46

––––––––––––––––––––––––––––––––––––––––
Analyzed: Black Sabbath / The Ozzy Osbourne Years (Disc 3)
––––––––––––––––––––––––––––––––––––––––

DR Peak RMS Duration Track
––––––––––––––––––––––––––––––––––––––––
DR12 0.00 dB -12.98 dB 5:47 01-Sabbath Bloody Sabbath
DR11 0.00 dB -13.33 dB 6:17 02-A National Acrobat
DR12 0.00 dB -13.53 dB 5:57 03-Sabbra Cadabra
DR11 0.00 dB -12.28 dB 5:41 04-Killing Yourself To Live
DR11 0.00 dB -13.61 dB 4:11 05-Who Are You
DR12 0.00 dB -14.10 dB 5:00 06-Looking For Today
DR11 -0.61 dB -14.46 dB 5:30 07-Spiral Architect
DR11 0.00 dB -12.97 dB 4:00 08-Hole In The Sky
DR11 -0.09 dB -13.50 dB 6:30 09-Symptom Of The Universe
DR12 0.00 dB -12.99 dB 4:17 10-Am I Going Insane (Radio)
DR10 0.00 dB -11.84 dB 5:54 11-Thrill Of It All
DR10 -0.04 dB -12.89 dB 9:42 12-Meglomania
DR12 0.00 dB -13.72 dB 7:46 13-The Writ
––––––––––––––––––––––––––––––––––––––––

Number of tracks: 13
Official DR value: DR11

Samplerate: 44100 Hz
Channels: 2
Bits per sample: 16
Bitrate: 903 kbps
Codec: FLAC
================================================================================

[CUETools log; Date: 28.03.2018 22:08:01; Version: 2.1.6]
Pregap length 00:00:32.
[CTDB TOCID: Jz_vv2gTQDFO0wb_Qwx9nhGmmn8-] found.
Track | CTDB Status
1 | (43/49) Accurately ripped
2 | (44/49) Accurately ripped
3 | (44/49) Accurately ripped
4 | (43/49) Accurately ripped
5 | (44/49) Accurately ripped
6 | (44/49) Accurately ripped
7 | (44/49) Accurately ripped
8 | (44/49) Accurately ripped
9 | (44/49) Accurately ripped
10 | (43/49) Accurately ripped
11 | (43/49) Accurately ripped
12 | (42/49) Accurately ripped
13 | (41/49) Accurately ripped
[AccurateRip ID: 0022db0d-015c59ab-bd11f00d] found.
Track [ CRC | V2 ] Status
01 [ae6f9201|c9bd8baa] (45+32/82) Accurately ripped
02 [9bf8feb4|21a0fed1] (46+32/83) Accurately ripped
03 [7e03c1fd|183001e4] (46+31/82) Accurately ripped
04 [0f982963|90e3e632] (44+32/81) Accurately ripped
05 [3e578858|fe9cf771] (44+30/79) Accurately ripped
06 [eedd7883|b0a1f162] (45+31/81) Accurately ripped
07 [ce7470a2|d4a01a39] (45+31/81) Accurately ripped
08 [e061e850|b5c1db8a] (45+31/81) Accurately ripped
09 [bae77695|1073912a] (45+32/82) Accurately ripped
10 [e6a904e7|1338268c] (45+31/81) Accurately ripped
11 [fd52fa82|61e055bc] (45+31/79) Accurately ripped
12 [e8afab40|b9555d26] (41+30/76) Accurately ripped
13 [02f6b937|f8d05936] (43+30/78) Accurately ripped

Track Peak [ CRC32 ] [W/O NULL] [ LOG ]
– 100,0 [0225DA29] [2014B788] CRC32
01 100,0 [4F80A47B] [2616366B]
02 100,0 [7CE66E0E] [81065DC6]
03 100,0 [FBBA6644] [725D7375]
04 100,0 [1A1F2340] [808F1771]
05 100,0 [57D04179] [933A5440]
06 100,0 [76CCCA01] [601706CE]
07 93,1 [238F9A9E] [20403B9E]
08 100,0 [D97A5709] [1005606F]
09 98,9 [414480E8] [3D688F1B]
10 100,0 [62AABB3B] [179881C3]
11 100,0 [6A6CA30B] [E9997B14]
12 99,5 [D7338753] [907475CC]
13 100,0 [321EAEFE] [09A21AB3]

Black Sabbath - The Ozzy Osbourne Years (1991) {3CD Box Set}

All thanks go to London

>>> Black Sabbath in my Blog <<<

Download from icerbox.com: