Black Cat Bones - Barbed Wire Sandwich (1969) [Remastered 2010]

Posted By: hill0
Black Cat Bones - Barbed Wire Sandwich (1969) [Remastered 2010]

Black Cat Bones - Barbed Wire Sandwich (1969) [Remastered 2010]
EAC Rip | WavPack (image & cue & log) | 239 MB | MP3 CBR 320 kbps | 95 MB | Covers (PNG) | 77 MB | 40:55
Genre: Heavy Blues Rock / Psychedelic Rock | Country: UK | Label: BGO Records | BGOCD916

Digitally remastered edition of this 1970 debut album from this young South London Blues-based band. Original members had been Paul Kossoff and Simon Kirke, but when they left to form Free, the band re-organized and went on to record this album for Decca's Nova label. Nine tracks. BGO. 2010.
Very good blues rock from the late 60s. Prog? not really. Under rated? Yes! With that said I am still glad someone gives this album credit as I don't hear about it often enough. This reminds me of early Free for obvious reasons. Cream and early Foghat are two other bands that come to mind. Many of these tracks are heavy, stripped down blues numbers, but its a winning formula with soulful lyrics and nice musicanship, especially the subtle piano part on "Please tell me babe", my favorite song, a 5 star track.
Review by Carl floyd fan
Black Cat Bones - Barbed Wire Sandwich (1969) [Remastered 2010]



Tracklist:

1. Chauffeur (5:15)
2. Death Valley Blues (3:52)
3. Feelin' Good (4:58)
4. Please Tell Me Baby (3:10)
5. Coming Back (2:32)
6. Save My Love (4:50)
7. Four Women (5:09)
8. Sylvesters' Blues (3:45)
9. Good Lookin' Woman (7:16)

Exact Audio Copy V1.0 beta 3 from 29. August 2011

EAC extraction logfile from 18. January 2013, 9:09

Black Cat Bones / Barbed Wire Sandwich

Used drive : HL-DT-STBDDVDRW GBC-H20N Adapter: 1 ID: 0

Read mode : Secure
Utilize accurate stream : Yes
Defeat audio cache : Yes
Make use of C2 pointers : No

Read offset correction : 667
Overread into Lead-In and Lead-Out : No
Fill up missing offset samples with silence : Yes
Delete leading and trailing silent blocks : No
Null samples used in CRC calculations : Yes
Used interface : Native Win32 interface for Win NT & 2000

Used output format : User Defined Encoder
Selected bitrate : 1024 kBit/s
Quality : High
Add ID3 tag : No
Command line compressor : C:\Program Files\Exact Audio Copy\wavpack.exe
Additional command line options : -hm %source% %dest%


TOC of the extracted CD

Track | Start | Length | Start sector | End sector
––––––––––––––––––––––––––––-
1 | 0:00.00 | 5:18.60 | 0 | 23909
2 | 5:18.60 | 3:55.47 | 23910 | 41581
3 | 9:14.32 | 4:50.20 | 41582 | 63351
4 | 14:04.52 | 3:13.36 | 63352 | 77862
5 | 17:18.13 | 2:34.48 | 77863 | 89460
6 | 19:52.61 | 4:53.33 | 89461 | 111468
7 | 24:46.19 | 5:08.17 | 111469 | 134585
8 | 29:54.36 | 3:42.11 | 134586 | 151246
9 | 33:36.47 | 7:18.43 | 151247 | 184139


Range status and errors

Selected range

Filename C:\Users\ProgDog\Music\ZALIVKI\BLUES\Black Cat Bones\Barbed Wire Sandwich\Black Cat Bones - Barbed Wire Sandwich.wav

Peak level 100.0 %
Extraction speed 1.2 X
Range quality 100.0 %
Test CRC 76069032
Copy CRC 76069032
Copy OK

No errors occurred


AccurateRip summary

Track 1 accurately ripped (confidence 2) [2D6C2451] (AR v1)
Track 2 accurately ripped (confidence 2) [9D41E7BA] (AR v1)
Track 3 accurately ripped (confidence 2) [AD4507BE] (AR v1)
Track 4 accurately ripped (confidence 2) [B1F33D64] (AR v1)
Track 5 accurately ripped (confidence 2) [7849A1FD] (AR v1)
Track 6 accurately ripped (confidence 2) [BB83E0F1] (AR v1)
Track 7 accurately ripped (confidence 2) [B957A0E6] (AR v1)
Track 8 accurately ripped (confidence 2) [B849D653] (AR v1)
Track 9 accurately ripped (confidence 2) [640A40B9] (AR v1)

All tracks accurately ripped

End of status report

–– CUETools DB Plugin V2.1.3

[CTDB TOCID: tr89LBMt0x28BQqlrCos9eeg4Qo-] disk not present in database, Submit result: tr89LBMt0x28BQqlrCos9eeg4Qo- has been uploaded


==== Log checksum FA536DF05298BC5F9AC9473735D0FD6572D13B98917B2AD01B0B8C4B8E7846DA ====


Personnel

Brian Short - vocal
Paul Kossoff - guitar
Derek Brooks - guitar
Stuart Brooks - bass
Simon Kirke - drums

All thanks to arizonadream

Black Cat Bones - Barbed Wire Sandwich (1969) [Remastered 2010]


=====