Subcategories

Black - Wonderful Life (1987) [Japanese Edition]

Posted By: popsakov
Black - Wonderful Life (1987) [Japanese Edition]

Black - Wonderful Life (1987)(Japan)
EAC Rip | FLAC (Img) + Cue + Log ~ 280 Mb | MP3 CBR320 ~ 107 Mb
Scans (PNG, 600 dpi) ~ 153 Mb | RAR 5% Recovery
Pop Rock, New Wave, Synth-pop | A&M Records/Pony Canyon Inc. #D32Y3185

Wonderful Life is the debut album of English singer Black, released on August 31, 1987. It peaked at #3 on the UK Albums Chart in September of that year. All songs written by Colin Vearncombe unless otherwise noted. Black (born Colin Vearncombe, Liverpool, England) is an English singer-songwriter, who enjoyed mainstream success in the late 1980s. William Ruhlmann of Allmusic described Vearncombe as a "smoky-voiced singer/songwriter, whose sophisticated jazz-pop songs and dramatic vocal delivery place him somewhere between Bryan Ferry and Morrissey."
~ Wiki

***************

Black - Wonderful Life (1987) [Japanese Edition]

Track List:

01. Wonderful Life [0:04:47.33]
02. Everything's Coming Up Roses [0:04:06.20]
03. Sometimes For The Asking [0:04:08.76]
04. Finder [0:04:14.40]
05. Paradise [0:04:52.17]
06. I'm Not Afraid [0:05:01.56]
07. I Just Grew Tired [0:04:15.66]
08. Blue [0:03:39.77]
09. Just Making Memories [0:04:27.86]
10. Sweetest Smile [0:05:20.42]

Total: 44:54.16

Exact Audio Copy V0.99 prebeta 4 from 23. January 2008

EAC extraction logfile from 25. April 2009, 15:46

Black / Wonderful Life

Used drive : PLEXTOR DVDR PX-716A Adapter: 0 ID: 0

Read mode : Secure
Utilize accurate stream : Yes
Defeat audio cache : Yes
Make use of C2 pointers : No

Read offset correction : 30
Overread into Lead-In and Lead-Out : Yes
Fill up missing offset samples with silence : Yes
Delete leading and trailing silent blocks : No
Null samples used in CRC calculations : Yes
Used interface : Native Win32 interface for Win NT & 2000

Used output format : User Defined Encoder
Selected bitrate : 128 kBit/s
Quality : High
Add ID3 tag : No
Command line compressor : C:\Program Files\FLAC\flac.exe
Additional command line options : -8 -V -T "ARTIST=%a" -T "TITLE=%t" -T "ALBUM=%g" -T "DATE=%y" -T "TRACKNUMBER=%n" -T "GENRE=%m" -T "COMMENT=EAC FLAC -8" %s


TOC of the extracted CD

Track | Start | Length | Start sector | End sector
––––––––––––––––––––––––––––-
1 | 0:00.00 | 4:47.25 | 0 | 21549
2 | 4:47.25 | 4:06.15 | 21550 | 40014
3 | 8:53.40 | 4:08.57 | 40015 | 58671
4 | 13:02.22 | 4:14.30 | 58672 | 77751
5 | 17:16.52 | 4:52.13 | 77752 | 99664
6 | 22:08.65 | 5:01.42 | 99665 | 122281
7 | 27:10.32 | 4:15.50 | 122282 | 141456
8 | 31:26.07 | 3:39.58 | 141457 | 157939
9 | 35:05.65 | 4:27.65 | 157940 | 178029
10 | 39:33.55 | 5:20.32 | 178030 | 202061


Range status and errors

Selected range

Filename E:\EAC rip\Black - Wonderful Life.wav

Peak level 86.2 %
Range quality 100.0 %
Test CRC CE20A9E0
Copy CRC CE20A9E0
Copy OK

No errors occurred


AccurateRip summary

Track 1 not present in database
Track 2 not present in database
Track 3 not present in database
Track 4 not present in database
Track 5 not present in database
Track 6 not present in database
Track 7 not present in database
Track 8 not present in database
Track 9 not present in database
Track 10 not present in database

None of the tracks are present in the AccurateRip database

End of status report

foobar2000 1.2.6 / Dynamic Range Meter 1.1.1
log date: 2015-06-17 00:15:11

––––––––––––––––––––––––––––––––––––––––
Analyzed: Black / Wonderful Life
––––––––––––––––––––––––––––––––––––––––

DR Peak RMS Duration Track
––––––––––––––––––––––––––––––––––––––––
DR13 -2.68 dB -18.09 dB 4:47 01-Wonderful Life
DR12 -2.87 dB -16.31 dB 4:06 02-Everything's Coming Up Roses
DR12 -4.19 dB -18.36 dB 4:09 03-Sometimes For The Asking
DR15 -1.28 dB -18.77 dB 4:14 04-Finder
DR12 -2.70 dB -18.20 dB 4:52 05-Paradise
DR13 -2.50 dB -17.80 dB 5:02 06-I'm Not Afraid
DR12 -3.51 dB -17.71 dB 4:16 07-I Just Grew Tired
DR13 -2.10 dB -17.71 dB 3:40 08-Blue
DR12 -3.48 dB -17.19 dB 4:28 09-Just Making Memories
DR12 -3.70 dB -19.48 dB 5:20 10-Sweetest Smile
––––––––––––––––––––––––––––––––––––––––

Number of tracks: 10
Official DR value: DR13

Samplerate: 44100 Hz
Channels: 2
Bits per sample: 16
Bitrate: 832 kbps
Codec: FLAC
================================================================================

[CUETools log; Date: 17.06.2015 0:16:56; Version: 2.1.5]
[CTDB TOCID: WsEEbUIdwotMS6jln55pDpV3cvA-] found.
Track | CTDB Status
1 | (2/2) Accurately ripped
2 | (2/2) Accurately ripped
3 | (2/2) Accurately ripped
4 | (2/2) Accurately ripped
5 | (2/2) Accurately ripped
6 | (2/2) Accurately ripped
7 | (2/2) Accurately ripped
8 | (2/2) Accurately ripped
9 | (2/2) Accurately ripped
10 | (2/2) Accurately ripped
[AccurateRip ID: 0010c6a1-008639f0-880a860a] found.
Track [ CRC | V2 ] Status
01 [3fc93be0|3860ed03] (0+4/4) Accurately ripped
02 [5b0a5c5d|239c3c61] (0+4/4) Accurately ripped
03 [cf647959|952f727e] (0+4/4) Accurately ripped
04 [b2ff72a3|a072a729] (0+4/4) Accurately ripped
05 [f1a8c63b|7a19a56f] (0+4/4) Accurately ripped
06 [ebcea6e8|5987f97b] (0+4/4) Accurately ripped
07 [ef009876|125ba836] (0+4/4) Accurately ripped
08 [f778e2a2|08ab1f0a] (0+4/4) Accurately ripped
09 [2b2a2b9d|6256902c] (0+4/4) Accurately ripped
10 [aa1a23a1|39cbfeef] (0+4/4) Accurately ripped

Track Peak [ CRC32 ] [W/O NULL] [ LOG ]
– 86,2 [CE20A9E0] [CA35C86C] CRC32
01 73,4 [15728A25] [7215718E]
02 71,8 [F155058A] [696A6EAD]
03 61,7 [309E6994] [FBC87363]
04 86,2 [C0E8A7DC] [F76F96FD]
05 73,3 [1BB08FAA] [4B585080]
06 74,9 [D8A9B8D2] [EA4F3DA0]
07 66,7 [A9C04028] [2C6B3D08]
08 78,5 [1036ECB6] [9C965116]
09 67,0 [DB045F8D] [F468D8A6]
10 65,3 [914ACE81] [EBD7401C]

Black - Wonderful Life (1987) [Japanese Edition]

All thanks go to Konstantin_slash

Visit my blog!

Download:
Uploadable: FLAC | Scans | mp3
Hitfile: FLAC | Scans | mp3