Subcategories

Blackberry Smoke - Little Piece Of Dixie (2009)

Posted By: uff
Blackberry Smoke - Little Piece Of Dixie (2009)

Blackberry Smoke - Little Piece Of Dixie (2009)
Rock | 1cd | EAC Rip | Ape + Cue + Log | covers
BamaJam, Bjam-01001 | rel: 2009 | 320Mb

On their sophomore full-length CD, Little Piece of Dixie, the five members of Blackberry Smoke (singer/guitarist Charlie Starr, guitarist/singer Paul Jackson, bassist/singer Richard Turner, keyboardist Brandon Still, and drummer Brit Turner) play Southern rock in the Lynyrd Skynyrd tradition. Starr has a strong, twangy voice, and he and Jackson keep the heavy riffs coming in country-rock songs extolling the virtues of a Southern, blue-collar man's blowing off steam by drinking, driving around, and maybe enjoying a little female companionship. Typical of the material is "Bottom of This," in which a man gets home from work and asks to be allowed to at least have one beer before he has to engage domestic problems or talk politics. Although the band is much closer to rock than outlaw country, the album has a clear Nashville leaning, produced by Dann Huff and Justin Niebank, and featuring some formula Music City songwriting. At the end, Blackberry Smoke try for an anthem with "Freedom Song," another paean to hitting the road in the pickup truck and putting a cowboy boot to the gas pedal in search of escape from a workingman's troubles. But when Starr declares his desire to "sing along to my freedom song" on the radio as the guitars play a familiar twin-lead part, it seems likely that the song he really has in mind is Skynyrd's "Free Bird," not something by his own band. ~Allmusic

Track listing
01. Good One Comin' On (3:40)
02. Like I Am (4:34)
03. Bottom Of This (3:41)
04. Up In Smoke (3:29)
05. Sanctified Woman (3:30)
06. Who Invented The Wheel (3:42)
07. I'd Be Lyin' (3:47)
08. Prayer For The Little Man (4:17)
09. Restless (3:29)
10. Shake Your Magnolia (3:57)
11. Freedom Song (5:23)


Exact Audio Copy V1.0 beta 2 from 29. April 2011

Отчёт EAC об извлечении, выполненном 29. декабря 2011, 23:29

Blackberry Smoke / Little Piece Of Dixie

Дисковод: _NEC DV-5800C Adapter: 3 ID: 1

Режим чтения : Достоверность
Использование точного потока : Да
Отключение кэша аудио : Да
Использование указателей C2 : Нет

Коррекция смещения при чтении : 12
Способность читать области Lead-in и Lead-out : Нет
Заполнение пропущенных сэмплов тишиной : Да
Удаление блоков с тишиной в начале и конце : Нет
При вычислениях CRC использовались нулевые сэмплы : Нет
Интерфейс : Встроенный Win32-интерфейс для Win NT/2000

Выходной формат : Внутренние WAV-операции
Формат сэмплов : 44.100 Гц; 16 бит; стерео


TOC извлечённого CD

Трек | Старт | Длительность | Начальный сектор | Конечный сектор
––––––––––––––––––––––––––––––––––-
1 | 0:00.00 | 3:40.59 | 0 | 16558
2 | 3:40.59 | 4:34.25 | 16559 | 37133
3 | 8:15.09 | 3:41.25 | 37134 | 53733
4 | 11:56.34 | 3:29.52 | 53734 | 69460
5 | 15:26.11 | 3:30.52 | 69461 | 85262
6 | 18:56.63 | 3:42.28 | 85263 | 101940
7 | 22:39.16 | 3:47.11 | 101941 | 118976
8 | 26:26.27 | 4:17.13 | 118977 | 138264
9 | 30:43.40 | 3:29.41 | 138265 | 153980
10 | 34:13.06 | 3:57.45 | 153981 | 171800
11 | 38:10.51 | 5:23.41 | 171801 | 196066


Характеристики диапазона извлечения и сообщения об ошибках

Выбранный диапазон

Имя файла D:\Blackberry Smoke - Little Piece Of Dixie.wav

Пиковый уровень 97.6 %
Скорость извлечения 8.1 X
Качество диапазона 100.0 %
CRC копии 456ABE98
Копирование… OK

Ошибок не произошло


AccurateRip: сводка

Трек 1 : извлечено точно (доверие 4) [1B3F47F5] (AR v1)
Трек 2 : извлечено точно (доверие 4) [B6C94190] (AR v1)
Трек 3 : извлечено точно (доверие 4) [B9C0101B] (AR v1)
Трек 4 : извлечено точно (доверие 4) [F20E8654] (AR v1)
Трек 5 : извлечено точно (доверие 4) [953403CE] (AR v1)
Трек 6 : извлечено точно (доверие 4) [93DC414E] (AR v1)
Трек 7 : извлечено точно (доверие 4) [CBB7E235] (AR v1)
Трек 8 : извлечено точно (доверие 4) [61F07548] (AR v1)
Трек 9 : извлечено точно (доверие 4) [08947852] (AR v1)
Трек 10 : извлечено точно (доверие 4) [27683D8D] (AR v1)
Трек 11 : извлечено точно (доверие 4) [8CEC3525] (AR v1)

Все треки извлечены точно

Конец отчёта



[CUETools log; Date: 2016. 10. 15. 23:17:50; Version: 2.1.6]
[CTDB TOCID: tr0Cd_7CdInwCfFbsTv_xYwVjuc-] found.
Track | CTDB Status
1 | (6/6) Accurately ripped
2 | (6/6) Accurately ripped
3 | (6/6) Accurately ripped
4 | (6/6) Accurately ripped
5 | (6/6) Accurately ripped
6 | (6/6) Accurately ripped
7 | (6/6) Accurately ripped
8 | (6/6) Accurately ripped
9 | (6/6) Accurately ripped
10 | (6/6) Accurately ripped
11 | (6/6) Accurately ripped
[AccurateRip ID: 0011718f-00973919-9a0a360b] found.
Track [ CRC | V2 ] Status
01 [1b3f47f5|ba8522a6] (04+05/09) Accurately ripped
02 [b6c94190|3581b9ce] (04+05/09) Accurately ripped
03 [b9c0101b|8da158bb] (05+05/10) Accurately ripped
04 [f20e8654|0475b866] (04+05/09) Accurately ripped
05 [953403ce|5a64b607] (04+05/09) Accurately ripped
06 [93dc414e|ffa077c3] (04+05/09) Accurately ripped
07 [cbb7e235|488c3ad7] (04+05/09) Accurately ripped
08 [61f07548|9ef2a87d] (04+05/09) Accurately ripped
09 [08947852|6ff55d35] (04+05/09) Accurately ripped
10 [27683d8d|d5dce59b] (04+05/09) Accurately ripped
11 [8cec3525|d14f66ef] (04+05/09) Accurately ripped

Track Peak [ CRC32 ] [W/O NULL] [ LOG ]
– 97,6 [7574319D] [456ABE98] W/O NULL
01 97,6 [61779B9F] [A2207A80]
02 97,6 [390B6409] [0E0910FE]
03 97,6 [2C642D10] [F71B39D2]
04 97,6 [2D7DCBEE] [FB479C35]
05 97,6 [9815879D] [9CAC5EAB]
06 97,6 [D362B49C] [70D99798]
07 97,6 [5824E310] [19DEB9A8]
08 97,6 [CBAA2745] [EBEF7EB3]
09 97,6 [0FBB3A7A] [971962F4]
10 97,6 [BB2765E1] [57505C8A]
11 97,6 [2A77726C] [82E38F60]


original uploader unknown
Bigfile
Filefactory

password: asd