Subcategories

Blackmore’s Night - The Beginning (2012) [Box Set, 2CDs + 2DVDs]

Posted By: jclane
Blackmore’s Night - The Beginning (2012) [Box Set, 2CDs + 2DVDs]

Blackmore’s Night - The Beginning (2012) [2CDs + 2DVDs]
EAC Rip | 2CDs | FLAC Image + Cue + Log => 804 MB | MP3 CBR @320 kbps => 294 MB | Full scans => 589 MB
2 x DVD5 / Untouched | VIDEO_TS | Video: NTSC 4:3 (720x480) | Audio: Dolby AC3, 2 ch | 8.25 GB
Label: EMI / UDR Music Group | Catalog.#: 5099901777895 | RAR 3% Recovery | Genre: Folk Rock, Celtic

The 2012 box set The Beginning contains the two studio albums from Richie Blackmore's Night – Shadow of the Moon and Under a Violet Moon – and it also has DVDs recorded on the supporting tours for the albums. The Shadow of the Moon DVD has highlights from the 1997-1998 tour and the Under a Violet Moon DVD from 2000, and while both are certainly of interest to the hardcore, the less dedicated may be tempted by the set as a whole, as it contains all of Blackmore's Night's work at a reasonable price.


Blackmore’s Night - The Beginning (2012) [Box Set, 2CDs + 2DVDs]

CD1: Shadow of the Moon (1997)
EAC Rip | FLAC Image + Cue + Log => 430 MB | MP3 CBR @320 kbps => 154 MB
RAR 3% Recovery | Length: 1:05:24

Shadow of the Moon, is the debut studio album by the group Blackmore's Night, released June 2, 1997. It stayed on the German charts for 17 weeks. It went Gold in Japan.
Tracklist

01. Shadow Of The Moon - 5:07
02. The Clock Ticks On - 5:15
03. Be Mine Tonight - 2:51
04. Play Minstrel Play - 3:58
05. Ocean Gypsy - 6:06
06. Minstrel Hall - 2:36
07. Magical World - 4:00
08. Writing On The Wall - 4:35
09. Renaissance Faire - 4:16
10. Memmingen - 1:06
11. No Second Chance - 5:38
12. Mond Tanz - 3:33
13. Spirit Of The Sea - 4:50
14. Greensleeves - 3:47
15. Wish You Were Here - 5:01
16. Possum's Last Dance - Bonus Track - 2:42


Exact Audio Copy V1.0 beta 3 from 29. August 2011

EAC extraction logfile from 16. April 2013, 21:44

Blackmore's Night / Shadow of the Moon

Used drive : ASUS DRW-24B3LT Adapter: 2 ID: 0

Read mode : Secure
Utilize accurate stream : Yes
Defeat audio cache : Yes
Make use of C2 pointers : No

Read offset correction : 6
Overread into Lead-In and Lead-Out : No
Fill up missing offset samples with silence : Yes
Delete leading and trailing silent blocks : No
Null samples used in CRC calculations : Yes
Used interface : Native Win32 interface for Win NT & 2000

Used output format : Internal WAV Routines
Sample format : 44.100 Hz; 16 Bit; Stereo

TOC of the extracted CD

Track | Start | Length | Start sector | End sector
––––––––––––––––––––––––––––-
1 | 0:00.32 | 5:06.10 | 32 | 22991
2 | 5:06.42 | 5:15.10 | 22992 | 46626
3 | 10:21.52 | 2:50.58 | 46627 | 59434
4 | 13:12.35 | 3:59.05 | 59435 | 77364
5 | 17:11.40 | 6:06.00 | 77365 | 104814
6 | 23:17.40 | 2:35.70 | 104815 | 116509
7 | 25:53.35 | 4:01.40 | 116510 | 134624
8 | 29:55.00 | 4:34.72 | 134625 | 155246
9 | 34:29.72 | 4:16.23 | 155247 | 174469
10 | 38:46.20 | 1:05.30 | 174470 | 179374
11 | 39:51.50 | 5:38.42 | 179375 | 204766
12 | 45:30.17 | 3:33.23 | 204767 | 220764
13 | 49:03.40 | 4:50.00 | 220765 | 242514
14 | 53:53.40 | 3:46.60 | 242515 | 259524
15 | 57:40.25 | 5:02.30 | 259525 | 282204
16 | 62:42.55 | 2:42.07 | 282205 | 294361

Range status and errors

Selected range

Filename D:\Osieron\Desktop\Test&Copy\Blackmore's Night - Shadow of the Moon.wav

Peak level 100.0 %
Extraction speed 8.9 X
Range quality 100.0 %
Test CRC FB725194
Copy CRC FB725194
Copy OK

No errors occurred

AccurateRip summary

Track 1 cannot be verified as accurate (confidence 35) [C079497B], AccurateRip returned [330A1562] (AR v2)
Track 2 cannot be verified as accurate (confidence 35) [DAC9DB7A], AccurateRip returned [C5AE4A5A] (AR v2)
Track 3 cannot be verified as accurate (confidence 35) [29954B7B], AccurateRip returned [6E859EAD] (AR v2)
Track 4 cannot be verified as accurate (confidence 35) [143BAB8F], AccurateRip returned [4B033EE5] (AR v2)
Track 5 cannot be verified as accurate (confidence 35) [DF0B727C], AccurateRip returned [7D8B3AFC] (AR v2)
Track 6 cannot be verified as accurate (confidence 35) [FADCDAA8], AccurateRip returned [1B61396A] (AR v2)
Track 7 cannot be verified as accurate (confidence 35) [6C72B686], AccurateRip returned [9ABB35FA] (AR v2)
Track 8 cannot be verified as accurate (confidence 35) [D62E6A71], AccurateRip returned [2F91F52B] (AR v2)
Track 9 cannot be verified as accurate (confidence 35) [F348D152], AccurateRip returned [51E6368B] (AR v2)
Track 10 cannot be verified as accurate (confidence 35) [2D965CB1], AccurateRip returned [DF77A0BE] (AR v2)
Track 11 cannot be verified as accurate (confidence 35) [F0E61934], AccurateRip returned [E5B2796A] (AR v2)
Track 12 cannot be verified as accurate (confidence 35) [46D54BD7], AccurateRip returned [9312EAB6] (AR v2)
Track 13 cannot be verified as accurate (confidence 35) [CBF8244A], AccurateRip returned [C2374306] (AR v2)
Track 14 cannot be verified as accurate (confidence 34) [8F37D15D], AccurateRip returned [7E87EAB9] (AR v2)
Track 15 cannot be verified as accurate (confidence 35) [0EE0CC09], AccurateRip returned [6ABA8FDB] (AR v2)
Track 16 cannot be verified as accurate (confidence 34) [F4272D29], AccurateRip returned [EEB799AA] (AR v2)

No tracks could be verified as accurate
You may have a different pressing from the one(s) in the database

End of status report

==== Log checksum B2C7EAC2C2B33F1EC329F3857A3D2327984E9C7262E6798B0E342ED465BA3FAC ====


[CUETools log; Date: 01/08/2013 11:06:43 p.m.; Version: 2.1.4]
Pregap length 00:00:32.
[AccurateRip ID: 00274d10-01d2a386-ed0f5410] found.
Track [ CRC | V2 ] Status
01 [53bdf579|c079497b] (00+02/78) Accurately ripped
02 [9905a40e|dac9db7a] (00+02/78) Accurately ripped
03 [01681431|29954b7b] (00+02/78) Accurately ripped
04 [634bd952|143bab8f] (00+02/78) Accurately ripped
05 [ab6c2551|df0b727c] (00+02/77) Accurately ripped
06 [fe844aa0|fadcdaa8] (00+02/77) Accurately ripped
07 [712e78af|6c72b686] (00+02/76) Accurately ripped
08 [737e670c|d62e6a71] (00+02/77) Accurately ripped
09 [1e87cf86|f348d152] (00+02/77) Accurately ripped
10 [e11c4bb4|2d965cb1] (00+02/76) Accurately ripped
11 [1d7d5f8c|f0e61934] (00+02/76) Accurately ripped
12 [b4ef99a9|46d54bd7] (00+02/77) Accurately ripped
13 [94469e0f|cbf8244a] (00+02/77) Accurately ripped
14 [24aa1dec|8f37d15d] (00+02/76) Accurately ripped
15 [eb5d6409|0ee0cc09] (00+02/77) Accurately ripped
16 [7be214cb|f4272d29] (00+00/74) No match
Offsetted by 697:
01 [33f24c8a] (03/78) Accurately ripped
02 [8e090f3a] (03/78) Accurately ripped
03 [45836f0d] (03/78) Accurately ripped
04 [3e68501d] (03/78) Accurately ripped
05 [2d6a01f4] (03/77) Accurately ripped
06 [92d8d87a] (03/77) Accurately ripped
07 [cfd165f2] (03/76) Accurately ripped
08 [86965d77] (03/77) Accurately ripped
09 [3677dd4c] (03/77) Accurately ripped
10 [6bb1157d] (03/76) Accurately ripped
11 [1d2da05a] (03/76) Accurately ripped
12 [96b0723e] (03/77) Accurately ripped
13 [aecff6de] (03/77) Accurately ripped
14 [36790081] (03/76) Accurately ripped
15 [ae90de2b] (03/77) Accurately ripped
16 [e28e10ac] (03/74) Accurately ripped
Offsetted by 1325:
01 [834805de] (03/78) Accurately ripped
02 [f718feaa] (03/78) Accurately ripped
03 [0b24583d] (03/78) Accurately ripped
04 [0ca47bf9] (03/78) Accurately ripped
05 [bb8342b0] (03/77) Accurately ripped
06 [9a256582] (03/77) Accurately ripped
07 [56ab732e] (03/76) Accurately ripped
08 [9ed5924b] (03/77) Accurately ripped
09 [9880f62a] (03/77) Accurately ripped
10 [9f1913c3] (03/76) Accurately ripped
11 [df11d2c7] (03/76) Accurately ripped
12 [4e61c18d] (03/77) Accurately ripped
13 [17867b0a] (03/77) Accurately ripped
14 [d0fc5025] (03/76) Accurately ripped
15 [c02440d3] (03/77) Accurately ripped
16 [0bda03fc] (03/74) Accurately ripped
Offsetted by 1361:
01 [330a1562] (36/78) Accurately ripped
02 [c5ae4a5a] (36/78) Accurately ripped
03 [6e859ead] (36/78) Accurately ripped
04 [4b033ee5] (36/78) Accurately ripped
05 [7d8b3afc] (36/77) Accurately ripped
06 [1b61396a] (36/77) Accurately ripped
07 [9abb35fa] (36/76) Accurately ripped
08 [2f91f52b] (36/77) Accurately ripped
09 [51e6368b] (36/77) Accurately ripped
10 [df77a0be] (36/76) Accurately ripped
11 [e5b2796a] (36/76) Accurately ripped
12 [9312eab6] (36/77) Accurately ripped
13 [c2374306] (36/77) Accurately ripped
14 [7e87eab9] (35/76) Accurately ripped
15 [6aba8fdb] (36/77) Accurately ripped
16 [eeb799aa] (35/74) Accurately ripped
Offsetted by 2028:
01 [00c75f85] (02/78) Accurately ripped
02 [0e8aa11e] (02/78) Accurately ripped
03 [dfcfe981] (02/78) Accurately ripped
04 [c77b6896] (02/78) Accurately ripped
05 [5dd7c8b5] (02/77) Accurately ripped
06 [19594158] (02/77) Accurately ripped
07 [15fbab93] (02/76) Accurately ripped
08 [c6786ca1] (02/77) Accurately ripped
09 [0395ffe7] (02/77) Accurately ripped
10 [6a185a2e] (02/76) Accurately ripped
11 [e3f1a046] (02/76) Accurately ripped
12 [89cc2913] (02/77) Accurately ripped
13 [792d4a83] (02/77) Accurately ripped
14 [aa627728] (02/76) Accurately ripped
15 [ca70c821] (02/77) Accurately ripped
16 [75780b94] (02/74) Accurately ripped
Offsetted by 2897:
01 [7e0cab62] (02/78) Accurately ripped
02 [33e5925a] (02/78) Accurately ripped
03 [febc06ad] (02/78) Accurately ripped
04 [057910e5] (02/78) Accurately ripped
05 [d4349cfc] (02/77) Accurately ripped
06 [faaf356a] (02/77) Accurately ripped
07 [480657fa] (02/76) Accurately ripped
08 [6cdf8bad] (02/77) Accurately ripped
09 [f713e29c] (02/77) Accurately ripped
10 [7955c513] (02/76) Accurately ripped
11 [eef4c076] (02/76) Accurately ripped
12 [e349fa6a] (02/77) Accurately ripped
13 [dfaded06] (02/77) Accurately ripped
14 [15cc58b9] (02/76) Accurately ripped
15 [83c7bbdb] (02/77) Accurately ripped
16 [e8200bfd] (02/74) Accurately ripped
Offsetted by 655:
01 [e6e53a70] (00/78) No match (V2 was not tested)
02 [9d058c42] (00/78) No match (V2 was not tested)
03 [5191f235] (00/78) No match (V2 was not tested)
04 [204f175f] (00/78) No match (V2 was not tested)
05 [4b0b6046] (00/77) No match (V2 was not tested)
06 [26bdb696] (00/77) No match (V2 was not tested)
07 [2b145804] (00/76) No match (V2 was not tested)
08 [87f6b88c] (00/77) No match (V2 was not tested)
09 [cbbf57b0] (00/77) No match (V2 was not tested)
10 [22ae204c] (00/76) No match (V2 was not tested)
11 [ba17dda3] (00/76) No match (V2 was not tested)
12 [83c64887] (00/77) No match (V2 was not tested)
13 [bd01b838] (00/77) No match (V2 was not tested)
14 [c156217f] (00/76) No match (V2 was not tested)
15 [bce181f7] (00/77) No match (V2 was not tested)
16 [04793f32] (00/74) No match (V2 was not tested)
Offsetted by 2685:
01 [c85cfaae] (00/78) No match (V2 was not tested)
02 [c8af466a] (00/78) No match (V2 was not tested)
03 [b57f2efd] (00/78) No match (V2 was not tested)
04 [79bccde9] (00/78) No match (V2 was not tested)
05 [b2e93c20] (00/77) No match (V2 was not tested)
06 [8fdd1ca2] (00/77) No match (V2 was not tested)
07 [f01b4e9e] (00/76) No match (V2 was not tested)
08 [ea1b0907] (00/77) No match (V2 was not tested)
09 [1c13d371] (00/77) No match (V2 was not tested)
10 [d6a398a0] (00/76) No match (V2 was not tested)
11 [b2b685dc] (00/76) No match (V2 was not tested)
12 [99fc32e8] (00/77) No match (V2 was not tested)
13 [64478c3a] (00/77) No match (V2 was not tested)
14 [89963c35] (00/76) No match (V2 was not tested)
15 [b3a7ea73] (00/77) No match (V2 was not tested)
16 [73c49062] (00/74) No match (V2 was not tested)

Track Peak [ CRC32 ] [W/O NULL] [ LOG ]
– 100.0 [FB725194] [9CBDF18D] CRC32
01 95.5 [0B278897] [7F347490]
02 99.6 [C1312EC3] [787D72B9]
03 99.9 [0632BF6F] [CDB87075]
04 100.0 [7AE78D08] [62FDA18A]
05 98.9 [72A2BF2B] [193B811E]
06 93.3 [CFA5A6BF] [D4592AAF]
07 94.1 [651533BB] [37C8C0D0]
08 97.7 [BBE8D306] [6ADD5529]
09 93.1 [CA6FF928] [2CBB4825]
10 82.0 [4952A85D] [B05F4E91]
11 92.2 [0FBCEFBE] [989213DB]
12 97.7 [CAAFCA8D] [4B401FF9]
13 98.8 [FB261B3E] [D1987D6B]
14 98.8 [0CDAEB33] [01DB2C2C]
15 100.0 [88B23BC4] [3AD7BB68]
16 62.8 [2E95114F] [7F6BE387]


……………………………………………………………………………


Blackmore’s Night - The Beginning (2012) [Box Set, 2CDs + 2DVDs]

CD2: Under A Violet Moon (1999)
EAC Rip | FLAC Image + Cue + Log => 373 MB | MP3 CBR @320 kbps => 139 MB
RAR 3% Recovery | Length: 58:35

nder a Violet Moon is the second studio album by the group Blackmore's Night, released May 25, 1999. Under a Violet Moon won the New Age Voice award for the best vocal album of the year.
Tracklist

01. Under A Violet Moon - 4:24
02. Castles And Dreams - 3:31
03. Past Time With Good Company - 3:21
04. Morning Star - 4:41
05. Avalon - 3:03
06. Possum Goes To Prague - 1:12
07. Wind In The Willows - 4:12
08. Gone With The Wind - 5:24
09. Beyond The Sunset - 3:43
10. March The Heroes Home - 4:38
11. Spanish Nights - I Remember It Well - 5:21
12. Catherine Howard's Fate - 2:34
13. Fool's Gold - 3:32
14. Durch Den Wald Zum Bach Haus - 2:31
15. Now And Then - 3:11
16. Self Portrait - 3:18


Exact Audio Copy V1.0 beta 3 from 29. August 2011

EAC extraction logfile from 16. April 2013, 22:01

Blackmores Night / Under A Violet Moon

Used drive : ASUS DRW-24B3LT Adapter: 2 ID: 0

Read mode : Secure
Utilize accurate stream : Yes
Defeat audio cache : Yes
Make use of C2 pointers : No

Read offset correction : 6
Overread into Lead-In and Lead-Out : No
Fill up missing offset samples with silence : Yes
Delete leading and trailing silent blocks : No
Null samples used in CRC calculations : Yes
Used interface : Native Win32 interface for Win NT & 2000

Used output format : Internal WAV Routines
Sample format : 44.100 Hz; 16 Bit; Stereo

TOC of the extracted CD

Track | Start | Length | Start sector | End sector
––––––––––––––––––––––––––––-
1 | 0:00.00 | 4:23.35 | 0 | 19759
2 | 4:23.35 | 3:33.32 | 19760 | 35766
3 | 7:56.67 | 3:24.13 | 35767 | 51079
4 | 11:21.05 | 4:40.72 | 51080 | 72151
5 | 16:02.02 | 3:02.48 | 72152 | 85849
6 | 19:04.50 | 1:13.17 | 85850 | 91341
7 | 20:17.67 | 4:12.35 | 91342 | 110276
8 | 24:30.27 | 5:23.60 | 110277 | 134561
9 | 29:54.12 | 3:44.58 | 134562 | 151419
10 | 33:38.70 | 4:39.27 | 151420 | 172371
11 | 38:18.22 | 5:22.60 | 172372 | 196581
12 | 43:41.07 | 2:34.15 | 196582 | 208146
13 | 46:15.22 | 3:31.70 | 208147 | 224041
14 | 49:47.17 | 2:31.28 | 224042 | 235394
15 | 52:18.45 | 3:11.30 | 235395 | 249749
16 | 55:30.00 | 3:18.12 | 249750 | 264611

Range status and errors

Selected range

Filename D:\Osieron\Desktop\Test&Copy\Blackmores Night - Under A Violet Moon.wav

Peak level 100.0 %
Extraction speed 8.5 X
Range quality 99.9 %
Test CRC 5F6E4A0D
Copy CRC 5F6E4A0D
Copy OK

No errors occurred

AccurateRip summary

Track 1 cannot be verified as accurate (confidence 66) [06487ED4], AccurateRip returned [E0997B65] (AR v2)
Track 2 cannot be verified as accurate (confidence 67) [C56CCD08], AccurateRip returned [3F478D90] (AR v2)
Track 3 cannot be verified as accurate (confidence 67) [432503BD], AccurateRip returned [E3DFD136] (AR v2)
Track 4 cannot be verified as accurate (confidence 67) [DBC1DB59], AccurateRip returned [7C7870C1] (AR v2)
Track 5 cannot be verified as accurate (confidence 67) [CC561414], AccurateRip returned [59E91ACB] (AR v2)
Track 6 cannot be verified as accurate (confidence 67) [7EFD4043], AccurateRip returned [AC3D3B6E] (AR v2)
Track 7 cannot be verified as accurate (confidence 67) [99D56A69], AccurateRip returned [6F2705E4] (AR v2)
Track 8 cannot be verified as accurate (confidence 66) [0D9BE154], AccurateRip returned [45678787] (AR v2)
Track 9 cannot be verified as accurate (confidence 66) [81AA7682], AccurateRip returned [D2B9D9B1] (AR v2)
Track 10 cannot be verified as accurate (confidence 67) [44506486], AccurateRip returned [F7A88A10] (AR v2)
Track 11 cannot be verified as accurate (confidence 67) [92D25209], AccurateRip returned [F5D31A11] (AR v2)
Track 12 cannot be verified as accurate (confidence 66) [6A2A9521], AccurateRip returned [08ACA89E] (AR v2)
Track 13 cannot be verified as accurate (confidence 67) [B680E9A3], AccurateRip returned [52F3639A] (AR v2)
Track 14 cannot be verified as accurate (confidence 66) [68204CEA], AccurateRip returned [0622F4A8] (AR v2)
Track 15 cannot be verified as accurate (confidence 66) [486AB7D3], AccurateRip returned [644CFE48] (AR v2)
Track 16 cannot be verified as accurate (confidence 63) [B665F334], AccurateRip returned [8DFEE76D] (AR v2)

No tracks could be verified as accurate
You may have a different pressing from the one(s) in the database

End of status report

==== Log checksum 7ADCA19A2686059B0BED303D97E00721F89FA733B624A91A7ECA168A2FB2DB1A ====


[CUETools log; Date: 01/08/2013 11:13:51 p.m.; Version: 2.1.4]
[AccurateRip ID: 00232486-01a517e6-e00dc810] found.
Track [ CRC | V2 ] Status
01 [045d0b25|06487ed4] (000+002/160) Accurately ripped
02 [feec4cb2|c56ccd08] (000+002/162) Accurately ripped
03 [0491899c|432503bd] (000+002/162) Accurately ripped
04 [c0426d73|dbc1db59] (000+002/162) Accurately ripped
05 [f89c8d39|cc561414] (000+002/161) Accurately ripped
06 [44562702|7efd4043] (000+002/162) Accurately ripped
07 [fc1dea7e|99d56a69] (000+002/161) Accurately ripped
08 [7b0d4971|0d9be154] (000+002/161) Accurately ripped
09 [0fbd9167|81aa7682] (000+002/161) Accurately ripped
10 [3623a77e|44506486] (000+002/161) Accurately ripped
11 [40e1e127|92d25209] (000+002/161) Accurately ripped
12 [202e44c2|6a2a9521] (000+002/158) Accurately ripped
13 [e01fb99c|b680e9a3] (000+002/158) Accurately ripped
14 [2a700e30|68204cea] (000+002/158) Accurately ripped
15 [9ae559a4|486ab7d3] (000+002/157) Accurately ripped
16 [f8c7ce15|b665f334] (000+002/153) Accurately ripped
Offsetted by -511:
01 [a24c2f45] (015/160) Accurately ripped
02 [434e07c1] (016/162) Accurately ripped
03 [2ffb6d49] (016/162) Accurately ripped
04 [a54fc6ba] (016/162) Accurately ripped
05 [99793662] (016/161) Accurately ripped
06 [f9530f78] (016/162) Accurately ripped
07 [d900c851] (015/161) Accurately ripped
08 [870ce19c] (016/161) Accurately ripped
09 [cbcd3e6c] (016/161) Accurately ripped
10 [b091eb27] (016/161) Accurately ripped
11 [efa2d47c] (016/161) Accurately ripped
12 [b5d901f0] (016/158) Accurately ripped
13 [e415b696] (016/158) Accurately ripped
14 [3d021f4d] (015/158) Accurately ripped
15 [ac32f8b6] (015/157) Accurately ripped
16 [0712ef41] (015/153) Accurately ripped
Offsetted by 655:
01 [8d963905] (003/160) Accurately ripped
02 [85b4aa13] (003/162) Accurately ripped
03 [2a1a573f] (003/162) Accurately ripped
04 [16e72c1c] (003/162) Accurately ripped
05 [2e6d2b20] (003/161) Accurately ripped
06 [eca0c0ec] (003/162) Accurately ripped
07 [3325335b] (003/161) Accurately ripped
08 [9ac3a976] (003/161) Accurately ripped
09 [8a64d732] (003/161) Accurately ripped
10 [621992e5] (003/161) Accurately ripped
11 [efa96da2] (003/161) Accurately ripped
12 [76e1b174] (003/158) Accurately ripped
13 [7c0dc82a] (003/158) Accurately ripped
14 [27186deb] (003/158) Accurately ripped
15 [80b574b2] (003/157) Accurately ripped
16 [1d10d5a9] (003/153) Accurately ripped
Offsetted by 679:
01 [bec79c05] (017/160) Accurately ripped
02 [a791037b] (017/162) Accurately ripped
03 [37981f77] (017/162) Accurately ripped
04 [cb84dac4] (017/162) Accurately ripped
05 [d234b6f8] (017/161) Accurately ripped
06 [fc2cabfc] (017/162) Accurately ripped
07 [e1218f23] (017/161) Accurately ripped
08 [f761fd7e] (018/161) Accurately ripped
09 [be2dffaa] (017/161) Accurately ripped
10 [a87f9abd] (017/161) Accurately ripped
11 [7f402d9a] (017/161) Accurately ripped
12 [f39c0dc4] (017/158) Accurately ripped
13 [2170727b] (017/158) Accurately ripped
14 [ba64b99a] (017/158) Accurately ripped
15 [d48fbe62] (017/157) Accurately ripped
16 [fad431c9] (017/153) Accurately ripped
Offsetted by 1346:
01 [e0997b65] (067/160) Accurately ripped
02 [3f478d90] (068/162) Accurately ripped
03 [e3dfd136] (068/162) Accurately ripped
04 [7c7870c1] (068/162) Accurately ripped
05 [59e91acb] (068/161) Accurately ripped
06 [ac3d3b6e] (068/162) Accurately ripped
07 [6f2705e4] (068/161) Accurately ripped
08 [45678787] (067/161) Accurately ripped
09 [d2b9d9b1] (067/161) Accurately ripped
10 [f7a88a10] (068/161) Accurately ripped
11 [f5d31a11] (068/161) Accurately ripped
12 [08aca89e] (067/158) Accurately ripped
13 [52f3639a] (068/158) Accurately ripped
14 [0622f4a8] (067/158) Accurately ripped
15 [644cfe48] (067/157) Accurately ripped
16 [8dfee76d] (064/153) Accurately ripped
Offsetted by 15:
01 [c31be905] (002/160) Accurately ripped
02 [54160493] (002/162) Accurately ripped
03 [6d0026bf] (002/162) Accurately ripped
04 [f124fa9c] (002/162) Accurately ripped
05 [1ef944a0] (002/161) Accurately ripped
06 [4e0d99ec] (002/162) Accurately ripped
07 [68dba3db] (002/161) Accurately ripped
08 [f4f03df6] (002/161) Accurately ripped
09 [d01b4ab2] (002/161) Accurately ripped
10 [62236c65] (002/161) Accurately ripped
11 [faa01922] (002/161) Accurately ripped
12 [ce22be74] (000/158) No match
13 [23517f63] (000/158) No match
14 [9e3a393a] (000/158) No match
15 [6f4dc7b2] (000/157) No match
16 [0361e7a9] (000/153) No match
Offsetted by 1170:
01 [2284a565] (000/160) No match
02 [f1a25340] (000/162) No match (V2 was not tested)
03 [d6456a46] (000/162) No match (V2 was not tested)
04 [a5496ff1] (000/162) No match (V2 was not tested)
05 [a8dc6e9b] (000/161) No match (V2 was not tested)
06 [3a3b2a4e] (000/162) No match (V2 was not tested)
07 [1dec64d4] (000/161) No match (V2 was not tested)
08 [9e33c9f7] (000/161) No match (V2 was not tested)
09 [ac4c0641] (000/161) No match (V2 was not tested)
10 [9e11a5e0] (000/161) No match (V2 was not tested)
11 [d8d6efa1] (000/161) No match (V2 was not tested)
12 [20ab58fe] (000/158) No match (V2 was not tested)
13 [a31d0cd3] (000/158) No match (V2 was not tested)
14 [8d644d3f] (000/158) No match (V2 was not tested)
15 [52b6e1e8] (000/157) No match (V2 was not tested)
16 [33bb992d] (000/153) No match (V2 was not tested)
Offsetted by 1172:
01 [3bf36da5] (000/160) No match (V2 was not tested)
02 [c9ca055e] (000/162) No match
03 [c20fe5a0] (000/162) No match
04 [df013e7f] (000/162) No match
05 [368264ed] (000/161) No match
06 [3b86d33a] (000/162) No match
07 [81c16c7a] (000/161) No match
08 [25eba64d] (000/161) No match
09 [1b47744b] (000/161) No match
10 [f944d132] (000/161) No match
11 [24ce2a4b] (000/161) No match
12 [c0658b5a] (000/158) No match
13 [3618f6d5] (000/158) No match
14 [5a87a953] (000/158) No match
15 [c45e680c] (000/157) No match
16 [46368b85] (000/153) No match

Track Peak [ CRC32 ] [W/O NULL] [ LOG ]
– 100.0 [5F6E4A0D] [B11377D2] CRC32
01 99.9 [BE2C88E3] [C0459A63]
02 99.9 [259D09E0] [782BF2AD]
03 99.9 [465BF11D] [45B2FD98]
04 99.9 [9148A4A4] [93014B40]
05 99.9 [5177CE06] [565CB4AE]
06 99.9 [91C73047] [27CAD63B]
07 100.0 [A94A193B] [0AAC8A5E]
08 100.0 [6AB71B9D] [74CC4B06]
09 100.0 [0277DD54] [0FA2C299]
10 99.9 [FFDC9F11] [F2EC482D]
11 99.9 [B2495D25] [DDA25E72]
12 99.9 [2B37425C] [5BB02D92]
13 99.9 [DF85CADE] [9E43FB20]
14 99.9 [014BECAB] [4A523342]
15 99.9 [C248DA47] [B31D9760]
16 99.9 [B6FE92D8] [76479139]


……………………………………………………………………………


Blackmore’s Night - The Beginning (2012) [Box Set, 2CDs + 2DVDs]

DVD1: Shadow Of The Moon - Live In Germany 1997-1998
DVD5 / Untouched | VIDEO_TS | Video: NTSC 4:3 (720x480) | Audio: Dolby AC3, 2 ch | 4.27 GB
Subtitle: Deutsch, English | RAR 3% Recovery | Length: 1:09:24


Setlist:

01. Shadow Of The Moon
02. The Clock Ticks On
03. Play Minstrel Play
04. Minstrel Hall
05. St. Theresa
06. Under A Violet Moon
07. Magical World
08. No Second Chance
09. 16th Century Greensleeves
10. Renaissance Faire
11. Writing On The Wall
12. Mond Tanz
13. Be Mine Tonight
14. Memmingen
15. Black Night
16. Man On The Silver Mountain
17. Still I'm Sad
18. Maybe Next Time


Title: DVD 1 Shadow Of The Moon - Live In Germany 1997-1998
Size: 4.15 Gb ( 4,354,106.00 KBytes ) - DVD-5
Enabled regions: 1, 2, 3, 4, 5, 6, 7, 8

VTS_01 :
Play Length: 00:00:02
Video: NTSC 16:9 (720x480) VBR, Auto Letterboxed

VTS_02 :
Play Length: 00:00:16
Video: NTSC 16:9 (720x480) VBR, Auto Letterboxed

VTS_03 :
Play Length: 01:09:20
Video: NTSC 4:3 (720x480) VBR
Audio:
English (Dolby AC3, 2 ch)
Subtitles:
Deutsch
English

* Menus Information *

VIDEO_TS Menu
Video:
NTSC 4:3 (720x480) VBR
English Language Unit :
Title Menu

VTS_01 Menu
Video:
NTSC 4:3 (720x480) VBR
Audio:
Not specified (Dolby AC3, 2 ch)
English Language Unit :
Root Menu

VTS_02 Menu
Video:
NTSC 4:3 (720x480) VBR
English Language Unit :
Root Menu

VTS_03 Menu
Video:
NTSC 4:3 (720x480) VBR
English Language Unit :
Root Menu


Screenshots

Blackmore’s Night - The Beginning (2012) [Box Set, 2CDs + 2DVDs]

Blackmore’s Night - The Beginning (2012) [Box Set, 2CDs + 2DVDs]

Blackmore’s Night - The Beginning (2012) [Box Set, 2CDs + 2DVDs]

Blackmore’s Night - The Beginning (2012) [Box Set, 2CDs + 2DVDs]

Blackmore’s Night - The Beginning (2012) [Box Set, 2CDs + 2DVDs]


……………………………………………………………………………


Blackmore’s Night - The Beginning (2012) [Box Set, 2CDs + 2DVDs]

DVD2: Under A Violet Moon Castle Tour 2000
DVD5 / Untouched | VIDEO_TS | Video: NTSC 4:3 (720x480) | Audio: Dolby AC3, 2 ch | 3.98 GB
Subtitle: Deutsch, English | RAR 3% Recovery | Length: 1:13:16


Setlist:

01. Written In The Stars
02. Morning Star
03. Renaissance Faire
04. Fires At Midnight (Midnight Acoustic Performance)
05. Possum Goes To Prague
06. Under A Violet Moon
07. Spanish Nights
08. Past Time With Good Company
09. Wind In The Willows
10. March The Heroes Home
11. Gone With The Wind
12. Fires At Midnight (Midnight Acoustic Performance)
13. Now & Then
14. Durch Den Wald Zum Bachhaus


Title: DVD 2 Under A Violet Moon Castle Tour 2000
Size: 3.86 Gb ( 4,049,490.00 KBytes ) - DVD-5
Enabled regions: 1, 2, 3, 4, 5, 6, 7, 8

VTS_01 :
Play Length: 00:00:02
Video: NTSC 16:9 (720x480) VBR, Auto Letterboxed

VTS_02 :
Play Length: 00:00:16
Video: NTSC 16:9 (720x480) VBR, Auto Letterboxed

VTS_03 :
Play Length: 01:13:16
Video: NTSC 4:3 (720x480) VBR
Audio:
English (Dolby AC3, 2 ch)
Subtitles:
Deutsch
English

* Menus Information *

VIDEO_TS Menu
Video:
NTSC 4:3 (720x480) VBR
English Language Unit :
Title Menu

VTS_01 Menu
Video:
NTSC 4:3 (720x480) VBR
Audio:
Not specified (Dolby AC3, 2 ch)
English Language Unit :
Root Menu

VTS_02 Menu
Video:
NTSC 4:3 (720x480) VBR
English Language Unit :
Root Menu

VTS_03 Menu
Video:
NTSC 4:3 (720x480) VBR
English Language Unit :
Root Menu


Screenshots

Blackmore’s Night - The Beginning (2012) [Box Set, 2CDs + 2DVDs]

Blackmore’s Night - The Beginning (2012) [Box Set, 2CDs + 2DVDs]

Blackmore’s Night - The Beginning (2012) [Box Set, 2CDs + 2DVDs]

Blackmore’s Night - The Beginning (2012) [Box Set, 2CDs + 2DVDs]

Blackmore’s Night - The Beginning (2012) [Box Set, 2CDs + 2DVDs]


……………………………………………………………………………


CD/DVD Rip by Vilenia

If you have any questions about this publication, please send me a private message.






password: www.AvaxHome.ru