Tags
Language
Tags

Blondie - Atomic: The Very Best Of Blondie (1998)

Posted By: popsakov
Blondie - Atomic: The Very Best Of Blondie (1998)

Blondie - Atomic: The Very Best Of Blondie (1998)
EAC Rip | FLAC (Img) + Cue + Log ~ 667 Mb | MP3 CBR320 ~ 205 Mb
Full Scans | RAR 5% Recovery
New Wave / Punk / Electronic / Pop Rock / Dance-Rock / Disco
Chrysalis / EMI / Gala Records #07243 875596 2 2

Atomic: The Very Best of Blondie is a compilation album of recordings by the band Blondie released by EMI/Chrysalis Records in the UK and the rest of Europe in late 1998, at the time when the band reunited and shortly before the beginning of Blondie's successful comeback tour. Atomic: The Very Best of Blondie includes the band's best known songs from the 70's and 80's as well as two new remixes of the title track. The compilation reached #12 on the UK charts and was certified platinum.

***************

Blondie - Atomic: The Very Best Of Blondie (1998)

Track List:

01. Atomic [3:50]
02. Heart Of Glass [4:12]
03. Sunday Girl [3:15]
04. Call Me [3:33]
05. The Tide Is High [3:53]
06. Denis [2:19]
07. Dreaming [3:06]
08. Rapture [4:59]
09. Hanging On The Telephone [2:22]
10. (I'm Always Touched By Your) Presence, Dear [2:43]
11. Island Of Lost Souls [3:50]
12. Picture This [2:56]
13. Union City Blue [3:19]
14. War Child [4:01]
15. Rip Her To Shreds [3:20]
16. One Way Or Another [3:28]
17. X-Offender [3:12]
18. I'm Gonna Love You Too [2:08]
19. Fade Away And Radiate [3:59]
20. Atomic '98 (Xenomania Mix) [4:34]
21. Atomic '98 (Tall Paul Remix) [8:43]

Exact Audio Copy V1.3 from 2. September 2016

EAC extraction logfile from 18. October 2018, 9:44

Blondie / Atomic: The Very Best Of Blondie

Used drive : TSSTcorpCDDVDW SH-224GB Adapter: 1 ID: 0

Read mode : Secure
Utilize accurate stream : Yes
Defeat audio cache : Yes
Make use of C2 pointers : No

Read offset correction : 6
Overread into Lead-In and Lead-Out : No
Fill up missing offset samples with silence : Yes
Delete leading and trailing silent blocks : No
Null samples used in CRC calculations : Yes
Used interface : Native Win32 interface for Win NT & 2000

Used output format : User Defined Encoder
Selected bitrate : 128 kBit/s
Quality : High
Add ID3 tag : No
Command line compressor : C:\Program Files (x86)\Exact Audio Copy\FLAC\FLAC.EXE
Additional command line options : -V -8 -T "Date=%year%" -T "Genre=%genre%" %source%


TOC of the extracted CD

Track | Start | Length | Start sector | End sector
––––––––––––––––––––––––––––-
1 | 0:00.00 | 3:50.12 | 0 | 17261
2 | 3:50.12 | 4:11.58 | 17262 | 36144
3 | 8:01.70 | 3:15.10 | 36145 | 50779
4 | 11:17.05 | 3:32.45 | 50780 | 66724
5 | 14:49.50 | 3:52.55 | 66725 | 84179
6 | 18:42.30 | 2:18.57 | 84180 | 94586
7 | 21:01.12 | 3:06.13 | 94587 | 108549
8 | 24:07.25 | 4:59.22 | 108550 | 130996
9 | 29:06.47 | 2:22.28 | 130997 | 141674
10 | 31:29.00 | 2:43.37 | 141675 | 153936
11 | 34:12.37 | 3:50.05 | 153937 | 171191
12 | 38:02.42 | 2:55.58 | 171192 | 184374
13 | 40:58.25 | 3:18.65 | 184375 | 199289
14 | 44:17.15 | 4:00.65 | 199290 | 217354
15 | 48:18.05 | 3:20.00 | 217355 | 232354
16 | 51:38.05 | 3:28.27 | 232355 | 247981
17 | 55:06.32 | 3:12.15 | 247982 | 262396
18 | 58:18.47 | 2:07.63 | 262397 | 271984
19 | 60:26.35 | 3:59.22 | 271985 | 289931
20 | 64:25.57 | 4:33.45 | 289932 | 310451
21 | 68:59.27 | 8:43.23 | 310452 | 349699


Range status and errors

Selected range

Filename F:\ЕАС\rwa12\Blondie - Atomic - The Very Best Of Blondie.wav

Peak level 97.9 %
Extraction speed 7.8 X
Range quality 100.0 %
Test CRC 59F1B204
Copy CRC 59F1B204
Copy OK

No errors occurred


AccurateRip summary

Track 1 cannot be verified as accurate (confidence 106) [F9AD6040], AccurateRip returned [FCA1B438] (AR v2)
Track 2 cannot be verified as accurate (confidence 104) [CA917E50], AccurateRip returned [6020B099] (AR v2)
Track 3 cannot be verified as accurate (confidence 105) [0F7C2D0A], AccurateRip returned [F6D1B3B1] (AR v2)
Track 4 cannot be verified as accurate (confidence 106) [EE057F69], AccurateRip returned [7643ACAC] (AR v2)
Track 5 cannot be verified as accurate (confidence 106) [A57CF472], AccurateRip returned [5EA19C2C] (AR v2)
Track 6 cannot be verified as accurate (confidence 106) [2F517A2C], AccurateRip returned [3589A872] (AR v2)
Track 7 cannot be verified as accurate (confidence 106) [70B6BDD3], AccurateRip returned [6A8A7DE8] (AR v2)
Track 8 cannot be verified as accurate (confidence 106) [2A918F39], AccurateRip returned [095167B3] (AR v2)
Track 9 cannot be verified as accurate (confidence 105) [82F7E2D1], AccurateRip returned [3BF5A2FC] (AR v2)
Track 10 cannot be verified as accurate (confidence 106) [089C524A], AccurateRip returned [B121EE14] (AR v2)
Track 11 cannot be verified as accurate (confidence 106) [E8C2894C], AccurateRip returned [0D009A0C] (AR v2)
Track 12 cannot be verified as accurate (confidence 103) [1C9A29FE], AccurateRip returned [BDE32C18] (AR v2)
Track 13 cannot be verified as accurate (confidence 102) [7BAB6AE3], AccurateRip returned [92E82735] (AR v2)
Track 14 cannot be verified as accurate (confidence 104) [25D5E6B1], AccurateRip returned [1176270F] (AR v2)
Track 15 cannot be verified as accurate (confidence 106) [CB375D17], AccurateRip returned [E29C9219] (AR v2)
Track 16 cannot be verified as accurate (confidence 105) [A0DADDCF], AccurateRip returned [8DB64649] (AR v2)
Track 17 cannot be verified as accurate (confidence 103) [0A1D6086], AccurateRip returned [40F7F3AA] (AR v2)
Track 18 cannot be verified as accurate (confidence 101) [AEC58E2F], AccurateRip returned [C388B27C] (AR v2)
Track 19 cannot be verified as accurate (confidence 100) [CCEA0FD5], AccurateRip returned [513D90DB] (AR v2)
Track 20 cannot be verified as accurate (confidence 101) [FD2E7B32], AccurateRip returned [268E2C56] (AR v2)
Track 21 cannot be verified as accurate (confidence 98) [D7948D97], AccurateRip returned [67EBB834] (AR v2)

No tracks could be verified as accurate
You may have a different pressing from the one(s) in the database

End of status report

–– CUETools DB Plugin V2.1.6

[CTDB TOCID: sXF089cfgEbBFhir7teZzKO6Pmk-] found
Submit result: sXF089cfgEbBFhir7teZzKO6Pmk- has been confirmed
Track | CTDB Status
1 | (438/443) Accurately ripped
2 | (433/443) Accurately ripped
3 | (439/443) Accurately ripped
4 | (438/443) Accurately ripped
5 | (439/443) Accurately ripped
6 | (440/443) Accurately ripped
7 | (439/443) Accurately ripped
8 | (442/443) Accurately ripped
9 | (439/443) Accurately ripped
10 | (439/443) Accurately ripped
11 | (439/443) Accurately ripped
12 | (441/443) Accurately ripped
13 | (441/443) Accurately ripped
14 | (441/443) Accurately ripped
15 | (441/443) Accurately ripped
16 | (440/443) Accurately ripped
17 | (441/443) Accurately ripped
18 | (442/443) Accurately ripped
19 | (437/443) Accurately ripped
20 | (436/443) Accurately ripped
21 | (425/443) Accurately ripped


==== Log checksum 0054FD346C0FF277F33D2E6532EC96D3E491BA9865B597A3CBCC9A443EC4EB56 ====

Blondie - Atomic: The Very Best Of Blondie (1998)


All thanks go to rwa12

>>> Blondie in my Blog <<<

Download: