Tags
Language
Tags

Blondie - Blondie 4(0) Ever (2014) {Deluxe Edition}

Posted By: popsakov
Blondie - Blondie 4(0) Ever (2014) {Deluxe Edition}

Blondie - Blondie 4(0) Ever (2014) {Deluxe Edition}
2CD | EAC Rip | FLAC (Tracks) + Cue + m3u + Log ~ 698 Mb | MP3 CBR320 ~ 228 Mb
Scans ~ 42 Mb | RAR 5% Recovery
Dance-Rock, New Wave, Power Pop, Pop Rock | Noble ID / Five Seven Music #NBL 501-2

Blondie 4(0) Ever is a double album by American rock band Blondie. It was released on May 12, 2014, by Noble ID in celebration of the band's 40th anniversary. The two-disc package consists of Greatest Hits Deluxe Redux, a collection of re-recordings of Blondie's past singles, and the band's tenth studio album, Ghosts of Download. The latter spawned three singles: "A Rose by Any Name", "Sugar on the Side", and "I Want to Drag You Around". Blondie 4(0) Ever entered the US Billboard 200 at number 109. The album debuted at number 16 on the UK Albums Chart. On occasion of Blondie's co-headlining Australia and New Zealand tour with Cyndi Lauper in April 2017, the album reached number six on the New Zealand Heatseeker Albums chart.

While it's an inarguably good thing that Blondie is still extant in the 21st century, the band's 2014 release Blondie 4(0)-Ever suggests the predicaments imposed by the band's past and present as they acknowledge their 40th anniversary. Blondie 4(0)-Ever bundles together two albums, a collection of new material called Ghosts of Download, and Greatest Hits Deluxe Redux, a re-recorded set of Blondie favorites. While 2011's Panic of Girls suggested that Blondie was striving to make a place in their new music for all of their many influences, Ghosts of Download is an album clearly made with the dancefloor in mind; electronic beats and gleaming synthesized melodies dominate the tunes, and while all members of the current lineup are listed in the credits, except for the vocals and some very occasional guitar lines from Chris Stein, just about everything here appears to have come from a keyboard or a computer program. Ghosts of Download lacks the wit and adventure of Blondie's best moments, and the presence of the numerous guest stars on these sessions (including Beth Ditto of the Gossip and Latin EDM artists Systema Solar) suggest Stein and Deborah Harry struggled to find their own voice within this material, which ignores pop and rock in favor of dance-influenced sounds without the playful downtown cheek of "Heart of Glass" or "Rapture." As for Harry, her vocals are cool, stylish, and well-controlled, but there's a lack of fire or dynamics in her performances that suggests she's chosen a deliberately narrow range as time takes its inevitable toll on her voice (she was 68 years old when she cut these sessions, and while she sounds quite good for her age, she's clearly not the singer she once was). And was anyone really waiting for Blondie to cover Frankie Goes to Hollywood, especially with such a disinterested tone? On disc two, Greatest Hits Deluxe Redux contains newly re-recorded versions of 11 of their better-known sides, and like most examples of an artist re-doing their hits, these performances fall significantly short in a side by side comparison with the originals, though this is livelier than the Ghosts of Download sessions and features the full band playing with professionalism and a certain elan (Clem Burke's drumming is as crisp and forceful as ever). Harry's vocals are more pleasing here as well; while her range is still narrower than in her prime, she cheats the missing notes more gracefully, perhaps because she's been doing it on-stage for some time now. But one would imagine that anyone who is enough of a fan to buy Blondie's 10th studio album in the year 2014 would already own these 11 songs in their original form, and Greatest Hits Deluxe Redux adds little value to this package, nice as it is to hear some of these tunes again.

~ Mark Deming, All Music

***************

Blondie - Blondie 4(0) Ever (2014) {Deluxe Edition}

Track List CD1 - Ghosts Of Download

01. Sugar on the Side (feat. Sytema Solar) [3:47]
02. Rave (feat. Miss Guy) [4:02]
03. A Rose by Any Other Name (feat. Beth Ditto) [3:34]
04. Winter [4:16]
05. I Want to Drag You Around [3:14]
06. I Screwed Up (feat. Los Rakas) [3:59]
07. Relax (feat. Keilah Baez, Felicia Dennis, and Keisha Williams) [5:49]
08. Take Me in the Night [3:23]
09. Make a Way [3:55]
10. Mile High [3:39]
11. Euphoria [4:40]
12. Take It Back [3:45]
13. Backroom [4:06]

Exact Audio Copy V1.0 beta 3 from 29. August 2011

EAC extraction logfile from 23. May 2014, 20:58

Blondie / Blondie 4(0)-Ever: Ghosts of Download

Used drive : TSSTcorpBDDVDW SN-506BB Adapter: 0 ID: 0

Read mode : Secure
Utilize accurate stream : Yes
Defeat audio cache : Yes
Make use of C2 pointers : No

Read offset correction : 6
Overread into Lead-In and Lead-Out : No
Fill up missing offset samples with silence : Yes
Delete leading and trailing silent blocks : No
Null samples used in CRC calculations : Yes
Used interface : Native Win32 interface for Win NT & 2000
Gap handling : Appended to previous track

Used output format : User Defined Encoder
Selected bitrate : 128 kBit/s
Quality : High
Add ID3 tag : No
Command line compressor : C:\Program Files (x86)\Exact Audio Copy\Flac\flac.exe
Additional command line options : -V -8 -T "Genre=%genre%" -T "Artist=%artist%" -T "Title=%title%" -T "Album=%albumtitle%" -T "Date=%year%" -T "Tracknumber=%tracknr%" -T "Comment=%comment%" %source%


TOC of the extracted CD

Track | Start | Length | Start sector | End sector
––––––––––––––––––––––––––––-
1 | 0:00.00 | 3:46.60 | 0 | 17009
2 | 3:46.60 | 4:01.58 | 17010 | 35142
3 | 7:48.43 | 3:34.14 | 35143 | 51206
4 | 11:22.57 | 4:15.46 | 51207 | 70377
5 | 15:38.28 | 3:14.26 | 70378 | 84953
6 | 18:52.54 | 3:59.18 | 84954 | 102896
7 | 22:51.72 | 5:49.21 | 102897 | 129092
8 | 28:41.18 | 3:23.10 | 129093 | 144327
9 | 32:04.28 | 3:55.26 | 144328 | 161978
10 | 35:59.54 | 3:38.44 | 161979 | 178372
11 | 39:38.23 | 4:39.49 | 178373 | 199346
12 | 44:17.72 | 3:45.11 | 199347 | 216232
13 | 48:03.08 | 4:06.02 | 216233 | 234684


Track 1

Filename D:\Blondie - Ghosts of Download\01. Sugar on the Side (feat. Sytema Solar).wav

Pre-gap length 0:00:02.00

Peak level 97.7 %
Extraction speed 0.9 X
Track quality 99.9 %
Test CRC 173EC9C3
Copy CRC 173EC9C3
Track not present in AccurateRip database
Copy OK

Track 2

Filename D:\Blondie - Ghosts of Download\02. Rave (feat. Miss Guy).wav

Peak level 97.7 %
Extraction speed 0.9 X
Track quality 99.8 %
Test CRC EE36DBCF
Copy CRC EE36DBCF
Track not present in AccurateRip database
Copy OK

Track 3

Filename D:\Blondie - Ghosts of Download\03. A Rose by Any Other Name (feat. Beth Ditto).wav

Peak level 97.7 %
Extraction speed 2.3 X
Track quality 100.0 %
Test CRC F82256B7
Copy CRC F82256B7
Track not present in AccurateRip database
Copy OK

Track 4

Filename D:\Blondie - Ghosts of Download\04. Winter.wav

Peak level 96.7 %
Extraction speed 1.4 X
Track quality 99.9 %
Test CRC 55117560
Copy CRC 55117560
Track not present in AccurateRip database
Copy OK

Track 5

Filename D:\Blondie - Ghosts of Download\05. I Want to Drag You Around.wav

Peak level 97.7 %
Extraction speed 1.3 X
Track quality 99.9 %
Test CRC 0FD2FD18
Copy CRC 0FD2FD18
Track not present in AccurateRip database
Copy OK

Track 6

Filename D:\Blondie - Ghosts of Download\06. I Screwed Up (feat. Los Rakas).wav

Peak level 96.7 %
Extraction speed 1.5 X
Track quality 99.9 %
Test CRC 89E9CF09
Copy CRC 89E9CF09
Track not present in AccurateRip database
Copy OK

Track 7

Filename D:\Blondie - Ghosts of Download\07. Relax (feat. Keilah Baez, Felicia Dennis, and Keisha Williams).wav

Peak level 88.0 %
Extraction speed 1.6 X
Track quality 99.9 %
Test CRC 10C4F17A
Copy CRC 10C4F17A
Track not present in AccurateRip database
Copy OK

Track 8

Filename D:\Blondie - Ghosts of Download\08. Take Me in the Night.wav

Peak level 97.7 %
Extraction speed 1.4 X
Track quality 99.8 %
Test CRC 61B666E8
Copy CRC 61B666E8
Track not present in AccurateRip database
Copy OK

Track 9

Filename D:\Blondie - Ghosts of Download\09. Make a Way.wav

Peak level 97.7 %
Extraction speed 1.9 X
Track quality 99.9 %
Test CRC 61CF28B3
Copy CRC 61CF28B3
Track not present in AccurateRip database
Copy OK

Track 10

Filename D:\Blondie - Ghosts of Download\10. Mile High.wav

Peak level 97.7 %
Extraction speed 2.0 X
Track quality 100.0 %
Test CRC FC8AFF97
Copy CRC FC8AFF97
Track not present in AccurateRip database
Copy OK

Track 11

Filename D:\Blondie - Ghosts of Download\11. Euphoria.wav

Peak level 97.7 %
Extraction speed 2.6 X
Track quality 99.9 %
Test CRC 74116A61
Copy CRC 74116A61
Track not present in AccurateRip database
Copy OK

Track 12

Filename D:\Blondie - Ghosts of Download\12. Take It Back.wav

Peak level 97.7 %
Extraction speed 2.3 X
Track quality 99.9 %
Test CRC 0B518905
Copy CRC 0B518905
Track not present in AccurateRip database
Copy OK

Track 13

Filename D:\Blondie - Ghosts of Download\13. Backroom.wav

Peak level 97.7 %
Extraction speed 2.5 X
Track quality 99.9 %
Test CRC A8C0CF21
Copy CRC A8C0CF21
Track not present in AccurateRip database
Copy OK


None of the tracks are present in the AccurateRip database

No errors occurred

End of status report

==== Log checksum 6011B04C1B532F353C216DCAC482C0AAE72BAA5E5880BB1BBD97D2E8B82D1B4D ====

[CUETools log; Date: 10.11.2018 22:33:02; Version: 2.1.6]
[CTDB TOCID: bsRlucfMWxiSe4Hxjw_C9Glx80E-] found.
Track | CTDB Status
1 | (202/204) Accurately ripped
2 | (203/204) Accurately ripped
3 | (203/204) Accurately ripped
4 | (202/204) Accurately ripped
5 | (203/204) Accurately ripped
6 | (203/204) Accurately ripped
7 | (203/204) Accurately ripped
8 | (203/204) Accurately ripped
9 | (192/204) Accurately ripped
10 | (202/204) Accurately ripped
11 | (202/204) Accurately ripped
12 | (201/204) Accurately ripped
13 | (202/204) Accurately ripped
[AccurateRip ID: 0018ce1b-00f9275f-b20c390d] found.
Track [ CRC | V2 ] Status
01 [3cd6b03a|d60b197b] (002+018/116) Accurately ripped
02 [8a4f2728|960c9709] (002+018/116) Accurately ripped
03 [d4fc9eb9|7e97f477] (002+018/117) Accurately ripped
04 [523b5348|9463a1a2] (002+018/116) Accurately ripped
05 [78f31a98|a89a8da4] (002+018/117) Accurately ripped
06 [ae791590|2731acab] (002+018/117) Accurately ripped
07 [1a5c2997|04205abb] (002+018/117) Accurately ripped
08 [81446f3c|76f1e7ee] (002+018/117) Accurately ripped
09 [b13b1773|9fe7375a] (002+018/109) Accurately ripped
10 [e3bd5b2b|eb8ce79f] (002+018/116) Accurately ripped
11 [d677ed3d|fe44cdf0] (002+018/115) Accurately ripped
12 [5fe8a2da|85dcb3c1] (002+018/114) Accurately ripped
13 [2cc62f77|ce342a15] (002+018/114) Accurately ripped
Offsetted by 12:
01 [04e36a03] (006/116) Accurately ripped
02 [cc7efba1] (006/116) Accurately ripped
03 [2c4911a4] (006/117) Accurately ripped
04 [e3a63d93] (006/116) Accurately ripped
05 [15bbd4e4] (006/117) Accurately ripped
06 [8c27d283] (006/117) Accurately ripped
07 [afac653b] (006/117) Accurately ripped
08 [7b46c7a7] (006/117) Accurately ripped
09 [c8fc3c80] (005/109) Accurately ripped
10 [cad160ed] (006/116) Accurately ripped
11 [cf4a0e11] (006/115) Accurately ripped
12 [9b230a74] (006/114) Accurately ripped
13 [22bce2dc] (006/114) Accurately ripped
Offsetted by -658:
01 [eb98777b] (000/116) No match (V2 was not tested)
02 [849249b5] (000/116) No match (V2 was not tested)
03 [31aa0f64] (000/117) No match (V2 was not tested)
04 [c51ba54d] (000/116) No match (V2 was not tested)
05 [523a9865] (000/117) No match (V2 was not tested)
06 [e1205ab6] (000/117) No match (V2 was not tested)
07 [020fe83f] (000/117) No match (V2 was not tested)
08 [7c9934bc] (000/117) No match (V2 was not tested)
09 [b5a18f96] (000/109) No match (V2 was not tested)
10 [8ce16633] (000/116) No match (V2 was not tested)
11 [ef15ed8a] (000/115) No match (V2 was not tested)
12 [2d337dcd] (000/114) No match (V2 was not tested)
13 [609da99b] (000/114) No match (V2 was not tested)

Track Peak [ CRC32 ] [W/O NULL] [ LOG ]
– 97,7 [5D52A02C] [0B456B00]
01 97,7 [173EC9C3] [8064B443] CRC32
02 97,7 [EE36DBCF] [33FE011A] CRC32
03 97,7 [F82256B7] [2A6D5F2E] CRC32
04 96,7 [55117560] [BE66DA20] CRC32
05 97,7 [0FD2FD18] [1D9889E4] CRC32
06 96,7 [89E9CF09] [2D536ABD] CRC32
07 88,0 [10C4F17A] [8F9EFAC0] CRC32
08 97,7 [61B666E8] [C501A461] CRC32
09 97,7 [61CF28B3] [32A5B831] CRC32
10 97,7 [FC8AFF97] [E77CE90D] CRC32
11 97,7 [74116A61] [B2B93C25] CRC32
12 97,7 [0B518905] [59070FE3] CRC32
13 97,7 [A8C0CF21] [1AC95907] CRC32

Blondie - Blondie 4(0) Ever (2014) {Deluxe Edition}

Track List CD2 - Greatest Hits: Deluxe Redux

01. Heart Of Glass [4:32]
02. Dreaming [3:04]
03. The Tide Is High [4:37]
04. Maria [4:06]
05. Sunday Girl [3:03]
06. Hanging On The Telephone [2:19]
07. Rapture [5:32]
08. One Way Or Another [3:32]
09. Call Me [3:32]
10. Atomic [4:36]
11. Rip Her To Shreds [3:19]

Exact Audio Copy V1.0 beta 3 from 29. August 2011

EAC extraction logfile from 24. May 2014, 0:54

Blondie / 4(0) Ever - Greatest Hits Deluxe Redux

Used drive : TSSTcorpBDDVDW SN-506BB Adapter: 0 ID: 0

Read mode : Secure
Utilize accurate stream : Yes
Defeat audio cache : Yes
Make use of C2 pointers : No

Read offset correction : 6
Overread into Lead-In and Lead-Out : No
Fill up missing offset samples with silence : Yes
Delete leading and trailing silent blocks : No
Null samples used in CRC calculations : Yes
Used interface : Native Win32 interface for Win NT & 2000
Gap handling : Appended to previous track

Used output format : User Defined Encoder
Selected bitrate : 128 kBit/s
Quality : High
Add ID3 tag : No
Command line compressor : C:\Program Files (x86)\Exact Audio Copy\Flac\flac.exe
Additional command line options : -V -8 -T "Genre=%genre%" -T "Artist=%artist%" -T "Title=%title%" -T "Album=%albumtitle%" -T "Date=%year%" -T "Tracknumber=%tracknr%" -T "Comment=%comment%" %source%


TOC of the extracted CD

Track | Start | Length | Start sector | End sector
––––––––––––––––––––––––––––-
1 | 0:00.00 | 4:33.40 | 0 | 20514
2 | 4:33.40 | 3:04.67 | 20515 | 34381
3 | 7:38.32 | 4:38.16 | 34382 | 55247
4 | 12:16.48 | 4:05.53 | 55248 | 73675
5 | 16:22.26 | 3:02.72 | 73676 | 87397
6 | 19:25.23 | 2:19.68 | 87398 | 97890
7 | 21:45.16 | 5:33.38 | 97891 | 122903
8 | 27:18.54 | 3:31.42 | 122904 | 138770
9 | 30:50.21 | 3:31.49 | 138771 | 154644
10 | 34:21.70 | 4:35.74 | 154645 | 175343
11 | 38:57.69 | 3:18.71 | 175344 | 190264


Track 1

Filename D:\Blondie - Greatest Hits Deluxe Redux\01. Heart Of Glass.wav

Pre-gap length 0:00:02.00

Peak level 100.0 %
Extraction speed 0.8 X
Track quality 99.8 %
Test CRC 87387C9E
Copy CRC 87387C9E
Track not present in AccurateRip database
Copy OK

Track 2

Filename D:\Blondie - Greatest Hits Deluxe Redux\02. Dreaming.wav

Pre-gap length 0:00:01.03

Peak level 100.0 %
Extraction speed 0.9 X
Track quality 99.8 %
Test CRC F831B95B
Copy CRC F831B95B
Track not present in AccurateRip database
Copy OK

Track 3

Filename D:\Blondie - Greatest Hits Deluxe Redux\03. The Tide Is High.wav

Pre-gap length 0:00:00.47

Peak level 90.4 %
Extraction speed 1.3 X
Track quality 99.9 %
Test CRC 97499D57
Copy CRC 97499D57
Track not present in AccurateRip database
Copy OK

Track 4

Filename D:\Blondie - Greatest Hits Deluxe Redux\04. Maria.wav

Pre-gap length 0:00:00.59

Peak level 100.0 %
Extraction speed 1.3 X
Track quality 99.9 %
Test CRC B4480C9F
Copy CRC B4480C9F
Track not present in AccurateRip database
Copy OK

Track 5

Filename D:\Blondie - Greatest Hits Deluxe Redux\05. Sunday Girl.wav

Peak level 100.0 %
Extraction speed 2.4 X
Track quality 100.0 %
Test CRC 528B7B6E
Copy CRC 528B7B6E
Track not present in AccurateRip database
Copy OK

Track 6

Filename D:\Blondie - Greatest Hits Deluxe Redux\06. Hanging On The Telephone.wav

Peak level 100.0 %
Extraction speed 1.7 X
Track quality 100.0 %
Test CRC E88E9D45
Copy CRC E88E9D45
Track not present in AccurateRip database
Copy OK

Track 7

Filename D:\Blondie - Greatest Hits Deluxe Redux\07. Rapture.wav

Pre-gap length 0:00:00.69

Peak level 97.3 %
Extraction speed 1.5 X
Track quality 99.9 %
Test CRC 59FF0703
Copy CRC 59FF0703
Track not present in AccurateRip database
Copy OK

Track 8

Filename D:\Blondie - Greatest Hits Deluxe Redux\08. One Way Or Another.wav

Pre-gap length 0:00:01.12

Peak level 100.0 %
Extraction speed 2.8 X
Track quality 100.0 %
Test CRC 597C28E4
Copy CRC 597C28E4
Track not present in AccurateRip database
Copy OK

Track 9

Filename D:\Blondie - Greatest Hits Deluxe Redux\09. Call Me.wav

Peak level 100.0 %
Extraction speed 1.9 X
Track quality 100.0 %
Test CRC 4636BE3E
Copy CRC 4636BE3E
Track not present in AccurateRip database
Copy OK

Track 10

Filename D:\Blondie - Greatest Hits Deluxe Redux\10. Atomic.wav

Peak level 97.5 %
Extraction speed 2.1 X
Track quality 99.9 %
Test CRC 1259B2AA
Copy CRC 1259B2AA
Track not present in AccurateRip database
Copy OK

Track 11

Filename D:\Blondie - Greatest Hits Deluxe Redux\11. Rip Her To Shreds.wav

Peak level 100.0 %
Extraction speed 1.7 X
Track quality 99.8 %
Test CRC 1124BF9B
Copy CRC 1124BF9B
Track not present in AccurateRip database
Copy OK


None of the tracks are present in the AccurateRip database

No errors occurred

End of status report

==== Log checksum 028B5B94C695AFBAA2DBAC177C05BEB1E563A0D9852B030B25838CABE8543B4C ====

[CUETools log; Date: 10.11.2018 22:34:35; Version: 2.1.6]
[CTDB TOCID: MrP1D5dPV3KugjBv.f6mWmyRtpM-] found.
Track | CTDB Status
1 | (231/232) Accurately ripped
2 | (232/232) Accurately ripped
3 | (231/232) Accurately ripped
4 | (231/232) Accurately ripped
5 | (232/232) Accurately ripped
6 | (232/232) Accurately ripped
7 | (232/232) Accurately ripped
8 | (232/232) Accurately ripped
9 | (231/232) Accurately ripped
10 | (232/232) Accurately ripped
11 | (231/232) Accurately ripped
[AccurateRip ID: 0011903f-009793bf-9209e80b] found.
Track [ CRC | V2 ] Status
01 [811d79da|c93f5608] (002+021/125) Accurately ripped
02 [bb2c07f0|19c88112] (002+021/125) Accurately ripped
03 [3a7d644f|e9c55df4] (002+021/125) Accurately ripped
04 [e1c1ac1f|103b94c3] (002+021/125) Accurately ripped
05 [d1cd9c42|cb6d70c8] (002+021/125) Accurately ripped
06 [63faf9b6|9f0f907d] (002+021/125) Accurately ripped
07 [9b35806b|1da85737] (002+021/125) Accurately ripped
08 [549d991e|dcfdc3fb] (002+021/125) Accurately ripped
09 [82e5831f|9ce3bec7] (002+021/125) Accurately ripped
10 [7f1ae29e|b1cedfcc] (002+021/125) Accurately ripped
11 [0eba8875|c8a6540d] (002+021/125) Accurately ripped
Offsetted by 12:
01 [484ffbf6] (006/125) Accurately ripped
02 [395bfe04] (006/125) Accurately ripped
03 [b78a781f] (006/125) Accurately ripped
04 [b20d9a53] (006/125) Accurately ripped
05 [9dcd35ee] (006/125) Accurately ripped
06 [51012b0e] (006/125) Accurately ripped
07 [12cc1363] (006/125) Accurately ripped
08 [d05d4c12] (006/125) Accurately ripped
09 [b7c86c8f] (006/125) Accurately ripped
10 [3618bfe2] (006/125) Accurately ripped
11 [4bf726fd] (006/125) Accurately ripped
Offsetted by -658:
01 [81214630] (000/125) No match (V2 was not tested)
02 [093b7d52] (000/125) No match (V2 was not tested)
03 [9c305097] (000/125) No match (V2 was not tested)
04 [4428d151] (000/125) No match (V2 was not tested)
05 [9fe38740] (000/125) No match (V2 was not tested)
06 [49d212b2] (000/125) No match (V2 was not tested)
07 [7dca5af7] (000/125) No match (V2 was not tested)
08 [a8636f30] (000/125) No match (V2 was not tested)
09 [d9a082f7] (000/125) No match (V2 was not tested)
10 [22655338] (000/125) No match (V2 was not tested)
11 [c63e93a9] (000/125) No match (V2 was not tested)

Track Peak [ CRC32 ] [W/O NULL] [ LOG ]
– 100,0 [9EF4CAB7] [0503E7E3]
01 100,0 [87387C9E] [39FF5DCB] CRC32
02 100,0 [F831B95B] [D6036492] CRC32
03 90,4 [97499D57] [DA7F3B44] CRC32
04 100,0 [B4480C9F] [A77E914C] CRC32
05 100,0 [528B7B6E] [1EC06F97] CRC32
06 100,0 [E88E9D45] [74163334] CRC32
07 97,3 [59FF0703] [0999FAE2] CRC32
08 100,0 [597C28E4] [55D9C802] CRC32
09 100,0 [4636BE3E] [3F587D59] CRC32
10 97,5 [1259B2AA] [17AE6887] CRC32
11 100,0 [1124BF9B] [6DA93F9E] CRC32

All thanks go to AlexSchl

>>> Blondie in my Blog <<<

Download: