Subcategories

Blondie – The Best Of Blondie (1981) 2006 Remastered, Japan Mini-LP [TOCP-67896]

Posted By: Designol
Blondie – The Best Of Blondie (1981) 2006 Remastered, Japan Mini-LP [TOCP-67896]

Blondie – The Best Of Blondie (1981) 2006 Remastered, Japan Mini-LP [TOCP-67896]
EAC | FLAC | Tracks (Cue&Log) + Scans ~ 403 Mb (incl 5%) | Mp3 (CBR320/Stereo) + Scans ~ 154 Mb (incl 5%)
Genre: New Wave, Punk Rock, Pop Rock, Power Pop | Label: Toshiba-EMI/Chrysalis | # TOCP-67896 | Time: 00:52:22

“The Best of Blondie” is a compilation album by American rock band Blondie. It was released in October 1981, and peaked at no.1 in Australia, no.4 in the UK and no.30 in the US. This edition remastered 2006 includes 3 bonus tracks.
Blondie – The Best Of Blondie (1981) 2006 Remastered, Japan Mini-LP [TOCP-67896]

Although Blondie made several first-rate albums, most of their best songs were released as singles, which makes The Best of Blondie an essential collection. The Best of Blondie glosses over their punk roots – very little from the first album, apart from the vicious "Rip Her to Shreds" and the seductive "In the Flesh" – but the band's pop hits are among the finest of their era and encapsulate all of the virtues of new wave. Apart from genuine chart hits like "Heart of Glass," "One Way or Another," "Dreaming," "Call Me," "Atomic," "The Tide Is High," and "Rapture," Best of Blondie picks up several of the group's best album tracks, like "(I'm Always Touched by Your) Presence, Dear" and "Hanging on the Telephone." The Best of Blondie isn't all you need to know, but it is an excellent introduction to one of the best new wave bands.
Review by Stephen Thomas Erlewine, Allmusic.com
Blondie – The Best Of Blondie (1981) 2006 Remastered, Japan Mini-LP [TOCP-67896]



Tracklist:

01 Heart Of Glass 4:30
02 Dreaming 3:03
03 The Tide Is High 4:37
04 In The Flesh 2:30
05 Sunday Girl 3:01
06 Hanging On The Telephone 2:21
07 One Way Or Another 3:34
08 Rapture 5:34
09 (I'm Always Touched By Your) Presence Dear 2:41
10 Call Me 3:28
11 Atomic 4:37
12 Rip Her To Shreds 3:22
Bonus Tracks:
13 Denis 2:16
14 Picture This 2:56
15 Union City Blue 3:19


Exact Audio Copy V0.99 prebeta 5 from 4. May 2009

EAC extraction logfile from 8. September 2009, 13:49

Blondie / The Best of Blondie

Used drive : LITE-ON CD-RW SOHR-5238S Adapter: 5 ID: 3

Read mode : Secure
Utilize accurate stream : Yes
Defeat audio cache : Yes
Make use of C2 pointers : No

Read offset correction : 6
Overread into Lead-In and Lead-Out : No
Fill up missing offset samples with silence : Yes
Delete leading and trailing silent blocks : No
Null samples used in CRC calculations : Yes
Used interface : Installed external ASPI interface
Gap handling : Appended to previous track

Used output format : Internal WAV Routines
Sample format : 44.100 Hz; 16 Bit; Stereo


TOC of the extracted CD

Track | Start | Length | Start sector | End sector
––––––––––––––––––––––––––––-
1 | 0:00.00 | 4:34.45 | 0 | 20594
2 | 4:34.45 | 3:07.63 | 20595 | 34682
3 | 7:42.33 | 4:42.18 | 34683 | 55850
4 | 12:24.51 | 2:32.06 | 55851 | 67256
5 | 14:56.57 | 3:04.47 | 67257 | 81103
6 | 18:01.29 | 2:22.10 | 81104 | 91763
7 | 20:23.39 | 5:37.55 | 91764 | 117093
8 | 26:01.19 | 3:34.36 | 117094 | 133179
9 | 29:35.55 | 2:43.51 | 133180 | 145455
10 | 32:19.31 | 3:33.27 | 145456 | 161457
11 | 35:52.58 | 4:40.31 | 161458 | 182488
12 | 40:33.14 | 3:22.33 | 182489 | 197671
13 | 43:55.47 | 2:16.57 | 197672 | 207928
14 | 46:12.29 | 2:56.15 | 207929 | 221143
15 | 49:08.44 | 3:20.40 | 221144 | 236183


Track 1

Filename F:\eac\Blondie\01 - Heart of Glass.wav

Pre-gap length 0:00:02.00

Peak level 98.8 %
Track quality 99.9 %
Test CRC 0EEB7591
Copy CRC 0EEB7591
Track not present in AccurateRip database
Copy OK

Track 2

Filename F:\eac\Blondie\02 - Dreaming.wav

Pre-gap length 0:00:01.49

Peak level 98.8 %
Track quality 100.0 %
Test CRC 8B016825
Copy CRC 8B016825
Track not present in AccurateRip database
Copy OK

Track 3

Filename F:\eac\Blondie\03 - The Tide Is High.wav

Pre-gap length 0:00:01.50

Peak level 98.8 %
Track quality 99.9 %
Test CRC 369A391B
Copy CRC 369A391B
Track not present in AccurateRip database
Copy OK

Track 4

Filename F:\eac\Blondie\04 - In The Flesh.wav

Pre-gap length 0:00:01.37

Peak level 98.6 %
Track quality 99.9 %
Test CRC EA02CB89
Copy CRC EA02CB89
Track not present in AccurateRip database
Copy OK

Track 5

Filename F:\eac\Blondie\05 - Sunday Girl.wav

Pre-gap length 0:00:01.81

Peak level 98.8 %
Track quality 99.9 %
Test CRC 1E652D26
Copy CRC 1E652D26
Track not present in AccurateRip database
Copy OK

Track 6

Filename F:\eac\Blondie\06 - Hanging On The Telephone.wav

Pre-gap length 0:00:01.49

Peak level 98.8 %
Track quality 99.9 %
Test CRC C72EEA28
Copy CRC C72EEA28
Track not present in AccurateRip database
Copy OK

Track 7

Filename F:\eac\Blondie\07 - Rapture.wav

Pre-gap length 0:00:01.45

Peak level 98.8 %
Track quality 100.0 %
Test CRC 4358A43D
Copy CRC 4358A43D
Track not present in AccurateRip database
Copy OK

Track 8

Filename F:\eac\Blondie\08 - One Way Or Another.wav

Pre-gap length 0:00:01.49

Peak level 98.5 %
Track quality 100.0 %
Test CRC CD76A5AA
Copy CRC CD76A5AA
Track not present in AccurateRip database
Copy OK

Track 9

Filename F:\eac\Blondie\09 - (I'm Always Touched By Your) Presence Dear.wav

Pre-gap length 0:00:01.49

Peak level 98.8 %
Track quality 99.9 %
Test CRC 85C0E2AB
Copy CRC 85C0E2AB
Track not present in AccurateRip database
Copy OK

Track 10

Filename F:\eac\Blondie\10 - Call Me.wav

Pre-gap length 0:00:02.60

Peak level 92.6 %
Track quality 100.0 %
Test CRC D5817A69
Copy CRC D5817A69
Track not present in AccurateRip database
Copy OK

Track 11

Filename F:\eac\Blondie\11 - Atomic.wav

Pre-gap length 0:00:01.45

Peak level 98.8 %
Track quality 100.0 %
Test CRC DE8BE9E5
Copy CRC DE8BE9E5
Track not present in AccurateRip database
Copy OK

Track 12

Filename F:\eac\Blondie\12 - Rip Her To Shreds.wav

Pre-gap length 0:00:01.36

Peak level 98.8 %
Track quality 100.0 %
Test CRC 8BE605DF
Copy CRC 8BE605DF
Track not present in AccurateRip database
Copy OK

Track 13

Filename F:\eac\Blondie\13 - Denis.wav

Pre-gap length 0:00:01.49

Peak level 98.8 %
Track quality 100.0 %
Test CRC 3E8E6EBF
Copy CRC 3E8E6EBF
Track not present in AccurateRip database
Copy OK

Track 14

Filename F:\eac\Blondie\14 - Picture This.wav

Pre-gap length 0:00:01.49

Peak level 98.8 %
Track quality 100.0 %
Test CRC 14C77B2E
Copy CRC 14C77B2E
Track not present in AccurateRip database
Copy OK

Track 15

Filename F:\eac\Blondie\15 - Union City Blue.wav

Pre-gap length 0:00:01.50

Peak level 98.8 %
Track quality 100.0 %
Test CRC 26B4E153
Copy CRC 26B4E153
Track not present in AccurateRip database
Copy OK


None of the tracks are present in the AccurateRip database

No errors occurred

End of status report

[CUETools log; Date: 09.08.2011 4:14:35; Version: 2.1.1]
[CTDB TOCID: 3bXW2g6FkP0xHkwxn6QUCdxVn50-] disk not present in database.
[AccurateRip ID: 001dd044-014f2ef9-e30c4d0f] found.
Track [ CRC ] Status
01 [091fbce8] (4/4) Accurately ripped
02 [d752617c] (4/4) Accurately ripped
03 [9fa8ff8c] (4/4) Accurately ripped
04 [26386b96] (4/4) Accurately ripped
05 [bafabbf6] (4/4) Accurately ripped
06 [0657b9dc] (4/4) Accurately ripped
07 [ed220c4c] (4/4) Accurately ripped
08 [bd7c1d93] (4/4) Accurately ripped
09 [ae8d6fdf] (4/4) Accurately ripped
10 [921d249d] (4/4) Accurately ripped
11 [9be1dbfc] (4/4) Accurately ripped
12 [c1863f65] (4/4) Accurately ripped
13 [79c92755] (4/4) Accurately ripped
14 [65ef134e] (4/4) Accurately ripped
15 [fa0758a1] (4/4) Accurately ripped

Track Peak [ CRC32 ] [W/O NULL] [ LOG ]
– 98,8 [70EC0785] [FE0A215B]
01 98,8 [0EEB7591] [3C4A5AC4] CRC32
02 98,8 [8B016825] [3F0D260B] CRC32
03 98,8 [369A391B] [E804E44F] CRC32
04 98,6 [EA02CB89] [84CA3076] CRC32
05 98,8 [1E652D26] [B6A40793] CRC32
06 98,8 [C72EEA28] [EAFEFB15] CRC32
07 98,8 [4358A43D] [6C9BA0FA] CRC32
08 98,5 [CD76A5AA] [0C5D9FB1] CRC32
09 98,8 [85C0E2AB] [28F677CA] CRC32
10 92,6 [D5817A69] [D9101B13] CRC32
11 98,8 [DE8BE9E5] [BFBACB83] CRC32
12 98,8 [8BE605DF] [3D9841B4] CRC32
13 98,8 [3E8E6EBF] [16E49692] CRC32
14 98,8 [14C77B2E] [93F0271D] CRC32
15 98,8 [26B4E153] [7AC01D6C] CRC32


Blondie – The Best Of Blondie (1981) 2006 Remastered, Japan Mini-LP [TOCP-67896]

Blondie – The Best Of Blondie (1981) 2006 Remastered, Japan Mini-LP [TOCP-67896]


All thanks to garet jax for lossless

->> Welcome to Designol Blog <<-