Subcategories

Blood Of The Sun - Burning On The Wings Of Desire (2012)

Posted By: Andi_Deris
Blood Of The Sun - Burning On The Wings Of Desire (2012)

Blood Of The Sun - Burning On The Wings Of Desire (2012)
EAC Rip | FLAC: Image+Cue+Log | 298 Mb | MP3 CBR 320 kbps | 109 Mb | Scans | 38:01
Listenable Records | POSH 188
Rock, Hard Rock, Heavy Prog

The real deal when it comes to delivering authentic hard and heavy 70's influenced underground rock! Recorded entirely on ancient analog gear and capturing a raw, earthy sound with monster musicianship and lead weight heavy rock this will groove your head and soul! Grade "A" quality heavy rock that stands up with Deep Purple (early), Mountain, Dust, Buffalo, Grand Funk, James Gang, Uriah Heep, Bad Company, 70's Pentagram, Atomic Rooster, Bang, Wicked Minds, Spiritual Beggars, Witchcraft etc…

Blood Of The Sun - Burning On The Wings Of Desire (2012)


Track Listing

01. Let It Roll (4:06)
02. Burning On The Wings Of Desire (4:27)
03. Can't Stop My Heart (4:04)
04. Brings Me Down (4:17)
05. Rock Your Station (4:32)
06. Good Feeling (4:38)
07. The Snitch (4:34)
08. Good And Evil (7:23)

Produced by T. Dallas Reed

The Band

• John O'Daniel - vocals
• Tony Reed - bass & lead guitar
• Rusty Burns - lead guitar
• Dave Gryder - organ, clavinet, electric & acoustic, piano, mellotron
• Henry Vasquez - drums

*****
• Scott "Wino" Weinrich - guitar & vocals (8)

Notes

Blood of The Sun is an American band playing mix of 70' classic hard rock/heavy prog a la Deep Purple mark II, Uriah Heep, Lucifer's Friend, Bloodrock and Atomic Rooster (tasty guitar riffs, fantastic real Hammond B3 organ soloing, good melodies) and Stoner rock (especially vocals). They usually play quite long 5-8 minutes songs with long organ/guitar soloing. The most important bandmate in Blood of the Sun is their organist/pianist Dave Gryder who previously played in symphonic prog group Covenent (already on PA) and heavy prog Storm At Sunrise.

Blood Of The Sun - Burning On The Wings Of Desire (2012)


Exact Audio Copy V0.99 prebeta 5 from 4. May 2009

Отчёт EAC об извлечении, выполненном 24. марта 2013, 13:40

Blood Of The Sun / Burning On The Wings Of Desire

Дисковод: Optiarc DVD RW AD-7280S Adapter: 0 ID: 1

Режим чтения : Достоверность
Использование точного потока : Да
Отключение кэша аудио : Да
Использование указателей C2 : Нет

Коррекция смещения при чтении : 48
Способность читать области Lead-in и Lead-out : Нет
Заполнение пропущенных сэмплов тишиной : Да
Удаление блоков с тишиной в начале и конце : Нет
При вычислениях CRC использовались нулевые сэмплы : Да
Интерфейс : Встроенный Win32-интерфейс для Win NT/2000

Выходной формат : Пользовательский кодировщик
Выбранный битрейт : 1024 kBit/s
Качество : Высокий
Добавление ID3-тэга : Нет
Утилита сжатия : C:\Program Files\Exact Audio Copy\FLAC\FLAC.EXE
Дополнительные параметры : -8 -V -T "ARTIST=%a" -T "TITLE=%t" -T "ALBUM=%g" -T "DATE=%y" -T "TRACKNUMBER=%n" -T "GENRE=%m" -T "COMMENT=%e" %s -o %d


TOC извлечённого CD

Трек | Старт | Длительность | Начальный сектор | Конечный сектор
––––––––––––––––––––––––––––––––––-
1 | 0:00.00 | 4:06.44 | 0 | 18493
2 | 4:06.44 | 4:27.04 | 18494 | 38522
3 | 8:33.48 | 4:04.10 | 38523 | 56832
4 | 12:37.58 | 4:17.54 | 56833 | 76161
5 | 16:55.37 | 4:32.38 | 76162 | 96599
6 | 21:28.00 | 4:38.12 | 96600 | 117461
7 | 26:06.12 | 4:34.03 | 117462 | 138014
8 | 30:40.15 | 7:23.60 | 138015 | 171299


Характеристики диапазона извлечения и сообщения об ошибках

Выбранный диапазон

Имя файла D:\razdachy\Blood Of The Sun - Burning On The Wings Of Desire.wav

Пиковый уровень 100.0 %
Качество диапазона 100.0 %
CRC теста C37DEE65
CRC копии C37DEE65
Копирование… OK

Ошибок не произошло


AccurateRip: сводка

Трек 1 нет в базе данных
Трек 2 нет в базе данных
Трек 3 нет в базе данных
Трек 4 нет в базе данных
Трек 5 нет в базе данных
Трек 6 нет в базе данных
Трек 7 нет в базе данных
Трек 8 нет в базе данных

Ни одного трека нет в базе AccurateRip

Конец отчёта


Many thanks to the original uploader

SEE also:
Blood Of The Sun 2008 Death Ride



Password: pass