Tags
Language
Tags

Blue Öyster Cult - Agents Of Fortune (1976) {1992, Reissue}

Posted By: popsakov
Blue Öyster Cult - Agents Of Fortune (1976) {1992, Reissue}

Blue Öyster Cult - Agents Of Fortune (1976) {1992, Reissue}
EAC Rip | FLAC (Img) + Cue + Log ~ 253 Mb | MP3 CBR320 ~ 102 Mb
Full Scans | 00:36:28 | RAR 5% Recovery
Classic Rock, Hard Rock | Epic #982732 2

If ever there were a manifesto for 1970s rock, one that prefigured both the decadence of the decade's burgeoning heavy metal and prog rock excesses and the rage of punk rock, "This Ain't the Summer of Love," the opening track from Agents of Fortune, Blue Öyster Cult's fourth album, was it. The irony was that while the cut itself came down firmly on the hard rock side of the fence, most of the rest of the album didn't. Agents of Fortune was co-produced by longtime Cult record boss Sandy Pearlman, Murray Krugman, and newcomer David Lucas, and in addition, the band's lyric writing was being done internally with help from poet-cum-rocker Patti Smith (who also sings on "The Revenge of Vera Gemini"). Pearlman, a major contributor to the band's songwriting output, received a solitary credit while critic Richard Meltzer, whose words were prevalent on the Cult's previous outings, was absent. The album yielded the band's biggest single with "(Don't Fear) The Reaper," a multi-textured, deeply melodic soft rock song with psychedelic overtones, written by guitarist Donald "Buck Dharma" Roeser. The rest of the album is ambitious in that it all but tosses aside the Cult's proto-metal stance and instead recontextualizes their entire stance. It's still dark, mysterious, and creepy, and perhaps even more so, it's still rooted in rock posturing and excess, but gone is the nihilistic biker boogie in favor of a more tempered – indeed, nearly pop arena rock – sound that gave Allen Lanier's keyboards parity with Dharma's guitar roar, as evidenced by "E.T.I.," "Debbie Denise," and "True Confessions." This is not to say that the Cult abandoned their adrenaline rock sound entirely. Cuts like "Tattoo Vampire" and "Sinful Love" have plenty of feral wail in them. Ultimately, Agents of Fortune is a solid record, albeit a startling one for fans of the band's earlier sound. It also sounds like one of restless inspiration, which is, in fact, what it turned out to be given the recordings that came after. It turned out to be the Cult's last consistent effort until they released Fire of Unknown Origin in 1981.

~ Thom Jurek, All Music

***************

Blue Öyster Cult - Agents Of Fortune (1976) {1992, Reissue}

Blue Öyster Cult - Agents Of Fortune (1976) {1992, Reissue}

Track List:

01. This Ain't the Summer of Love [2:22]
02. True Confessions [2:56]
03. (Don't Fear) The Reaper [5:08]
04. E.T.I. (Extra Terrestrial Intelligence) [3:43]
05. The Revenge of Vera Gemini [3:49]
06. Sinful Love [3:29]
07. Tattoo Vampire [2:41]
08. Morning Final [4:30]
09. Tenderloin [3:39]
10. Debbie Denise [4:11]

Exact Audio Copy V1.3 from 2. September 2016

Отчёт EAC об извлечении, выполненном 25. августа 2019, 0:12

Blue Öyster Cult / Agents of Fortune

Дисковод: PLEXTOR CD-R PX-S88T Adapter: 1 ID: 0

Режим чтения : Достоверность
Использование точного потока : Да
Отключение кэша аудио : Да
Использование указателей C2 : Нет

Коррекция смещения при чтении : 98
Способность читать области Lead-in и Lead-out : Нет
Заполнение пропущенных сэмплов тишиной : Да
Удаление блоков с тишиной в начале и конце : Нет
При вычислениях CRC использовались нулевые сэмплы : Да
Интерфейс : Встроенный Win32-интерфейс для Win NT/2000

Выходной формат : Пользовательский кодировщик
Выбранный битрейт : 1024 kBit/s
Качество : Высокий
Добавление ID3-тега : Нет
Утилита сжатия : C:\Program Files\Exact Audio Copy\FLAC\FLAC.EXE
Дополнительные параметры : -V -8 -T "Date=%year%" -T "Genre=%genre%" %source%


TOC извлечённого CD

Трек | Старт | Длительность | Начальный сектор | Конечный сектор
––––––––––––––––––––––––––––––––––-
1 | 0:00.00 | 2:21.50 | 0 | 10624
2 | 2:21.50 | 2:56.20 | 10625 | 23844
3 | 5:17.70 | 5:07.62 | 23845 | 46931
4 | 10:25.57 | 3:42.40 | 46932 | 63621
5 | 14:08.22 | 3:49.10 | 63622 | 80806
6 | 17:57.32 | 3:29.03 | 80807 | 96484
7 | 21:26.35 | 2:40.50 | 96485 | 108534
8 | 24:07.10 | 4:29.67 | 108535 | 128776
9 | 28:37.02 | 3:39.05 | 128777 | 145206
10 | 32:16.07 | 4:11.35 | 145207 | 164066


Характеристики диапазона извлечения и сообщения об ошибках

Выбранный диапазон

Имя файла E:\Торент-раздача\Blue Öyster Cult 1976 Agents of Fortune\Blue Öyster Cult - Agents of Fortune.wav

Пиковый уровень 100.0 %
Скорость извлечения 2.4 X
Качество диапазона 99.9 %
CRC теста 1AD6CBE6
CRC копии 1AD6CBE6
Копирование… OK

Ошибок не произошло


AccurateRip: сводка

Трек 1 : извлечено точно (доверие 9) [33F5B35B] (AR v2)
Трек 2 : извлечено точно (доверие 8) [10EB094C] (AR v2)
Трек 3 : извлечено точно (доверие 9) [0C0ABE16] (AR v2)
Трек 4 : извлечено точно (доверие 8) [A137DBCE] (AR v2)
Трек 5 : извлечено точно (доверие 8) [DD28034C] (AR v2)
Трек 6 : извлечено точно (доверие 8) [98A8DED9] (AR v2)
Трек 7 : извлечено точно (доверие 8) [7A1CEF97] (AR v2)
Трек 8 : извлечено точно (доверие 8) [6E92C647] (AR v2)
Трек 9 : извлечено точно (доверие 8) [91A28269] (AR v2)
Трек 10 : извлечено точно (доверие 7) [ECFADF3E] (AR v2)

Все треки извлечены точно

Конец отчёта

–– CUETools DB Plugin V2.1.6

[CTDB TOCID: gbQuNWZMZfEzaLe1MBsCUFdRqgs-] found
Submit result: already submitted
Track | CTDB Status
1 | (30/30) Accurately ripped
2 | (30/30) Accurately ripped
3 | (30/30) Accurately ripped
4 | (30/30) Accurately ripped
5 | (30/30) Accurately ripped
6 | (30/30) Accurately ripped
7 | (30/30) Accurately ripped
8 | (30/30) Accurately ripped
9 | (30/30) Accurately ripped
10 | (30/30) Accurately ripped


==== Контрольная сумма отчёта D77FAE6D64BC06FEE7C2AD35AE20D98348760B6041DCAC41E5E0637C34CF9BB6 ====

[CUETools log; Date: 25.08.2019 19:59:05; Version: 2.1.6]
[CTDB TOCID: gbQuNWZMZfEzaLe1MBsCUFdRqgs-] found.
Track | CTDB Status
1 | (30/30) Accurately ripped
2 | (30/30) Accurately ripped
3 | (30/30) Accurately ripped
4 | (30/30) Accurately ripped
5 | (30/30) Accurately ripped
6 | (30/30) Accurately ripped
7 | (30/30) Accurately ripped
8 | (30/30) Accurately ripped
9 | (30/30) Accurately ripped
10 | (30/30) Accurately ripped
[AccurateRip ID: 000d4226-006b777d-90088b0a] found.
Track [ CRC | V2 ] Status
01 [2e4d6759|33f5b35b] (07+09/21) Accurately ripped
02 [89c997db|10eb094c] (07+08/20) Accurately ripped
03 [a863861b|0c0abe16] (08+09/23) Accurately ripped
04 [e3af67e5|a137dbce] (07+08/20) Accurately ripped
05 [e14e0377|dd28034c] (07+08/20) Accurately ripped
06 [adaa8ae3|98a8ded9] (07+08/20) Accurately ripped
07 [32e25789|7a1cef97] (07+08/20) Accurately ripped
08 [2ef3698d|6e92c647] (07+08/20) Accurately ripped
09 [69bb7401|91a28269] (07+08/20) Accurately ripped
10 [ecab0b39|ecfadf3e] (06+07/18) Accurately ripped
Offsetted by -899:
01 [ce9fb61b] (03/21) Accurately ripped
02 [1791aacf] (03/20) Accurately ripped
03 [905638b5] (03/23) Accurately ripped
04 [ac704d17] (03/20) Accurately ripped
05 [a65c0860] (03/20) Accurately ripped
06 [b61ee971] (03/20) Accurately ripped
07 [5fd8a735] (03/20) Accurately ripped
08 [0517ceec] (03/20) Accurately ripped
09 [ace02730] (03/20) Accurately ripped
10 [53fdd482] (03/18) Accurately ripped

Track Peak [ CRC32 ] [W/O NULL] [ LOG ]
– 100,0 [1AD6CBE6] [46903628] CRC32
01 86,1 [454E29E1] [C9268FB0]
02 98,1 [44636FAF] [70BD35B8]
03 93,0 [9B29E3B1] [C62CFEC7]
04 85,6 [AC811ABD] [94E308CD]
05 100,0 [DE9AFA2D] [E944AEA9]
06 88,1 [1AED66BF] [28DE8265]
07 85,0 [0A455BE9] [3182EB4B]
08 84,2 [569A0276] [E6E81FA1]
09 86,7 [2EC2E8AF] [8FB4C0E6]
10 90,0 [485ED9A1] [82172985]

Blue Öyster Cult - Agents Of Fortune (1976) {1992, Reissue}


All thanks go to barsu-1

>>> Blue Öyster Cult in my Blog <<<

DOWNLOAD: