Subcategories

Kenny Blue Ray - Bless My Axe (1998)

Posted By: countryfreak
Kenny Blue Ray - Bless My Axe (1998)

Kenny Blue Ray - Bless My Axe (1998)
EAC Rip | FLAC (Image) + CUE + LOG | 377 MB | + Covers
Genre: Blues/Modern Electric | Label: Tone King Records | Catalog Number: 1062 | Release Date: 1998
RAR 5% Rec. | Rapidshare + Fileserve

There's no mistake why he's dubbed the "Tone King." He employs the often imitated West Coast sound, but stands out by incorporating a variety of colors and textures. Never restricted to the Wild West sound, he stretches out in "Cadillac Drive," paying homage to jazz great Wes Montgomery, and tackling the Stanley Turrentine classic "Sugar," peppering blue notes within its jazz base. Acknowledging a passion for transitional country-electric blues, he wisely choses a lesser-known John Lee Hooker tune, "Maudie," and an original, "Mississippi 3 a.m." To truly enjoy his range, listen to "Tone Party," a cooker filled with single-note passages, each possessing a powerful punch.

––––––
Tracklist
––––––
1. The Blues Seem To Follow Me 3:21
2. Bless My Axe 5:21
3. How Many More Years 3:21
4. Blues For 2 Bad Jim 3:04
5. Call My Job 5:07
6. Matchbox 3:55
7. Cadillac Drive 4:32
8. Maudie 3:18
9. Tone Party 2:52
10. Couch Pilot 4:29
11. Checkin' On My Baby 3:15
12. Sugar 5:31
13. Reconsider Baby 3:36
14. Mississippi 3 am 3:27
Personnel featuring:
Rob Sudduth of Huey Lewis & The News - Tenor & Bariton Sax
Louis Pain of The Paul DeLay Band - Harp & Organ
Little Danny & Charlie Chavez - Vocals & Harp

Kenny Blue Ray - Bless My Axe (1998)

Exact Audio Copy V1.0 beta 1 from 15. November 2010

EAC extraction logfile from 7. March 2011, 14:50

Kenny "Blue" Ray / Bless My Axe

Used drive : ASUS DRW-24B1LT Adapter: 3 ID: 0

Read mode : Secure
Utilize accurate stream : Yes
Defeat audio cache : Yes
Make use of C2 pointers : No

Read offset correction : 6
Overread into Lead-In and Lead-Out : No
Fill up missing offset samples with silence : Yes
Delete leading and trailing silent blocks : No
Null samples used in CRC calculations : Yes
Used interface : Native Win32 interface for Win NT & 2000

Used output format : Benutzerdefinierter Komprimierer
Selected bitrate : 1024 kBit/s
Quality : High
Add ID3 tag : No
Command line compressor : C:\Program Files\Exact Audio Copy\FLAC\FLAC.EXE
Additional command line options : -6 -V -T "ARTIST=%a" -T "TITLE=%t" -T "ALBUM=%g" -T "DATE=%y" -T "TRACKNUMBER=%n" -T "GENRE=%m" -T "COMMENT=%e" %j–picture="%i"%j %s -o %d


TOC of the extracted CD

Track | Start | Length | Start sector | End sector
––––––––––––––––––––––––––––-
1 | 0:00.00 | 3:21.56 | 0 | 15130
2 | 3:21.56 | 5:21.68 | 15131 | 39273
3 | 8:43.49 | 3:21.66 | 39274 | 54414
4 | 12:05.40 | 3:04.32 | 54415 | 68246
5 | 15:09.72 | 5:07.29 | 68247 | 91300
6 | 20:17.26 | 3:55.28 | 91301 | 108953
7 | 24:12.54 | 4:32.61 | 108954 | 129414
8 | 28:45.40 | 3:18.70 | 129415 | 144334
9 | 32:04.35 | 2:52.51 | 144335 | 157285
10 | 34:57.11 | 4:29.62 | 157286 | 177522
11 | 39:26.73 | 3:15.03 | 177523 | 192150
12 | 42:42.01 | 5:31.18 | 192151 | 216993
13 | 48:13.19 | 3:36.13 | 216994 | 233206
14 | 51:49.32 | 3:26.56 | 233207 | 248712


Range status and errors

Selected range

Filename D:\MUSIK\Kenny Blue Ray - Bless My Axe [FLAC] (1998)\Kenny ''Blue'' Ray - Bless My Axe.wav

Peak level 99.1 %
Extraction speed 0.4 X
Range quality 100.0 %
Copy CRC 4C7F09BE
Copy OK

No errors occurred


AccurateRip summary

Track 1 cannot be verified as accurate (confidence 1) [750A3AF5], AccurateRip returned [22194CF3]
Track 2 cannot be verified as accurate (confidence 1) [334AD4E6], AccurateRip returned [0C934D7A]
Track 3 cannot be verified as accurate (confidence 1) [BF956F41], AccurateRip returned [16A7BB09]
Track 4 cannot be verified as accurate (confidence 1) [F23F78BF], AccurateRip returned [5E536131]
Track 5 cannot be verified as accurate (confidence 1) [F484AB39], AccurateRip returned [2184B11F]
Track 6 cannot be verified as accurate (confidence 1) [9866B3A0], AccurateRip returned [C3B77E46]
Track 7 cannot be verified as accurate (confidence 1) [FED33CF4], AccurateRip returned [AAF3A3D4]
Track 8 cannot be verified as accurate (confidence 1) [CF363225], AccurateRip returned [A8ED2423]
Track 9 cannot be verified as accurate (confidence 1) [8E4BC595], AccurateRip returned [117E1EA5]
Track 10 cannot be verified as accurate (confidence 1) [65D0DCF8], AccurateRip returned [6FD8E98E]
Track 11 cannot be verified as accurate (confidence 1) [F7BA8B7B], AccurateRip returned [CFB344CD]
Track 12 cannot be verified as accurate (confidence 1) [21123B49], AccurateRip returned [5C0CC50D]
Track 13 cannot be verified as accurate (confidence 1) [D2D86F8A], AccurateRip returned [16A125AC]
Track 14 cannot be verified as accurate (confidence 1) [5DC5C283], AccurateRip returned [88324C53]

No tracks could be verified as accurate
You may have a different pressing from the one(s) in the database

End of status report


**** Rapidshare ****

Part 1|Part 2|Part 3|Part 4

**** Fileserve ****

Part 1|Part 2|Part 3|Part 4

The files are interchangeable!

***** Pass: countryfreak *****

In case you encounter dead links in any of my posts, please send me a private message !!!!

NO mirrors and/or direct links in your comments, please !!!!

****Visit My Blog****