Subcategories

Blue Mountain Eagle - Blue Mountain Eagle (1970) [Reissue 2012]

Posted By: antonyart
Blue Mountain Eagle - Blue Mountain Eagle (1970) [Reissue 2012]

Blue Mountain Eagle - Blue Mountain Eagle (1970) [Reissue 2012]
EAC Rip | FLAC (IMG+CUE+LOG) | 272 MB | Complete HQ Scans 600 dpi JPG included | MP3 Lame 320 CBR | 86 MB
Genre: Progressive Rock / Soft Psychedelic Rock | RAR 5% Rec. | Label: Flawed Gems (GEM 71) | Uploaded, Depositfiles

This amazing album was recorded in a single December 1969 session (with noted CSNY producer Bill Halverson) and released in February 1970 by Atco Records. All the musicians from that band had worked previously with drummer Dewey Martin in his New Buffalo Springfield and the similarities with Stills/Young original group are very evident here. The LP features a stash of eclectic and very diverse material, impressive multiple vocal harmonies and the Springfield's trademark three-guitar assault - with plenty of fuzz! This band can be ethereal and dreamy or genuinely heavy. In other words it’s an astonishing mixture of West Coast rock and heavier, UK-influenced riff-rock, in addition devoid of any weak tracks! This carefully remastered edition has been expanded with one track from rare single.
Blue Mountain Eagle - Blue Mountain Eagle (1970) [Reissue 2012]

Tracklist:

01. Love Is Here 04:25
02. Yellow's Dream 02:47
03. Feel Like A Bandit 03:06
04. Troubles 03:08
05. Loveless Lives 03:32
06. No Regrets 04:14
07. Winding Your String 02:55
08. Sweet Mama 04:18
09. Promise Of Love 03:03
10. Trivial Sum 03:17
11. Marianne (Bonus A-Side, 1970 SP) 02:31

Total: 37:17

Exact Audio Copy V1.0 beta 3 from 29. August 2011

EAC extraction logfile from 1. December 2012, 9:44

Blue Mountain Eagle / Blue Mountain Eagle

Used drive : HL-DT-STDVDRAM GT34N Adapter: 0 ID: 2

Read mode : Secure
Utilize accurate stream : Yes
Defeat audio cache : Yes
Make use of C2 pointers : No

Read offset correction : 103
Overread into Lead-In and Lead-Out : No
Fill up missing offset samples with silence : Yes
Delete leading and trailing silent blocks : No
Null samples used in CRC calculations : Yes
Used interface : Native Win32 interface for Win NT & 2000

Used output format : User Defined Encoder
Selected bitrate : 896 kBit/s
Quality : High
Add ID3 tag : Yes
Command line compressor : C:\Program Files (x86)\Exact Audio Copy\FLAC\FLAC.EXE
Additional command line options : -6 -V -T "ARTIST=%artist%" -T "TITLE=%title%" -T "ALBUM=%albumtitle%" -T "DATE=%year%" -T "TRACKNUMBER=%tracknr%" -T "GENRE=%genre%" -T "COMMENT=%comment%" -T "BAND=%albuminterpret%" -T "ALBUMARTIST=%albuminterpret%" -T "COMPOSER=%composer%" %haslyrics%–tag-from-file=LYRICS="%lyricsfile%"%haslyrics% -T "DISCNUMBER=%cdnumber%" -T "TOTALDISCS=%totalcds%" -T "TOTALTRACKS=%numtracks%" %hascover%–picture="%coverfile%"%hascover% %source% -o %dest%


TOC of the extracted CD

Track | Start | Length | Start sector | End sector
––––––––––––––––––––––––––––-
1 | 0:00.00 | 4:25.02 | 0 | 19876
2 | 4:25.02 | 2:47.12 | 19877 | 32413
3 | 7:12.14 | 3:05.38 | 32414 | 46326
4 | 10:17.52 | 3:07.65 | 46327 | 60416
5 | 13:25.42 | 3:32.33 | 60417 | 76349
6 | 16:58.00 | 4:14.01 | 76350 | 95400
7 | 21:12.01 | 2:55.28 | 95401 | 108553
8 | 24:07.29 | 4:17.48 | 108554 | 127876
9 | 28:25.02 | 3:03.33 | 127877 | 141634
10 | 31:28.35 | 3:16.60 | 141635 | 156394
11 | 34:45.20 | 2:31.32 | 156395 | 167751


Range status and errors

Selected range

Filename D:\FLAC\BLUE MOUNTAIN EAGLE -70- Blue Mountain Eagle\Blue Mountain Eagle - Blue Mountain Eagle.wav

Peak level 100.0 %
Extraction speed 1.9 X
Range quality 99.9 %
Test CRC B113FECF
Copy CRC B113FECF
Copy OK

No errors occurred


AccurateRip summary

Track 1 not present in database
Track 2 not present in database
Track 3 not present in database
Track 4 not present in database
Track 5 not present in database
Track 6 not present in database
Track 7 not present in database
Track 8 not present in database
Track 9 not present in database
Track 10 not present in database
Track 11 not present in database

None of the tracks are present in the AccurateRip database

End of status report

==== Log checksum CEEF254CBC18C4825299466D05926F2D6F5AAED33DCF4A4754A249166A580406 ====

foobar2000 1.1.9 / Dynamic Range Meter 1.1.1
log date: 2013-02-05 12:20:22

––––––––––––––––––––––––––––––––––––––––
Analyzed: Blue Mountain Eagle / Blue Mountain Eagle
––––––––––––––––––––––––––––––––––––––––

DR Peak RMS Duration Track
––––––––––––––––––––––––––––––––––––––––
DR9 -0.40 dB -10.17 dB 4:25 01-Love Is Here
DR9 -0.40 dB -11.79 dB 2:47 02-Yellows' Dream
DR8 -0.40 dB -9.75 dB 3:06 03-Feel Like A Bandit
DR8 -0.40 dB -9.59 dB 3:08 04-Troubles
DR8 -0.40 dB -9.59 dB 3:32 05-Loveless Lives
DR7 -0.40 dB -9.73 dB 4:14 06-No Regrets
DR8 -0.40 dB -9.51 dB 2:55 07-Winding Your String
DR7 -0.40 dB -8.96 dB 4:18 08-Sweet Mama
DR8 -0.40 dB -10.77 dB 3:03 09-Promise Of Love
DR7 -0.40 dB -8.95 dB 3:17 10-Trivial Sum
DR5 0.00 dB -6.77 dB 2:31 11-Marianne (bonus A-Side 1970 SP)
––––––––––––––––––––––––––––––––––––––––

Number of tracks: 11
Official DR value: DR8

Samplerate: 44100 Hz
Channels: 2
Bits per sample: 16
Bitrate: 993 kbps
Codec: FLAC
================================================================================

Rhythm guitarist/vocalist David Price (born on September 23, 1944 in Ballinger, Texas) and drummer/vocalist Don Poncher (born on July 29, 1947 in Chicago, Illinois) were original members of The New Buffalo Springfield, formed in September 1968 by Dewey Martin, the drummer in the original Buffalo Springfield.
David Price had previously played with Austin, Texas group, The Chelsea in the mid-1960s and (briefly), L.A-based Armadillo in mid-1968. Price was also Davy Jones's stand-in in The Monkees TV show thanks to his connections with his old friend Mike Nesmith. Don Poncher, who'd worked with Tex Williams when he was 16 years old, had also played with Brothers Keepers in the San Fernando Valley in the mid-1960s.
The new version of the legendary group, which also included lead guitarist Gary Rowles, bass player Bob Apperson and horn player Jim Price, played extensively between November 1968 and February 1969 before imploding when Stephen Stills and Neil Young took legal action to prevent Martin from using the "Buffalo Springfield" name.
In spring 1969, Dewey Martin and David Price formed a second version of New Buffalo Springfield with bass player/vocalist Randy Fuller (born on January 29, 1944 in Hobbs, New Mexico) (formerly of Bobby Fuller Four) and lead guitarist/vocalist Bob BJ Jones (born on November 9, 1942 in Woodbury, New Jersey), who'd worked with Little Richard briefly. The new line up, now going by the name Blue Buffalo, recorded some tracks for Atlantic which were never completed and in June added second lead guitarist Joey Newman from L.A band, Touch. Newman (b. Vern Kjellberg, August 29, 1947, Seattle, Washington) had previously worked with Don & The Good Times, The Liberty Party and Merilee Rush & The Turnabouts.
After a tour of the North West (billed as New Buffalo Springfield) in July 1969, the musicians sacked Dewey Martin and returned to Los Angeles where they added Don Poncher from the earlier line up.

from wiki

Blue Mountain Eagle - Blue Mountain Eagle (1970) [Reissue 2012]


This CD is from my personal collection. My original rip & my scan work.
>> here is my blog with all my rips <<
Please, do not mirror these links at any web pages.
FLAC + HQ 600 dpi complete scans:

Uploaded

Depositfiles

MP3 + 300 dpi front/back cover scans:

Uploaded

Depositfiles


Password: Ant