Subcategories

Blues Magoos - Basic Blues Magoos (1968) {2004, Reissue}

Posted By: popsakov
Blues Magoos - Basic Blues Magoos (1968) {2004, Reissue}

Blues Magoos - Basic Blues Magoos (1968) {2004, Reissue}
EAC Rip | FLAC (Img) + Cue + Log ~ 323 Mb | MP3 CBR320 ~ 136 Mb
Full Scans | 00:53:42 | RAR 5% Recovery
Psychedelic Rock, Garage Rock | Repertoire Records #REPUK 1051

Basic Blues Magoos (1968) – the final long-player with the lineup of Ralph Scala (keyboards), Ronnie Gilbert (bass), Emil "Peppy" Thielheim (guitar), Mike Esposito (lead guitar) and Geoffrey Daking (drums) – is arguably their best and easily most progressive outing. Perhaps this can partially be credited to the combo's retreat from creating in the comparatively uninspired environs of a studio. Instead, they essentially cocooned themselves into their legendary Bronx, New York digs, which at one time had been inhabited by none other than Gram Parsons. The autonomy paid off, as did their sizable influence from the U.K.-derived mod and freakbeat scenes, kick-started no doubt by a recent tour with the Who. Nowhere is that more evident than the cover of the Move's "I Can Hear the Grass Grow" or the similarly spirited original light psych opener "Sybil Green (Of the In Between)" and the propulsive "There She Goes." "All the Better to See You With" and "Chicken Wire Lady" provide a harder edge and sit well beside the notable Brit pop vibe of "I Wanna Be There." "I Can Move a Mountain" is a long lost jangle pop side tinged in a darkness recalling "Love Seems Doomed" from the Magoos' debut, Psychedelic Lollipop (1967), especially the insidious vocal arrangement. On the other side of the spectrum is the affective baroque-tinged "Yellow Rose." The refined acoustic ballad is unlike the majority of the album's aggressive amplified excursions. As the title might suggest, "Presidential Council on Psychedelic Fitness" is a bit of an indulgence, as is "Subliminal Sonic Laxative," the latter being nothing more than a minute and change of a sole subsonic frequency – a 'D' note. Collectors and enthusiasts should be aware of the highly recommended and significantly expanded Basic Blues Magoos [Bonus Tracks] (2004) from Repertoire, tacking on monaural 45 rpm versions of "I Wanna Be There," "There She Goes," "I Can Hear the Grass Grow" and "Yellow Rose." Also included is the rare single "Let Your Love Ride" b/w Bo Diddley's "Who Do You Love," issued prior to the Magoos' late-'60s reformation with only Emil "Peppy" Thielheim. Sadly, Basic Blues Magoos failed to join their earlier LPs on the charts, as it is debatably their most solid effort.

~ Lindsay Planer, All Music
Blues Magoos - Basic Blues Magoos (1968) {2004, Reissue}


***************

Blues Magoos - Basic Blues Magoos (1968) {2004, Reissue}

Track List:

01. Sybil Green ( Of The In Between ) [2:41]
02. I Can Hear The Grass Grow [2:18]
03. All The Better To See You With [2:19]
04. Yellow Rose [2:30]
05. I Wanna Be There [2:57]
06. I Can Move A Mountain [3:49]
07. President's Council On Psychedelic Fitness [2:44]
08. Scarecrow's Love Affair [4:01]
09. There She Goes [2:50]
10. Accidental Meditation [1:41]
11. You're Getting Old [4:14]
12. Subliminal Sonic Laxative [1:05]
13. Chicken Wire Lady [4:07]
Bonus Tracks
14. I Wanna Be There ( Mono Single Version ) [2:57]
15. There She Goes ( Mono Single Version ) [2:50]
16. I Can Hear The Grass Grow ( Mono Single Version ) [2:18]
17. Yellow Rose ( Mono Single Version ) [2:30]
18. Let Your Love Ride ( Mono Single Version ) [2:36]
19. Who Do You Love ( Mono Single Version ) [3:16]

Exact Audio Copy V0.99 prebeta 5 from 4. May 2009

Отчёт EAC об извлечении, выполненном 18. сентября 2009, 0:20

Blues Magoos / Basic Blues Magoos

Дисковод: Optiarc DVD RW AD-5170A Adapter: 0 ID: 0

Режим чтения : Достоверность
Использование точного потока : Да
Отключение кэша аудио : Да
Использование указателей C2 : Нет

Коррекция смещения при чтении : 48
Способность читать области Lead-in и Lead-out : Нет
Заполнение пропущенных сэмплов тишиной : Да
Удаление блоков с тишиной в начале и конце : Нет
При вычислениях CRC использовались нулевые сэмплы : Да
Интерфейс : Встроенный Win32-интерфейс для Win NT/2000

Выходной формат : Внутренние WAV-операции
Формат сэмплов : 44.100 Гц; 16 бит; стерео


TOC извлечённого CD

Трек | Старт | Длительность | Начальный сектор | Конечный сектор
––––––––––––––––––––––––––––––––––-
1 | 0:00.00 | 2:41.06 | 0 | 12080
2 | 2:41.06 | 2:17.69 | 12081 | 22424
3 | 4:59.00 | 2:19.09 | 22425 | 32858
4 | 7:18.09 | 2:29.73 | 32859 | 44106
5 | 9:48.07 | 2:57.18 | 44107 | 57399
6 | 12:45.25 | 3:49.14 | 57400 | 74588
7 | 16:34.39 | 2:43.56 | 74589 | 86869
8 | 19:18.20 | 4:00.38 | 86870 | 104907
9 | 23:18.58 | 2:49.65 | 104908 | 117647
10 | 26:08.48 | 1:41.31 | 117648 | 125253
11 | 27:50.04 | 4:14.29 | 125254 | 144332
12 | 32:04.33 | 1:04.48 | 144333 | 149180
13 | 33:09.06 | 4:06.43 | 149181 | 167673
14 | 37:15.49 | 2:57.18 | 167674 | 180966
15 | 40:12.67 | 2:49.65 | 180967 | 193706
16 | 43:02.57 | 2:17.69 | 193707 | 204050
17 | 45:20.51 | 2:29.73 | 204051 | 215298
18 | 47:50.49 | 2:35.52 | 215299 | 226975
19 | 50:26.26 | 3:15.43 | 226976 | 241643


Характеристики диапазона извлечения и сообщения об ошибках

Выбранный диапазон

Имя файла C:\Users\Мы\Documents\Blues Magoos - Basic Blues Magoos.wav

Пиковый уровень 100.0 %
Качество диапазона 99.9 %
CRC копии 71B92104
Копирование… OK

Ошибок не произошло


AccurateRip: сводка

Трек 1 точное извлечение (доверие 1) [316CFEDC]
Трек 2 точное извлечение (доверие 1) [C17CF90A]
Трек 3 точное извлечение (доверие 1) [985DB374]
Трек 4 точное извлечение (доверие 1) [D30A7DCE]
Трек 5 точное извлечение (доверие 1) [CB58C0A5]
Трек 6 точное извлечение (доверие 1) [821309B8]
Трек 7 точное извлечение (доверие 1) [322F102C]
Трек 8 точное извлечение (доверие 1) [A1887D33]
Трек 9 точное извлечение (доверие 1) [8C175244]
Трек 10 точное извлечение (доверие 1) [5E6DE74B]
Трек 11 точное извлечение (доверие 1) [62ACB51E]
Трек 12 точное извлечение (доверие 1) [CA43918E]
Трек 13 точное извлечение (доверие 1) [4943B3C6]
Трек 14 точное извлечение (доверие 1) [CEDE3585]
Трек 15 точное извлечение (доверие 1) [DEEF2738]
Трек 16 точное извлечение (доверие 1) [68C1843E]
Трек 17 точное извлечение (доверие 1) [1181BCB3]
Трек 18 точное извлечение (доверие 1) [E4CB3288]
Трек 19 точное извлечение (доверие 1) [87D7F3E1]

Все треки извлечены точно

Конец отчёта

[CUETools log; Date: 13.01.2017 18:15:31; Version: 2.1.5]
[CTDB TOCID: _qIsLTgoBY2K3cv9BodGOddO_PY-] found.
Track | CTDB Status
1 | (6/6) Accurately ripped
2 | (6/6) Accurately ripped
3 | (6/6) Accurately ripped
4 | (6/6) Accurately ripped
5 | (6/6) Accurately ripped
6 | (6/6) Accurately ripped
7 | (6/6) Accurately ripped
8 | (6/6) Accurately ripped
9 | (6/6) Accurately ripped
10 | (6/6) Accurately ripped
11 | (6/6) Accurately ripped
12 | (6/6) Accurately ripped
13 | (6/6) Accurately ripped
14 | (6/6) Accurately ripped
15 | (6/6) Accurately ripped
16 | (6/6) Accurately ripped
17 | (6/6) Accurately ripped
18 | (6/6) Accurately ripped
19 | (6/6) Accurately ripped
[AccurateRip ID: 0024a6b5-0204234d-fb0c9513] found.
Track [ CRC | V2 ] Status
01 [316cfedc|0cc50c73] (3+4/7) Accurately ripped
02 [c17cf90a|c3d433d5] (3+4/7) Accurately ripped
03 [985db374|968ce150] (3+4/7) Accurately ripped
04 [d30a7dce|414b52a0] (3+4/7) Accurately ripped
05 [cb58c0a5|42261ee4] (3+4/7) Accurately ripped
06 [821309b8|3d674dfa] (3+4/7) Accurately ripped
07 [322f102c|0dc3ff86] (3+4/7) Accurately ripped
08 [a1887d33|c2cb62e5] (3+4/7) Accurately ripped
09 [8c175244|447a1e6e] (3+4/7) Accurately ripped
10 [5e6de74b|8a6f1755] (3+4/7) Accurately ripped
11 [62acb51e|964f1a3f] (3+4/7) Accurately ripped
12 [ca43918e|bb0f7a76] (3+4/7) Accurately ripped
13 [4943b3c6|b62a5768] (3+4/7) Accurately ripped
14 [cede3585|fcab544a] (3+4/7) Accurately ripped
15 [deef2738|2991f588] (3+4/7) Accurately ripped
16 [68c1843e|0153b1ab] (3+4/7) Accurately ripped
17 [1181bcb3|e5bf8285] (3+4/7) Accurately ripped
18 [e4cb3288|3f6ed48d] (3+4/7) Accurately ripped
19 [87d7f3e1|ccde35da] (3+4/7) Accurately ripped

Track Peak [ CRC32 ] [W/O NULL] [ LOG ]
– 100,0 [71B92104] [D553558C] CRC32
01 98,8 [9928B597] [A65108A6]
02 98,8 [98CE6FD3] [026A55F9]
03 98,8 [2E472666] [8417C2F4]
04 98,8 [2E19B2B4] [FCAC3B4D]
05 98,8 [F89E59A9] [0509D730]
06 98,8 [D4D50617] [467F78EA]
07 98,8 [BBB75F1C] [2204B5BF]
08 98,8 [32880431] [995284A0]
09 98,8 [C351ACC6] [90C4A461]
10 98,8 [AB6BA587] [931034B7]
11 98,8 [6B810B6D] [EA02EC2B]
12 49,5 [C38C6E16] [DFED9C99]
13 98,8 [AECB7ACB] [C978ACD9]
14 100,0 [356BA12D] [DE646B8D]
15 100,0 [6314CE76] [070D47EC]
16 100,0 [D18593FE] [303129A1]
17 100,0 [340F7887] [72E8F7E8]
18 98,8 [6BF22AF2] [B6CC4EBD]
19 98,8 [57A5FB80] [424F771B]

Blues Magoos - Basic Blues Magoos (1968) {2004, Reissue}


All thanks go to Toporator

>>> My Blog <<<

DOWNLOAD: