Subcategories

Blues Dragon - Blues Dragon (2011)

Posted By: popsakov
Blues Dragon - Blues Dragon (2011)

Blues Dragon - Blues Dragon (2011)
EAC Rip | FLAC, Img+Cue, Log+Checker ~ 371 Mb | MP3 CBR320 ~ 140 Mb
Full Scans Included (JPG, 300 dpi) | FileSonic, FileServe | 3% Recovery
Electric Blues, Blues-Rock | Label: Blues Dragon | Catalog#: BD6469

Blues Dragon have been a constant force in the Blues scene of South Florida for over a decade now, and are making their way across the United States with their self-titled recording debut. Blues Dragon is an electric Blues ensemble, who strive to deliver fresh and unique interpretations on traditional American Blues and Folk songs, primarily pre-WWII, but also including a dose of Urban and Chicago Blues traditions. They pour their love and fondness for this music into every song, as they tell stories on the history of our land, our musicians, and the lives of everyday people. The end result is an amalgamation of modern electric and traditional styles that delivers a distinctly 'down home' feel while simultaneously rocking the house.
Track List:

01. Bottle of Gin [04:53]
02. Love's Fool [04:36]
03. Electric Chair [05:26]
04. I Got the Blues for You [03:40]
05. The Kiss That Said Goodbye [04:18]
06. This Train [05:03]
07. I'd Do Anything [01:57]
08. Blackest Woman [03:17]
09. Don't Get Me Wrong [04:07]
10. I Just Want You to Understand [06:14]
11. Crocodile Shoes [03:55]
12. Livin' On Death Row [07:22]

Exact Audio Copy V0.99 prebeta 4 from 23. January 2008

Отчёт EAC об извлечении, выполненном 28. февраля 2011, 20:45

Blues Dragon / Blues Dragon

Дисковод: PLEXTOR DVDR PX-880SA Adapter: 1 ID: 1

Режим чтения : Достоверность
Использование точного потока : Да
Отключение кэша аудио : Да
Использование указателей C2 : Нет

Коррекция смещения при чтении : 6
Способность читать области Lead-in и Lead-out : Нет
Заполнение пропущенных сэмплов тишиной : Да
Удаление блоков с тишиной в начале и конце : Нет
При вычислениях CRC использовались нулевые сэмплы : Да
Интерфейс : Установленный внешний ASPI-интерфейс

Выходной формат : Пользовательский кодировщик
Выбранный битрейт : 1024 kBit/s
Качество : Высокий
Добавление ID3-тэга : Нет
Утилита сжатия : C:\Program Files\Exact Audio Copy\FLAC\FLAC.EXE
Дополнительные параметры : -5 -V -T "ARTIST=%a" -T "TITLE=%t" -T "ALBUM=%g" -T "DATE=%y" -T "TRACKNUMBER=%n" -T "GENRE=%m" -T "COMMENT=%e" %s -o %d


TOC извлечённого CD

Трек | Старт | Длительность | Начальный сектор | Конечный сектор
––––––––––––––––––––––––––––––––––-
1 | 0:00.00 | 4:53.45 | 0 | 22019
2 | 4:53.45 | 4:35.72 | 22020 | 42716
3 | 9:29.42 | 5:26.07 | 42717 | 67173
4 | 14:55.49 | 3:40.03 | 67174 | 83676
5 | 18:35.52 | 4:17.70 | 83677 | 103021
6 | 22:53.47 | 5:02.51 | 103022 | 125722
7 | 27:56.23 | 1:57.00 | 125723 | 134497
8 | 29:53.23 | 3:16.73 | 134498 | 149270
9 | 33:10.21 | 4:07.47 | 149271 | 167842
10 | 37:17.68 | 6:13.14 | 167843 | 195831
11 | 43:31.07 | 3:55.43 | 195832 | 213499
12 | 47:26.50 | 7:21.40 | 213500 | 246614


Характеристики диапазона извлечения и сообщения об ошибках

Выбранный диапазон

Имя файла I:\BitComet\Blues Dragon-Blues Dragon(2011)(flac)\Blues Dragon - Blues Dragon.wav

Пиковый уровень 99.8 %
Качество диапазона 100.0 %
CRC теста 670BB6FD
CRC копии 670BB6FD
Копирование… OK

Ошибок не произошло


AccurateRip: сводка

Трек 1 нет в базе данных
Трек 2 нет в базе данных
Трек 3 нет в базе данных
Трек 4 нет в базе данных
Трек 5 нет в базе данных
Трек 6 нет в базе данных
Трек 7 нет в базе данных
Трек 8 нет в базе данных
Трек 9 нет в базе данных
Трек 10 нет в базе данных
Трек 11 нет в базе данных
Трек 12 нет в базе данных

Ни одного трека нет в базе AccurateRip

Конец отчёта

AUDIOCHECKER v2.0 beta (build 457) - by Dester - opdester@freemail.hu
~~~~~~~~~~~~~~~~~~~~~~~~~~~~~~~~~~
-=== НЕ РЕДАКТИРУЙТЕ ЭТОТ ФАЙЛ! ===-

Путь: …\Blues Dragon - 2011 - Blues Dragon

1 -=- Blues Dragon - Blues Dragon.flac -=- CDDA (100%)

205737428

[Verification date: 08.03.2011 22:19:51]
[Disc ID: 0017ae14-00db61fa-c40cd80c]
Disk not present in database.

Track [ CRC32 ] [W/O NULL] [ LOG ]
– [670BB6FD] [CF4D8133] CRC32
01 [36BE3CD7] [13FCF849]
02 [E84DC505] [61A6E8E9]
03 [51B162A1] [131AAE5C]
04 [14214679] [82709C95]
05 [E1224E1D] [8D5A022B]
06 [FB65AE0E] [113A4149]
07 [A1F5A3C3] [BF6EBC0E]
08 [CBD3DFB6] [CAD60B59]
09 [FF5355FF] [F10D6AE6]
10 [305720F3] [BC3B663B]
11 [B20C0626] [7826FB7A]
12 [9915D8C5] [0DEA8854]

Blues Dragon - Blues Dragon (2011)

Blues Dragon - Blues Dragon (2011)


LOSSLESS

FileSonic:

part 1 | part 2 | part 3 | part 4

FileServe:

part 1 | part 2 | part 3 | part 4


mp3

FileSonic: part 1 | FileSonic: part 2

FileServe: part 1 | FileServe: part 2

pass: shsv

In case you encounter dead links, please send me a private message!

Visit my blog!

All thanks go to "izia1956"