Subcategories

Blues Magoos - Electric Comic Book (1967) [Reissue 2004]

Posted By: Andi_Deris
Blues Magoos - Electric Comic Book (1967) [Reissue 2004]

Blues Magoos - Electric Comic Book (1967) [Reissue 2004]
EAC Rip | FLAC: Tracks+Cue+Log | 336 Mb | MP3 CBR 320 kbps | 137 Mb | Scans | Time: 57:15
Repertoire Records | REPUK 1050
Psychedelic Rock, Garage Rock

Madcap music and special effects helped these all-American hippies create a crazy blend of Pop Art and cartoon-ish musical lunacy that brightened up the late sixties. Featuring Mike Esposito on guitar, this was The Magoos' second album, released in March 1967. Informative sleeve notes and band interviews by Mike Stax, plus 11 bonus tracks - including single versions and rarities - complete this 'must-have' 60's limited digipak reissue. Repertoire.



Blues Magoos - Electric Comic Book (1967) [Reissue 2004]


Track Listing

01. Pipe Dream (2:25)
02. There's A Chance We Can Make It (2:13)
03. Life Is Just A Cher O' Bowlies (2:35)
04. Gloria (6:01)
05. Intermission (1:04)
06. Albert Common Is Dead (1:48)
07. Summer Is The Man (2:58)
08. Baby, I Want You (2:42)
09. Let's Get Together (3:05)
10. Take My Love (1:50)
11. Rush Hour (2:34)
12. That's All Folks (0:07)

Bonus tracks
13. So I'm Wrong And You Are Right (Mono Single Version) (2:24)
14. The People Had No Faces (Mono Single Version) (2:47)
15. Pipe Dream (Mono Single Version) (2:25)
16. There's A Chance We Can Make It (Mono Single Version) (2:13)
17. One By One (Mono Single Version) (2:44)
18. Dante's Inferno (Mono Single Version) (3:22)
19. Summer Is The Man (Mono Single Version) (2:58)
20. Life Is Just A Cher O' Bowlies (Mono Single Version) (2:35)
21. Jingle Bells (Mono Single Version) (2:34)
22. Santa Claus Is Coming To Town (Mono Single Version) (1:26)
23. So I'm Wrong And You Are Right (Alternative Stereo Mix) (2:25)

Produced by Art Polhemus & Bob Wyld

The Band

• Ralph Scala - keyboards, vocals
• Emil "Peppy" Theilhelm - guitar, vocals
• Ron Gilbert - bass, vocals
• Mike Esposito - guitar
• Geoff Daking - drums, percussion

Notes

Released in a standard Digipak. Includes an 8 page booklet and a 4 panel poster-like insert.

All tracks recorded in Stereo, except tracks 13-22 recorded in Mono.

Tracks 1-12 produced for Long Hair Productions.

Licensed courtesy of Universal Music Licensing Division to Repertoire Records (UK) Ltd.
This compilation ℗ 2004 Repertoire Records (UK) Ltd. © 2004 Repertoire Records (UK) Ltd.
Designed @ MAINARTERY featuring original cover.

Tracks 1-3 / 5-8 / 10 / 11 / 16-21 published by Ananga Ranga Music Co.
Track 4 published by Carlin Music Corp.
Track 9 published by Conrad Music.
Tracks 12-15 / 23 Copyright Control.
Track 22 published by Leo Feist Inc.

Tracks 1-12 originally released as (US) Mercury MG 21104 in 1967.
Tracks 13-14 originally released as US-Verve Folkways 5006, ℗ 1966.
Tracks 15-16 originally released as US-Mercury 72660, ℗ 1967.
Tracks 17-18 originally released as US-Mercury 72692, ℗ 1967.
Track 19 originally released as US-Mercury 72707 (single B-side), ℗ 1967.
Track 20 originally released as US-Mercury 72729 (single A-side), ℗ 1967.
Tracks 21-22 originally released as US-Mercury 72762, ℗ 1967.
Track 23, alternative Stereo mix, originally released on 'The Best of the Blues Magoos (US) Mercury 314512313-2, ℗ 1992.


Exact Audio Copy V0.99 prebeta 4 from 23. January 2008

EAC extraction logfile from 8. February 2009, 14:23

Blues Magoos / Electric Comic Book

Used drive : TSSTcorpCD/DVDW TS-L632D Adapter: 0 ID: 1

Read mode : Secure
Utilize accurate stream : Yes
Defeat audio cache : Yes
Make use of C2 pointers : No

Read offset correction : 6
Overread into Lead-In and Lead-Out : No
Fill up missing offset samples with silence : Yes
Delete leading and trailing silent blocks : No
Null samples used in CRC calculations : Yes
Used interface : Native Win32 interface for Win NT & 2000
Gap handling : Appended to previous track

Used output format : User Defined Encoder
Selected bitrate : 128 kBit/s
Quality : High
Add ID3 tag : Yes
Command line compressor : C:\Program Files\FLAC\flac.exe
Additional command line options : -8 -V -T "ARTIST=%a" -T "TITLE=%t" -T "ALBUM=%g" -T "DATE=%y" -T "TRACKNUMBER=%n" -T "GENRE=%m" -T "COMMENT=%e" %s -o %d


TOC of the extracted CD

Track | Start | Length | Start sector | End sector
––––––––––––––––––––––––––––-
1 | 0:00.00 | 2:25.39 | 0 | 10913
2 | 2:25.39 | 2:13.46 | 10914 | 20934
3 | 4:39.10 | 2:35.05 | 20935 | 32564
4 | 7:14.15 | 6:01.54 | 32565 | 59693
5 | 13:15.69 | 1:04.58 | 59694 | 64551
6 | 14:20.52 | 1:48.15 | 64552 | 72666
7 | 16:08.67 | 2:58.64 | 72667 | 86080
8 | 19:07.56 | 2:42.09 | 86081 | 98239
9 | 21:49.65 | 3:05.62 | 98240 | 112176
10 | 24:55.52 | 1:49.74 | 112177 | 120425
11 | 26:45.51 | 2:34.63 | 120426 | 132038
12 | 29:20.39 | 0:07.28 | 132039 | 132591
13 | 29:27.67 | 2:24.66 | 132592 | 143457
14 | 31:52.58 | 2:47.25 | 143458 | 156007
15 | 34:40.08 | 2:25.09 | 156008 | 166891
16 | 37:05.17 | 2:13.46 | 166892 | 176912
17 | 39:18.63 | 2:44.48 | 176913 | 189260
18 | 42:03.36 | 3:22.24 | 189261 | 204434
19 | 45:25.60 | 2:58.64 | 204435 | 217848
20 | 48:24.49 | 2:35.05 | 217849 | 229478
21 | 50:59.54 | 2:34.29 | 229479 | 241057
22 | 53:34.08 | 1:26.36 | 241058 | 247543
23 | 55:00.44 | 2:25.54 | 247544 | 258472


Track 1

Filename D:\EAC\01 - Pipe Dream.wav

Pre-gap length 0:00:02.00

Peak level 98.8 %
Track quality 100.0 %
Test CRC 1ECAA668
Copy CRC 1ECAA668
Accurately ripped (confidence 2) [8AB64D6F]
Copy OK

Track 2

Filename D:\EAC\02 - There's A Chance We Can Make It.wav

Peak level 98.8 %
Track quality 100.0 %
Test CRC DA54557E
Copy CRC DA54557E
Accurately ripped (confidence 2) [D2E60E85]
Copy OK

Track 3

Filename D:\EAC\03 - Life Is Just A Cher O' Bowlies.wav

Peak level 98.8 %
Track quality 99.9 %
Test CRC 7E1A4663
Copy CRC 7E1A4663
Accurately ripped (confidence 2) [203AA576]
Copy OK

Track 4

Filename D:\EAC\04 - Gloria.wav

Peak level 98.8 %
Track quality 100.0 %
Test CRC 65DBF3F2
Copy CRC 65DBF3F2
Accurately ripped (confidence 2) [EC35E955]
Copy OK

Track 5

Filename D:\EAC\05 - Intermission.wav

Peak level 98.8 %
Track quality 100.0 %
Test CRC 8AF2BDA9
Copy CRC 8AF2BDA9
Accurately ripped (confidence 2) [F5E8D5A2]
Copy OK

Track 6

Filename D:\EAC\06 - Albert Common Is Dead.wav

Peak level 98.8 %
Track quality 100.0 %
Test CRC CAB5033D
Copy CRC CAB5033D
Accurately ripped (confidence 2) [A4C0D677]
Copy OK

Track 7

Filename D:\EAC\07 - Summer Is The Man.wav

Peak level 98.8 %
Track quality 100.0 %
Test CRC 448F730A
Copy CRC 448F730A
Accurately ripped (confidence 2) [80F73733]
Copy OK

Track 8

Filename D:\EAC\08 - Baby, I Want You.wav

Peak level 98.8 %
Track quality 100.0 %
Test CRC C0713063
Copy CRC C0713063
Accurately ripped (confidence 2) [D053E310]
Copy OK

Track 9

Filename D:\EAC\09 - Let's Get Together.wav

Peak level 98.8 %
Track quality 100.0 %
Test CRC 3EB30320
Copy CRC 3EB30320
Accurately ripped (confidence 2) [C6CE618C]
Copy OK

Track 10

Filename D:\EAC\10 - Take My Love.wav

Peak level 98.8 %
Track quality 100.0 %
Test CRC C5B0FBEA
Copy CRC C5B0FBEA
Accurately ripped (confidence 2) [89DFB5D8]
Copy OK

Track 11

Filename D:\EAC\11 - Rush Hour.wav

Peak level 98.8 %
Track quality 100.0 %
Test CRC 108A7FD0
Copy CRC 108A7FD0
Accurately ripped (confidence 2) [3CC7A3CE]
Copy OK

Track 12

Filename D:\EAC\12 - That's All Folks.wav

Peak level 98.8 %
Track quality 100.0 %
Test CRC F5182F07
Copy CRC F5182F07
Accurately ripped (confidence 2) [959BE13B]
Copy OK

Track 13

Filename D:\EAC\13 - So I'm Wrong And You Are Right (Mono Single Version).wav

Peak level 98.8 %
Track quality 100.0 %
Test CRC 8B3994C5
Copy CRC 8B3994C5
Accurately ripped (confidence 2) [C1F4DAF6]
Copy OK

Track 14

Filename D:\EAC\14 - The People Had No Faces (Mono Single Version).wav

Peak level 98.8 %
Track quality 100.0 %
Test CRC 84987A74
Copy CRC 84987A74
Accurately ripped (confidence 2) [7A7D1E99]
Copy OK

Track 15

Filename D:\EAC\15 - Pipe Dream (Mono Single Version).wav

Peak level 100.0 %
Track quality 99.9 %
Test CRC B2FDFA6E
Copy CRC B2FDFA6E
Accurately ripped (confidence 2) [D4226E68]
Copy OK

Track 16

Filename D:\EAC\16 - There's A Chance We Can Make It (Mono Single Version).wav

Peak level 100.0 %
Track quality 100.0 %
Test CRC CCF434BB
Copy CRC CCF434BB
Accurately ripped (confidence 2) [287685FE]
Copy OK

Track 17

Filename D:\EAC\17 - One By One (Mono Single Version).wav

Peak level 98.6 %
Track quality 100.0 %
Test CRC EA5A67DE
Copy CRC EA5A67DE
Accurately ripped (confidence 2) [C7DD372F]
Copy OK

Track 18

Filename D:\EAC\18 - Dante's Inferno (Mono Single Version).wav

Peak level 98.8 %
Track quality 100.0 %
Test CRC 1D2EA8E8
Copy CRC 1D2EA8E8
Accurately ripped (confidence 2) [9CBE6228]
Copy OK

Track 19

Filename D:\EAC\19 - Summer Is The Man (Mono Single Version).wav

Peak level 100.0 %
Track quality 100.0 %
Test CRC 99C181A2
Copy CRC 99C181A2
Accurately ripped (confidence 2) [3442E887]
Copy OK

Track 20

Filename D:\EAC\20 - Life Is Just A Cher O' Bowlies (Mono Single Version).wav

Peak level 98.8 %
Track quality 99.9 %
Test CRC 8D223EE5
Copy CRC 8D223EE5
Accurately ripped (confidence 2) [7569B97A]
Copy OK

Track 21

Filename D:\EAC\21 - Jingle Bells (Mono Single Version).wav

Peak level 100.0 %
Track quality 99.9 %
Test CRC 43A0EF06
Copy CRC 43A0EF06
Accurately ripped (confidence 2) [883A8D26]
Copy OK

Track 22

Filename D:\EAC\22 - Santa Claus Is Coming To Town (Mono Single Version).wav

Peak level 98.8 %
Track quality 100.0 %
Test CRC B6D2EEE3
Copy CRC B6D2EEE3
Accurately ripped (confidence 2) [03A49E9C]
Copy OK

Track 23

Filename D:\EAC\23 - So I'm Wrong And You Are Right (Alternative Stereo Mix).wav

Pre-gap length 0:00:02.00

Peak level 98.8 %
Track quality 100.0 %
Test CRC 17FDEFA0
Copy CRC 17FDEFA0
Accurately ripped (confidence 2) [0C7EE131]
Copy OK


All tracks accurately ripped

No errors occurred

End of status report


Many thanks to the original uploader: thewall68

SEE also:
American Flyer 2003 American Flyer & Spirit Of A Woman [2in1]

Blood, Sweat & Tears 2006 Live In Halifax [DVD]