Subcategories

Bob Dylan – Albums Collection (1967-2004) [8CD, Mobile Fidelity Sound Lab, Audio Fidelity]

Posted By: v3122
Bob Dylan – Albums Collection (1967-2004) [8CD, Mobile Fidelity Sound Lab, Audio Fidelity]

Bob Dylan – Albums Collection (1967-2004
EAC | Flac(Image) + Cue + Log & MP3 CBR 320Kbps
8CD | MFSL, Audio Fidelity | ~ 2027 or 810 Mb | Scans(png) -> 1280 Mb
Folk Rock, Pop Rock, Blues Rock, Ballad

Bob Dylan (/ˈdɪlən/; born Robert Allen Zimmerman, May 24, 1941) is an American singer-songwriter, author, and painter, who has been an influential figure in popular music and culture for more than five decades. Much of his most celebrated work dates from the 1960s, when he became a reluctant "voice of a generation" with songs such as "Blowin' in the Wind" and "The Times They Are a-Changin'" that became anthems for the Civil Rights Movement and anti-war movement. In 1965, he controversially abandoned his early fan-base in the American folk music revival, recording a six-minute single, "Like a Rolling Stone", which enlarged the scope of popular music.

Dylan's lyrics incorporate a wide range of political, social, philosophical, and literary influences. They defied existing pop-music conventions and appealed to the burgeoning counterculture. Initially inspired by the performances of Little Richard and the songwriting of Woody Guthrie, Robert Johnson, and Hank Williams, Dylan has amplified and personalized musical genres. In his recording career, Dylan has explored many of the traditions in American song—from folk, blues, and country to gospel, and rock and roll, and from rockabilly to English, Scottish, and Irish folk music, embracing even jazz and the Great American Songbook. Dylan performs on guitar, keyboards, and harmonica. Backed by a changing lineup of musicians, he has toured steadily since the late 1980s on what has been dubbed "the Never Ending Tour". His accomplishments as a recording artist and performer have been central to his career, but his songwriting is considered his greatest contribution.

Following his self-titled debut album in 1962, which mainly consisted of traditional folk songs, Dylan made his breakthrough as a songwriter with the release of the 1963 album The Freewheelin' Bob Dylan, featuring "Blowin’ in the Wind" and the thematically complex composition "A Hard Rain's a-Gonna Fall," alongside several other enduring songs of the era. Dylan went on to release the politically charged The Times They Are a-Changin' and the more lyrically abstract and introspective Another Side of Bob Dylan in 1964. In 1965 and 1966 Dylan encountered controversy when he adopted the use of electrically amplified rock instrumentation and in the space of 15 months recorded three of the most important and influential rock albums of the 1960s, Bringing It All Back Home, Highway 61 Revisited and Blonde on Blonde.

In July 1966, Dylan withdrew from touring after being injured in a motorcycle accident. During this period he recorded a large body of songs with members of the Band, who had previously backed Dylan on tour; these were eventually released as the collaborative album The Basement Tapes in 1975. In the late 1960s and early 70s, Dylan explored country music and rural themes in John Wesley Harding, Nashville Skyline and New Morning. In 1975 Dylan released his career-defining album Blood on the Tracks followed by the critically and commercially successful Desire the following year. In the late 1970s, Dylan became a born-again Christian and released a series of albums of contemporary gospel music, notably Slow Train Coming, before returning to his more familiar rock-based idiom with Infidels. Dylan's major works during his later career include Time Out of Mind, "Love and Theft" and Tempest. His most recent recordings have comprised versions of traditional American standards, especially songs recorded by Frank Sinatra.

Since 1994, Dylan has published seven books of drawings and paintings, and his work has been exhibited in major art galleries. Dylan has sold more than 100 million records, making him one of the best-selling music artists of all time. He has also received numerous awards including eleven Grammy Awards, a Golden Globe Award, and an Academy Award. Dylan has been inducted into the Rock and Roll Hall of Fame, Minnesota Music Hall of Fame, Nashville Songwriters Hall of Fame, and Songwriters Hall of Fame. The Pulitzer Prize jury in 2008 awarded him a special citation for "his profound impact on popular music and American culture, marked by lyrical compositions of extraordinary poetic power". In May 2012, Dylan received the Presidential Medal of Freedom from President Barack Obama, and, in 2016, he was awarded the Nobel Prize in Literature "for having created new poetic expressions within the great American song tradition"…

~ wiki
Bob Dylan – Albums Collection (1967-2004:

Bob Dylan – Albums Collection (1967-2004) [8CD, Mobile Fidelity Sound Lab, Audio Fidelity]

Tracklist CD1 - 1967 - Bob Dylan's Greatest Hits (Audio Fidelity AZF 140, USA, 2012) Repost:

01. Rainy Day Women #12 & 35 04:38
02. Blowin' In The Wind 02:47
03. The Times They Are A-Changin' 03:13
04. It Ain't Me, Babe 03:34
05. Like A Rolling Stone 06:13
06. Mr. Tambourine Man 05:28
07. Subterranean Homesick Blues 02:19
08. I Want You 03:06
09. Positively 4th Street 04:09
10. Just Like A Woman 04:53

Exact Audio Copy V1.0 beta 3 from 29. August 2011

EAC extraction logfile from 2. September 2013, 10:05

Bob Dylan / Bob Dylan's Greatest Hits AF

Used drive : PLEXTOR BD-R PX-B950SA Adapter: 6 ID: 0

Read mode : Secure
Utilize accurate stream : Yes
Defeat audio cache : Yes
Make use of C2 pointers : No

Read offset correction : 6
Overread into Lead-In and Lead-Out : No
Fill up missing offset samples with silence : Yes
Delete leading and trailing silent blocks : No
Null samples used in CRC calculations : Yes
Used interface : Native Win32 interface for Win NT & 2000

Used output format : Internal WAV Routines
Sample format : 44.100 Hz; 16 Bit; Stereo


TOC of the extracted CD

Track | Start | Length | Start sector | End sector
––––––––––––––––––––––––––––-
1 | 0:00.00 | 4:38.26 | 0 | 20875
2 | 4:38.26 | 2:47.28 | 20876 | 33428
3 | 7:25.54 | 3:13.52 | 33429 | 47955
4 | 10:39.31 | 3:34.73 | 47956 | 64078
5 | 14:14.29 | 6:13.03 | 64079 | 92056
6 | 20:27.32 | 5:28.12 | 92057 | 116668
7 | 25:55.44 | 2:19.56 | 116669 | 127149
8 | 28:15.25 | 3:06.02 | 127150 | 141101
9 | 31:21.27 | 4:09.68 | 141102 | 159844
10 | 35:31.20 | 4:53.70 | 159845 | 181889


Range status and errors

Selected range

Filename C:\Users\Meijin\Desktop\ALLexxess\Bob Dylan\1967 Bob Dylan's Greatest Hits (Audio Fidelity Hybrid SACD 2012)\Bob Dylan's Greatest Hits AF.wav

Peak level 98.0 %
Extraction speed 6.8 X
Range quality 100.0 %
Test CRC 4B08D501
Copy CRC 4B08D501
Copy OK

No errors occurred


AccurateRip summary

Track 1 accurately ripped (confidence 46) [412203A6] (AR v2)
Track 2 accurately ripped (confidence 46) [129D5152] (AR v2)
Track 3 accurately ripped (confidence 47) [31E0AA18] (AR v2)
Track 4 accurately ripped (confidence 47) [E5C1166E] (AR v2)
Track 5 accurately ripped (confidence 47) [43FD291C] (AR v2)
Track 6 accurately ripped (confidence 47) [F8657FD6] (AR v2)
Track 7 accurately ripped (confidence 46) [0881581C] (AR v2)
Track 8 accurately ripped (confidence 46) [FEE1F490] (AR v2)
Track 9 accurately ripped (confidence 48) [ECD25BA4] (AR v2)
Track 10 accurately ripped (confidence 46) [D35065F4] (AR v2)

All tracks accurately ripped

End of status report

==== Log checksum 36310F0982381E0ACC2D43F766764ED21DCC175FCF59C05B8180865E4AD92FB1 ====


[CUETools log; Date: 15.03.2018 20:29:30; Version: 2.1.5]
[CTDB TOCID: lW5Yan2idQtsfoL_h9wHBfFRgWs-] found.
Track | CTDB Status
1 | (54/56) Accurately ripped
2 | (55/56) Accurately ripped
3 | (56/56) Accurately ripped
4 | (55/56) Accurately ripped
5 | (55/56) Accurately ripped
6 | (53/56) Accurately ripped
7 | (56/56) Accurately ripped
8 | (56/56) Accurately ripped
9 | (56/56) Accurately ripped
10 | (55/56) Accurately ripped
[AccurateRip ID: 000f07dd-0078b10a-8d09790a] found.
Track [ CRC | V2 ] Status
01 [54e5a7a2|412203a6] (05+85/90) Accurately ripped
02 [883b125f|129d5152] (05+85/90) Accurately ripped
03 [79d31b52|31e0aa18] (05+86/91) Accurately ripped
04 [0c7dee77|e5c1166e] (05+86/91) Accurately ripped
05 [bc596b06|43fd291c] (05+86/91) Accurately ripped
06 [2ebc0b83|f8657fd6] (05+83/88) Accurately ripped
07 [4627a6fb|0881581c] (05+86/93) Accurately ripped
08 [e4d6e822|fee1f490] (05+85/92) Accurately ripped
09 [839a9884|ecd25ba4] (05+87/92) Accurately ripped
10 [c47834c6|d35065f4] (05+85/92) Accurately ripped
Offsetted by 6:
01 [c742b322] (00/90) No match (V2 was not tested)
02 [07d29b67] (00/90) No match (V2 was not tested)
03 [3f315272] (00/91) No match (V2 was not tested)
04 [e5d78677] (00/91) No match (V2 was not tested)
05 [ce646a14] (00/91) No match (V2 was not tested)
06 [39ffbd37] (00/88) No match (V2 was not tested)
07 [aec303f5] (00/93) No match (V2 was not tested)
08 [8a78a53a] (00/92) No match (V2 was not tested)
09 [b85db6c8] (00/92) No match (V2 was not tested)
10 [0d16a824] (00/92) No match (V2 was not tested)

Track Peak [ CRC32 ] [W/O NULL] [ LOG ]
– 98,0 [4B08D501] [1B6E8C0F] CRC32
01 97,0 [483E829B] [88FC15E2]
02 93,8 [06E06DC4] [0BBD20CB]
03 78,9 [5CB257FC] [AC8374C3]
04 93,5 [2FBC894A] [6862805D]
05 98,0 [B8151AA4] [F473AD87]
06 87,1 [ECBBBDEE] [A2518443]
07 97,4 [92ED41C4] [65A34AF7]
08 87,5 [96140FC4] [8584A82B]
09 96,1 [7156A523] [0B0D2364]
10 88,5 [8FD105B3] [E3492C1B]


Bob Dylan – Albums Collection (1967-2004) [8CD, Mobile Fidelity Sound Lab, Audio Fidelity]

Tracklist CD2 - 1967 - John Wesley Harding (MFSL UDSACD 2125, USA, 2015):

01. John Wesley Harding 03:00
02. As I Went Out One Morning 02:52
03. I Dreamed I Saw St. Augustine 03:55
04. All Along The Watchtower 02:34
05. The Ballad Of Frankie Lee And Judas Priest 05:35
06. Drifter's Escape 02:49
07. Dear Landlord 03:18
08. I Am A Lonesome Hobo 03:24
09. I Pity The Poor Immigrant 04:16
10. The Wicked Messenger 02:05
11. Down Along The Cove 02:25
12. I'll Be Your Baby Tonight 02:39

Exact Audio Copy V1.1 from 23. June 2015

EAC extraction logfile from 8. May 2016, 8:51

Bob Dylan / John Wesley Harding MFSL

Used drive : PLEXTOR BD-R PX-B950SA Adapter: 1 ID: 1

Read mode : Secure
Utilize accurate stream : Yes
Defeat audio cache : Yes
Make use of C2 pointers : No

Read offset correction : 6
Overread into Lead-In and Lead-Out : No
Fill up missing offset samples with silence : Yes
Delete leading and trailing silent blocks : No
Null samples used in CRC calculations : Yes
Used interface : Native Win32 interface for Win NT & 2000

Used output format : Internal WAV Routines
Sample format : 44.100 Hz; 16 Bit; Stereo


TOC of the extracted CD

Track | Start | Length | Start sector | End sector
––––––––––––––––––––––––––––-
1 | 0:00.00 | 3:00.20 | 0 | 13519
2 | 3:00.20 | 2:52.19 | 13520 | 26438
3 | 5:52.39 | 3:55.57 | 26439 | 44120
4 | 9:48.21 | 2:34.65 | 44121 | 55735
5 | 12:23.11 | 5:35.35 | 55736 | 80895
6 | 17:58.46 | 2:49.61 | 80896 | 93631
7 | 20:48.32 | 3:18.33 | 93632 | 108514
8 | 24:06.65 | 3:24.39 | 108515 | 123853
9 | 27:31.29 | 4:16.34 | 123854 | 143087
10 | 31:47.63 | 2:05.45 | 143088 | 152507
11 | 33:53.33 | 2:25.29 | 152508 | 163411
12 | 36:18.62 | 2:39.34 | 163412 | 175370


Range status and errors

Selected range

Filename C:\Users\Meijin\Desktop\ALLexxess\Bob Dylan\1967 John Wesley Harding (Hybrid SACD MFSL 2016)\Bob Dylan - John Wesley Harding MFSL.wav

Peak level 100.0 %
Extraction speed 3.3 X
Range quality 99.9 %
Test CRC B8413B96
Copy CRC B8413B96
Copy OK

No errors occurred


AccurateRip summary

Track 1 accurately ripped (confidence 3) [7A195E53] (AR v2)
Track 2 accurately ripped (confidence 3) [F43E7145] (AR v2)
Track 3 accurately ripped (confidence 3) [2C13CCED] (AR v2)
Track 4 accurately ripped (confidence 3) [A81D3DC2] (AR v2)
Track 5 accurately ripped (confidence 3) [B1837B64] (AR v2)
Track 6 accurately ripped (confidence 3) [8091634E] (AR v2)
Track 7 accurately ripped (confidence 3) [AA4F8B8D] (AR v2)
Track 8 accurately ripped (confidence 3) [5AF8D72B] (AR v2)
Track 9 accurately ripped (confidence 3) [10E30E69] (AR v2)
Track 10 accurately ripped (confidence 3) [B7EE6D90] (AR v2)
Track 11 accurately ripped (confidence 3) [44C88FCA] (AR v2)
Track 12 accurately ripped (confidence 3) [81D271DB] (AR v2)

All tracks accurately ripped

End of status report

–– CUETools DB Plugin V2.1.6

[CTDB TOCID: xJtIuoqBFETAkxtZEvR.xHtJr7g-] found
Submit result: xJtIuoqBFETAkxtZEvR.xHtJr7g- has been confirmed
Track | CTDB Status
1 | (3/3) Accurately ripped
2 | (3/3) Accurately ripped
3 | (3/3) Accurately ripped
4 | (3/3) Accurately ripped
5 | (3/3) Accurately ripped
6 | (3/3) Accurately ripped
7 | (3/3) Accurately ripped
8 | (3/3) Accurately ripped
9 | (3/3) Accurately ripped
10 | (3/3) Accurately ripped
11 | (3/3) Accurately ripped
12 | (3/3) Accurately ripped


==== Log checksum BC3037FA4B45410E84439DD426F4E3DF5FF3234822A803387B700C833EF0EFBB ====


[CUETools log; Date: 15.03.2018 20:29:57; Version: 2.1.5]
[CTDB TOCID: xJtIuoqBFETAkxtZEvR.xHtJr7g-] found.
Track | CTDB Status
1 | (16/17) Accurately ripped
2 | (16/17) Accurately ripped
3 | (16/17) Accurately ripped
4 | (16/17) Accurately ripped
5 | (15/17) Accurately ripped
6 | (16/17) Accurately ripped
7 | (16/17) Accurately ripped
8 | (16/17) Accurately ripped
9 | (16/17) Accurately ripped
10 | (16/17) Accurately ripped
11 | (16/17) Accurately ripped
12 | (16/17) Accurately ripped
[AccurateRip ID: 001205a4-00a85efb-9009220c] found.
Track [ CRC | V2 ] Status
01 [5c075b24|7a195e53] (00+15/15) Accurately ripped
02 [bcdd5913|f43e7145] (00+14/14) Accurately ripped
03 [1fa35641|2c13cced] (00+14/14) Accurately ripped
04 [d6c611d4|a81d3dc2] (00+14/14) Accurately ripped
05 [811a541f|b1837b64] (00+14/14) Accurately ripped
06 [52c3aefb|8091634e] (00+14/14) Accurately ripped
07 [5f4c6f91|aa4f8b8d] (00+14/14) Accurately ripped
08 [22fb004d|5af8d72b] (00+14/14) Accurately ripped
09 [d861a21e|10e30e69] (00+14/14) Accurately ripped
10 [b6522e61|b7ee6d90] (00+14/14) Accurately ripped
11 [c38b2fd5|44c88fca] (00+14/14) Accurately ripped
12 [c60b8b5b|81d271db] (00+14/14) Accurately ripped

Track Peak [ CRC32 ] [W/O NULL] [ LOG ]
– 100,0 [B8413B96] [8F07C069] CRC32
01 100,0 [829F6602] [0DEA07D4]
02 100,0 [198941EB] [59B27601]
03 94,7 [EAD44E48] [038095A8]
04 88,3 [B256EE89] [76223732]
05 100,0 [EE3EFF4F] [F9E189F4]
06 100,0 [44842223] [16DF2D69]
07 100,0 [8317BE16] [FE484928]
08 100,0 [D25D595A] [04A1AC05]
09 90,8 [2DA7FA61] [1096AA59]
10 89,7 [F5E1CD01] [24E0694B]
11 100,0 [409CCE71] [8603FC29]
12 100,0 [4774FDD4] [7037C239]


Bob Dylan – Albums Collection (1967-2004) [8CD, Mobile Fidelity Sound Lab, Audio Fidelity]

Tracklist CD3 - 1970 - New Morning (MFSL UDSACD 2127, USA, 2014):

01. If Not For You 02:44
02. Day Of The Locusts 04:01
03. Time Passes Slowly 02:38
04. Went To See The Gypsy 02;53
05. Winterlude 02;25
06. If Dogs Run Free 03:42
07. New Morning 04:02
08. Sign On The Window 03:43
09. One More Weekend 03:14
10. The Man In Me 03:11
11. Three Angels 02:10
12. Father Of Night 01:31

Exact Audio Copy V1.1 from 23. June 2015

EAC extraction logfile from 21. August 2015, 11:45

Bob Dylan / New Morning MFSL

Used drive : PLEXTOR BD-R PX-B950SA Adapter: 1 ID: 1

Read mode : Secure
Utilize accurate stream : Yes
Defeat audio cache : Yes
Make use of C2 pointers : No

Read offset correction : 6
Overread into Lead-In and Lead-Out : No
Fill up missing offset samples with silence : Yes
Delete leading and trailing silent blocks : No
Null samples used in CRC calculations : Yes
Used interface : Native Win32 interface for Win NT & 2000

Used output format : Internal WAV Routines
Sample format : 44.100 Hz; 16 Bit; Stereo


TOC of the extracted CD

Track | Start | Length | Start sector | End sector
––––––––––––––––––––––––––––-
1 | 0:00.00 | 2:44.00 | 0 | 12299
2 | 2:44.00 | 4:01.68 | 12300 | 30442
3 | 6:45.68 | 2:38.42 | 30443 | 42334
4 | 9:24.35 | 2:53.29 | 42335 | 55338
5 | 12:17.64 | 2:25.25 | 55339 | 66238
6 | 14:43.14 | 3:42.64 | 66239 | 82952
7 | 18:26.03 | 4:02.12 | 82953 | 101114
8 | 22:28.15 | 3:43.34 | 101115 | 117873
9 | 26:11.49 | 3:14.57 | 117874 | 132480
10 | 29:26.31 | 3:11.51 | 132481 | 146856
11 | 32:38.07 | 2:10.65 | 146857 | 156671
12 | 34:48.72 | 1:31.19 | 156672 | 163515


Range status and errors

Selected range

Filename C:\Users\Meijin\Desktop\ALLexxess\Bob Dylan\1970 New Morning (Hybrid SACD MFSL 2015)\Bob Dylan - New Morning MFSL.wav

Peak level 96.1 %
Extraction speed 3.2 X
Range quality 99.9 %
Test CRC F02A7770
Copy CRC F02A7770
Copy OK

No errors occurred


AccurateRip summary

Track 1 accurately ripped (confidence 7) [FE1FB7D7] (AR v2)
Track 2 accurately ripped (confidence 7) [037B17B0] (AR v2)
Track 3 accurately ripped (confidence 7) [D9AFD9A5] (AR v2)
Track 4 accurately ripped (confidence 7) [6211367F] (AR v2)
Track 5 accurately ripped (confidence 7) [A58AB6E6] (AR v2)
Track 6 accurately ripped (confidence 7) [D179C9B2] (AR v2)
Track 7 accurately ripped (confidence 7) [D4381EE6] (AR v2)
Track 8 accurately ripped (confidence 7) [DF24CBC5] (AR v2)
Track 9 accurately ripped (confidence 7) [068F2312] (AR v2)
Track 10 accurately ripped (confidence 7) [B1B2F1B7] (AR v2)
Track 11 accurately ripped (confidence 7) [0638C7A7] (AR v2)
Track 12 accurately ripped (confidence 7) [E2713963] (AR v2)

All tracks accurately ripped

End of status report

–– CUETools DB Plugin V2.1.6

[CTDB TOCID: 9mDQoLq5c1ehvnVxwXYK7IS.._M-] found
Submit result: 9mDQoLq5c1ehvnVxwXYK7IS.._M- has been confirmed
Track | CTDB Status
1 | (3/3) Accurately ripped
2 | (3/3) Accurately ripped
3 | (3/3) Accurately ripped
4 | (3/3) Accurately ripped
5 | (3/3) Accurately ripped
6 | (3/3) Accurately ripped
7 | (3/3) Accurately ripped
8 | (3/3) Accurately ripped
9 | (3/3) Accurately ripped
10 | (3/3) Accurately ripped
11 | (3/3) Accurately ripped
12 | (3/3) Accurately ripped


==== Log checksum 234488B4C69C7CC0214503377A0A93D6D7D4D58EEB3DE026FDC858DD8350CFE3 ====


[CUETools log; Date: 15.03.2018 20:30:27; Version: 2.1.5]
[CTDB TOCID: 9mDQoLq5c1ehvnVxwXYK7IS.._M-] found.
Track | CTDB Status
1 | (21/21) Accurately ripped
2 | (21/21) Accurately ripped
3 | (21/21) Accurately ripped
4 | (21/21) Accurately ripped
5 | (21/21) Accurately ripped
6 | (21/21) Accurately ripped
7 | (20/21) Accurately ripped
8 | (21/21) Accurately ripped
9 | (21/21) Accurately ripped
10 | (21/21) Accurately ripped
11 | (20/21) Accurately ripped
12 | (21/21) Accurately ripped
[AccurateRip ID: 0010e89c-009e0499-a708840c] found.
Track [ CRC | V2 ] Status
01 [be682c10|fe1fb7d7] (00+14/14) Accurately ripped
02 [4bedceba|037b17b0] (00+14/14) Accurately ripped
03 [bc850982|d9afd9a5] (00+14/14) Accurately ripped
04 [4a7fecbf|6211367f] (00+14/14) Accurately ripped
05 [499d21c0|a58ab6e6] (00+14/14) Accurately ripped
06 [28e35214|d179c9b2] (00+14/14) Accurately ripped
07 [db87c627|d4381ee6] (00+14/14) Accurately ripped
08 [5117b113|df24cbc5] (00+14/14) Accurately ripped
09 [0ec9d972|068f2312] (00+14/14) Accurately ripped
10 [6b94e286|b1b2f1b7] (00+14/14) Accurately ripped
11 [4f323398|0638c7a7] (00+14/14) Accurately ripped
12 [756f7ba3|e2713963] (00+14/14) Accurately ripped

Track Peak [ CRC32 ] [W/O NULL] [ LOG ]
– 96,1 [F02A7770] [928083EA] CRC32
01 79,9 [3EE42C14] [30CD68E5]
02 76,4 [CC42A8A3] [DC8EB08E]
03 73,0 [BF6AD0DF] [C16302AB]
04 87,9 [3CF61815] [50B69C7E]
05 88,8 [2387EBE9] [211316DA]
06 85,3 [68218984] [C325C73A]
07 83,1 [BC9E5786] [8C157216]
08 75,3 [6F3FABD8] [4B2E61E9]
09 95,1 [61DFFDA2] [958F2C74]
10 96,1 [323B7AD4] [409756D5]
11 75,0 [BD110D0C] [30AB00DA]
12 77,2 [E866E687] [F10880CB]


Bob Dylan – Albums Collection (1967-2004) [8CD, Mobile Fidelity Sound Lab, Audio Fidelity]

Tracklist CD4 - 1971 - Bob Dylan's Greatest Hits Vol. II 2CD (Audio Fidelity AZF2 145, USA, 2013) Repost:

01. Watching The River Flow 03:36
02. Don't Think Twice, It's All Right 03:41
03. Lay Lady Lay 03:19
04. Stuck Inside Of Mobile With The Memphis Blues Again 07:09
05. I'll Be Your Baby Tonight 02:37
06. All I Really Want To Do 04:05
07. My Back Pages 04:25
08. Maggies Farm 03:55
09. Tonight I'll Be Staying Here With You 03:23

Exact Audio Copy V1.0 beta 3 from 29. August 2011

EAC extraction logfile from 1. September 2013, 21:31

Bob Dylan / Bob Dylan's Greatest Hits Vol. II CD1

Used drive : PLEXTOR BD-R PX-B950SA Adapter: 6 ID: 0

Read mode : Secure
Utilize accurate stream : Yes
Defeat audio cache : Yes
Make use of C2 pointers : No

Read offset correction : 6
Overread into Lead-In and Lead-Out : No
Fill up missing offset samples with silence : Yes
Delete leading and trailing silent blocks : No
Null samples used in CRC calculations : Yes
Used interface : Native Win32 interface for Win NT & 2000

Used output format : Internal WAV Routines
Sample format : 44.100 Hz; 16 Bit; Stereo


TOC of the extracted CD

Track | Start | Length | Start sector | End sector
––––––––––––––––––––––––––––-
1 | 0:00.00 | 3:36.61 | 0 | 16260
2 | 3:36.61 | 3:41.07 | 16261 | 32842
3 | 7:17.68 | 3:19.28 | 32843 | 47795
4 | 10:37.21 | 7:09.25 | 47796 | 79995
5 | 17:46.46 | 2:37.56 | 79996 | 91826
6 | 20:24.27 | 4:05.02 | 91827 | 110203
7 | 24:29.29 | 4:25.15 | 110204 | 130093
8 | 28:54.44 | 3:55.10 | 130094 | 147728
9 | 32:49.54 | 3:23.71 | 147729 | 163024


Range status and errors

Selected range

Filename C:\Users\Meijin\Desktop\ALLexxess\Bob Dylan\1971 Bob Dylan's Greatest Hits Vol. II (2 Hybrid SACD Set Audio Fidelity 2013)\CD1\Bob Dylan - Bob Dylan's Greatest Hits Vol. II CD1.wav

Peak level 97.2 %
Extraction speed 3.3 X
Range quality 100.0 %
Test CRC 547E0C57
Copy CRC 547E0C57
Copy OK

No errors occurred


AccurateRip summary

Track 1 accurately ripped (confidence 28) [DFF765DE] (AR v2)
Track 2 accurately ripped (confidence 27) [38D10B49] (AR v2)
Track 3 accurately ripped (confidence 28) [749C08D0] (AR v2)
Track 4 accurately ripped (confidence 27) [A6EF46D1] (AR v2)
Track 5 accurately ripped (confidence 28) [F93A0670] (AR v2)
Track 6 accurately ripped (confidence 28) [390B201D] (AR v2)
Track 7 accurately ripped (confidence 28) [E0922E04] (AR v2)
Track 8 accurately ripped (confidence 28) [D10C6AB7] (AR v2)
Track 9 accurately ripped (confidence 28) [35C0F424] (AR v2)

All tracks accurately ripped

End of status report

==== Log checksum AB2FD14D61068CC62B27B2CD119C9DAE9361016F300F589A818F100D42007E0E ====


[CUETools log; Date: 15.03.2018 20:30:58; Version: 2.1.5]
[CTDB TOCID: cXYc2IrMsS7HyRbtkbzLVuO9DD4-] found.
Track | CTDB Status
1 | (34/34) Accurately ripped
2 | (34/34) Accurately ripped
3 | (34/34) Accurately ripped
4 | (34/34) Accurately ripped
5 | (34/34) Accurately ripped
6 | (34/34) Accurately ripped
7 | (34/34) Accurately ripped
8 | (34/34) Accurately ripped
9 | (34/34) Accurately ripped
[AccurateRip ID: 000c823f-005c3df1-79087d09] found.
Track [ CRC | V2 ] Status
01 [3a00afb3|dff765de] (00+48/48) Accurately ripped
02 [2a147742|38d10b49] (00+47/47) Accurately ripped
03 [2485b1c1|749c08d0] (00+47/47) Accurately ripped
04 [1f7aceb9|a6ef46d1] (00+47/47) Accurately ripped
05 [a455a1af|f93a0670] (00+48/48) Accurately ripped
06 [e663176d|390b201d] (00+48/48) Accurately ripped
07 [3a3e30d5|e0922e04] (00+48/48) Accurately ripped
08 [1730711d|d10c6ab7] (00+48/48) Accurately ripped
09 [fdc9365c|35c0f424] (00+48/48) Accurately ripped

Track Peak [ CRC32 ] [W/O NULL] [ LOG ]
– 97,2 [547E0C57] [62B0FD90] CRC32
01 97,2 [08533BB8] [545BBE47]
02 61,9 [6DDEAE69] [2C8CE214]
03 75,2 [74216A5A] [6E2331AD]
04 85,7 [5143FF22] [4787D30F]
05 95,2 [1A1999D6] [AA97CB8F]
06 74,3 [BE5ABBB8] [FB15CF50]
07 75,9 [87EACDF5] [F93FD41B]
08 79,3 [DD3947B9] [E29F798E]
09 84,9 [816D138B] [A2B9E634]


Tracklist CD5 - :

01 She Belongs To Me 02:51
02 All Along The Watchtower 02:33
03 The Mighty Quinn (Quinn, The Eskimo) 02:47
04 Just Like Tom Thumb's Blues 05:29
05 A Hard Rain's A-Gonna Fall 06:53
06 If Not For You 02:42
07 It's All Over Now, Baby Blue 04:18
08 Tomorrow Is A Long Time 03:05
09 When I Paint My Masterpiece 03:26
10 I Shall Be Released 03:05
11 You Ain't Goin' Nowhere 02:48
12 Down In The Flood 02:48

Exact Audio Copy V1.0 beta 3 from 29. August 2011

EAC extraction logfile from 1. September 2013, 20:42

Bob Dylan / Bob Dylan's Greatest Hits Vol. II AF CD2

Used drive : PLEXTOR BD-R PX-B950SA Adapter: 6 ID: 0

Read mode : Secure
Utilize accurate stream : Yes
Defeat audio cache : Yes
Make use of C2 pointers : No

Read offset correction : 6
Overread into Lead-In and Lead-Out : No
Fill up missing offset samples with silence : Yes
Delete leading and trailing silent blocks : No
Null samples used in CRC calculations : Yes
Used interface : Native Win32 interface for Win NT & 2000

Used output format : Internal WAV Routines
Sample format : 44.100 Hz; 16 Bit; Stereo


TOC of the extracted CD

Track | Start | Length | Start sector | End sector
––––––––––––––––––––––––––––-
1 | 0:00.00 | 2:51.17 | 0 | 12841
2 | 2:51.17 | 2:33.06 | 12842 | 24322
3 | 5:24.23 | 2:47.62 | 24323 | 36909
4 | 8:12.10 | 5:29.51 | 36910 | 61635
5 | 13:41.61 | 6:53.01 | 61636 | 92611
6 | 20:34.62 | 2:42.63 | 92612 | 104824
7 | 23:17.50 | 4:18.23 | 104825 | 124197
8 | 27:35.73 | 3:05.69 | 124198 | 138141
9 | 30:41.67 | 3:26.48 | 138142 | 153639
10 | 34:08.40 | 3:05.70 | 153640 | 167584
11 | 37:14.35 | 2:48.01 | 167585 | 180185
12 | 40:02.36 | 2:48.19 | 180186 | 192804


Range status and errors

Selected range

Filename C:\Users\Meijin\Desktop\ALLexxess\Bob Dylan\1971 Bob Dylan's Greatest Hits Vol. II (2 Hybrid SACD Set Audio Fidelity 2013)\CD2\Bob Dylan's Greatest Hits Vol. II AF CD2.wav

Peak level 96.0 %
Extraction speed 3.5 X
Range quality 100.0 %
Test CRC B4ED4D7A
Copy CRC B4ED4D7A
Copy OK

No errors occurred


AccurateRip summary

Track 1 accurately ripped (confidence 27) [8BCB1DAE] (AR v2)
Track 2 accurately ripped (confidence 26) [87BD56DD] (AR v2)
Track 3 accurately ripped (confidence 27) [F76C9178] (AR v2)
Track 4 accurately ripped (confidence 27) [E52DE2F4] (AR v2)
Track 5 accurately ripped (confidence 27) [8B1C1163] (AR v2)
Track 6 accurately ripped (confidence 26) [CE921EAD] (AR v2)
Track 7 accurately ripped (confidence 26) [F66C62A0] (AR v2)
Track 8 accurately ripped (confidence 27) [3DD49217] (AR v2)
Track 9 accurately ripped (confidence 26) [5D6D88C4] (AR v2)
Track 10 accurately ripped (confidence 27) [C337ED22] (AR v2)
Track 11 accurately ripped (confidence 26) [7F0E822B] (AR v2)
Track 12 accurately ripped (confidence 27) [DAE9595B] (AR v2)

All tracks accurately ripped

End of status report

==== Log checksum ABE2D81C282BCEE08598819634F4535F759E68D4BA872AC78BB807DC903D1D7A ====


[CUETools log; Date: 15.03.2018 20:31:27; Version: 2.1.5]
[CTDB TOCID: lu6NLTJn1ztrdpMZ_6YeHPZsaM8-] found.
Track | CTDB Status
1 | (32/32) Accurately ripped
2 | (32/32) Accurately ripped
3 | (32/32) Accurately ripped
4 | (32/32) Accurately ripped
5 | (32/32) Accurately ripped
6 | (32/32) Accurately ripped
7 | (32/32) Accurately ripped
8 | (32/32) Accurately ripped
9 | (32/32) Accurately ripped
10 | (32/32) Accurately ripped
11 | (32/32) Accurately ripped
12 | (32/32) Accurately ripped
[AccurateRip ID: 0013ade8-00b91423-990a0a0c] found.
Track [ CRC | V2 ] Status
01 [e93b3627|8bcb1dae] (00+47/47) Accurately ripped
02 [e005a129|87bd56dd] (00+47/47) Accurately ripped
03 [fa9afbdb|f76c9178] (00+48/48) Accurately ripped
04 [6f979148|e52de2f4] (00+47/47) Accurately ripped
05 [b3061a20|8b1c1163] (00+47/47) Accurately ripped
06 [24926178|ce921ead] (00+46/46) Accurately ripped
07 [fb86eec4|f66c62a0] (00+46/46) Accurately ripped
08 [b01e377e|3dd49217] (00+47/47) Accurately ripped
09 [d40166f6|5d6d88c4] (00+46/46) Accurately ripped
10 [ea9ba400|c337ed22] (00+47/47) Accurately ripped
11 [3a1f8662|7f0e822b] (00+46/46) Accurately ripped
12 [bbdb68af|dae9595b] (00+47/47) Accurately ripped

Track Peak [ CRC32 ] [W/O NULL] [ LOG ]
– 96,0 [B4ED4D7A] [AA5B9E97] CRC32
01 73,1 [257F9026] [0A67641B]
02 71,4 [369A3B6B] [F542DC2C]
03 68,5 [AB20BCAF] [8E824D09]
04 61,5 [DBFC1DEB] [8C960E87]
05 69,6 [B11E0344] [3E2906AB]
06 72,3 [FC8CB0FA] [4A40F327]
07 49,6 [A2572CBA] [2EA6EFE6]
08 84,6 [9699CD5E] [92239783]
09 96,0 [FAC5C4E7] [60C78C2A]
10 80,8 [D53910C4] [AFE8B3E5]
11 69,7 [56EB502A] [D88582DE]
12 84,2 [F0629A95] [D9253A36]


Bob Dylan – Albums Collection (1967-2004) [8CD, Mobile Fidelity Sound Lab, Audio Fidelity]

Tracklist CD6 - 1974 - Planet Waves (MFSL UDSACD 2153, USA, 2015):

01. On A Night Like This 03:00
02. Going, Going, Gone 03:29
03. Tough Mama 04:20
04. Hazel 02:51
05. Something There Is About You 04:48
06. Forever Young 05:03
07. Forever Young 02:52
08. Dirge 05:36
09. You Angel You 02:56
10. Never Say Goodbye 02:55
11. Wedding Song 04:46

Exact Audio Copy V1.1 from 23. June 2015

EAC extraction logfile from 8. May 2016, 8:17

Bob Dylan / Planet Waves MFSL

Used drive : PLEXTOR BD-R PX-B950SA Adapter: 1 ID: 1

Read mode : Secure
Utilize accurate stream : Yes
Defeat audio cache : Yes
Make use of C2 pointers : No

Read offset correction : 6
Overread into Lead-In and Lead-Out : No
Fill up missing offset samples with silence : Yes
Delete leading and trailing silent blocks : No
Null samples used in CRC calculations : Yes
Used interface : Native Win32 interface for Win NT & 2000

Used output format : Internal WAV Routines
Sample format : 44.100 Hz; 16 Bit; Stereo


TOC of the extracted CD

Track | Start | Length | Start sector | End sector
––––––––––––––––––––––––––––-
1 | 0:00.00 | 3:00.34 | 0 | 13533
2 | 3:00.34 | 3:29.62 | 13534 | 29270
3 | 6:30.21 | 4:20.29 | 29271 | 48799
4 | 10:50.50 | 2:51.72 | 48800 | 61696
5 | 13:42.47 | 4:48.57 | 61697 | 83353
6 | 18:31.29 | 5:03.03 | 83354 | 106081
7 | 23:34.32 | 2:52.29 | 106082 | 119010
8 | 26:26.61 | 5:36.00 | 119011 | 144210
9 | 32:02.61 | 2:56.18 | 144211 | 157428
10 | 34:59.04 | 2:55.70 | 157429 | 170623
11 | 37:54.74 | 4:46.68 | 170624 | 192141


Range status and errors

Selected range

Filename C:\Users\Meijin\Desktop\ALLexxess\Bob Dylan\1974 Planet Waves (Hybrid SACD MFSL 2016)\Bob Dylan - Planet Waves MFSL.wav

Peak level 100.0 %
Extraction speed 3.4 X
Range quality 100.0 %
Test CRC 564286D8
Copy CRC 564286D8
Copy OK

No errors occurred


AccurateRip summary

Track 1 accurately ripped (confidence 5) [9D3BF3F5] (AR v2)
Track 2 accurately ripped (confidence 5) [DE60D5F3] (AR v2)
Track 3 accurately ripped (confidence 5) [9978A93D] (AR v2)
Track 4 accurately ripped (confidence 5) [EF968C57] (AR v2)
Track 5 accurately ripped (confidence 5) [7F4D96F2] (AR v2)
Track 6 accurately ripped (confidence 5) [E37B6DFC] (AR v2)
Track 7 accurately ripped (confidence 5) [6F51F52C] (AR v2)
Track 8 accurately ripped (confidence 5) [E453E8E3] (AR v2)
Track 9 accurately ripped (confidence 5) [79D92E07] (AR v2)
Track 10 accurately ripped (confidence 5) [1AA06368] (AR v2)
Track 11 accurately ripped (confidence 5) [2DCEA7CC] (AR v2)

All tracks accurately ripped

End of status report

–– CUETools DB Plugin V2.1.6

[CTDB TOCID: kLYlYjmkPeOgaPP3RBW93gqf9Lo-] found
Submit result: kLYlYjmkPeOgaPP3RBW93gqf9Lo- has been confirmed
Track | CTDB Status
1 | (3/3) Accurately ripped
2 | (3/3) Accurately ripped
3 | (3/3) Accurately ripped
4 | (3/3) Accurately ripped
5 | (3/3) Accurately ripped
6 | (3/3) Accurately ripped
7 | (3/3) Accurately ripped
8 | (3/3) Accurately ripped
9 | (3/3) Accurately ripped
10 | (3/3) Accurately ripped
11 | (3/3) Accurately ripped


==== Log checksum D25F0A99BE8090A2FD3CC934616CB4B98E00B421227BADE0CE57EF3882541D06 ====


[CUETools log; Date: 15.03.2018 20:31:54; Version: 2.1.5]
[CTDB TOCID: kLYlYjmkPeOgaPP3RBW93gqf9Lo-] found.
Track | CTDB Status
1 | (16/16) Accurately ripped
2 | (16/16) Accurately ripped
3 | (16/16) Accurately ripped
4 | (16/16) Accurately ripped
5 | (16/16) Accurately ripped
6 | (16/16) Accurately ripped
7 | (16/16) Accurately ripped
8 | (16/16) Accurately ripped
9 | (16/16) Accurately ripped
10 | (16/16) Accurately ripped
11 | (16/16) Accurately ripped
[AccurateRip ID: 00112f0b-0096934e-830a010b] found.
Track [ CRC | V2 ] Status
01 [0557b18e|9d3bf3f5] (00+10/10) Accurately ripped
02 [7b4963c5|de60d5f3] (00+10/10) Accurately ripped
03 [42ddf32f|9978a93d] (00+10/10) Accurately ripped
04 [07a27a17|ef968c57] (00+10/10) Accurately ripped
05 [ff399d38|7f4d96f2] (00+10/10) Accurately ripped
06 [c495f95e|e37b6dfc] (00+10/10) Accurately ripped
07 [db3ee3ed|6f51f52c] (00+10/10) Accurately ripped
08 [4f923c10|e453e8e3] (00+10/10) Accurately ripped
09 [1642ca3a|79d92e07] (00+10/10) Accurately ripped
10 [f5c15a46|1aa06368] (00+10/10) Accurately ripped
11 [6abfb2be|2dcea7cc] (00+10/10) Accurately ripped

Track Peak [ CRC32 ] [W/O NULL] [ LOG ]
– 100,0 [564286D8] [FF864C05] CRC32
01 96,1 [F4DF9A0F] [19BB7BAE]
02 94,1 [D1A1ED09] [EAED1B04]
03 100,0 [A573AAEB] [B4E223B0]
04 93,2 [CF6A6962] [2CE3AD9C]
05 92,4 [0065425E] [64660879]
06 96,7 [CB2C7E4F] [B40CB6CC]
07 95,4 [359CB574] [8A6A7BD1]
08 84,2 [B871A4B6] [96EBE6EA]
09 92,6 [590432D3] [85600024]
10 83,9 [183666C6] [5D30F5F9]
11 84,0 [4C524E7D] [9D48AFB2]


Bob Dylan – Albums Collection (1967-2004) [8CD, Mobile Fidelity Sound Lab, Audio Fidelity]

Tracklist CD7 - 2004 - Live 1964 (Concert At Philharmonic Hall) 2CD (Audio Fidelity AZF2 145, USA, 2016):

01. The Times They Are A-Changin' 03:56
02. Spanish Harlem Incident 02:54
03. Talkin' John Birch Paranoid Blues 04:21
04. To Ramona 05:11
05. Who Killed Davey Moore? 04:46
06. Gates Of Eden 08:36
07. If You Gotta Go, Go Now (Or Else You Got To Stay All Night) 03:55
08. It's Alright, Ma (I'm Only Bleeding) 9:55
09. I Don't Believe You (She Acts Like We Never Have Met) 05:29
10. Mr. Tambourine Man 06:37
11. A Hard Rain's A-Gonna Fall 07:45

Exact Audio Copy V1.1 from 23. June 2015

EAC extraction logfile from 7. May 2016, 9:32

Bob Dylan / Live 1964 AF 1

Used drive : PLEXTOR BD-R PX-B950SA Adapter: 1 ID: 1

Read mode : Secure
Utilize accurate stream : Yes
Defeat audio cache : Yes
Make use of C2 pointers : No

Read offset correction : 6
Overread into Lead-In and Lead-Out : No
Fill up missing offset samples with silence : Yes
Delete leading and trailing silent blocks : No
Null samples used in CRC calculations : Yes
Used interface : Native Win32 interface for Win NT & 2000

Used output format : Internal WAV Routines
Sample format : 44.100 Hz; 16 Bit; Stereo


TOC of the extracted CD

Track | Start | Length | Start sector | End sector
––––––––––––––––––––––––––––-
1 | 0:00.00 | 3:56.20 | 0 | 17719
2 | 3:56.20 | 2:54.70 | 17720 | 30839
3 | 6:51.15 | 4:21.60 | 30840 | 50474
4 | 11:13.00 | 5:11.60 | 50475 | 73859
5 | 16:24.60 | 4:46.63 | 73860 | 95372
6 | 21:11.48 | 8:36.62 | 95373 | 134134
7 | 29:48.35 | 3:55.59 | 134135 | 151818
8 | 33:44.19 | 9:55.60 | 151819 | 196503
9 | 43:40.04 | 5:29.25 | 196504 | 221203
10 | 49:09.29 | 6:37.70 | 221204 | 251048
11 | 55:47.24 | 7:45.74 | 251049 | 285997


Range status and errors

Selected range

Filename C:\Users\Meijin\Desktop\ALLexxess\Bob Dylan\2004 Live 1964 (2 Hybrid Multichannel SACD Audio Fidelity 2016)\CD1\Bob Dylan - Live 1964 AF 1.wav

Peak level 97.5 %
Extraction speed 3.8 X
Range quality 100.0 %
Test CRC 17E87E4F
Copy CRC 17E87E4F
Copy OK

No errors occurred


AccurateRip summary

Track 1 accurately ripped (confidence 5) [6679F8F3] (AR v2)
Track 2 accurately ripped (confidence 5) [475B51A7] (AR v2)
Track 3 accurately ripped (confidence 5) [6FB8E5B8] (AR v2)
Track 4 accurately ripped (confidence 5) [9FECF359] (AR v2)
Track 5 accurately ripped (confidence 5) [8D527687] (AR v2)
Track 6 accurately ripped (confidence 5) [9E8F513D] (AR v2)
Track 7 accurately ripped (confidence 5) [5F548361] (AR v2)
Track 8 accurately ripped (confidence 5) [6D556925] (AR v2)
Track 9 accurately ripped (confidence 5) [ECBAF8B1] (AR v2)
Track 10 accurately ripped (confidence 5) [7C44AB0E] (AR v2)
Track 11 accurately ripped (confidence 5) [A46F140D] (AR v2)

All tracks accurately ripped

End of status report

–– CUETools DB Plugin V2.1.6

[CTDB TOCID: leKSRfptMECurjozJHQJYbg.35s-] found
Submit result: leKSRfptMECurjozJHQJYbg.35s- has been confirmed
Track | CTDB Status
1 | (5/5) Accurately ripped
2 | (5/5) Accurately ripped
3 | (5/5) Accurately ripped
4 | (5/5) Accurately ripped
5 | (5/5) Accurately ripped
6 | (5/5) Accurately ripped
7 | (5/5) Accurately ripped
8 | (5/5) Accurately ripped
9 | (5/5) Accurately ripped
10 | (5/5) Accurately ripped
11 | (5/5) Accurately ripped


==== Log checksum 5E7DBE1B4DEB3520D5EC51699D0E57BD6B4AE89AD278A010F34F79A3AA91426D ====


[CUETools log; Date: 15.03.2018 20:32:25; Version: 2.1.5]
[CTDB TOCID: leKSRfptMECurjozJHQJYbg.35s-] found.
Track | CTDB Status
1 | (13/13) Accurately ripped
2 | (13/13) Accurately ripped
3 | (13/13) Accurately ripped
4 | (13/13) Accurately ripped
5 | (13/13) Accurately ripped
6 | (13/13) Accurately ripped
7 | (13/13) Accurately ripped
8 | (13/13) Accurately ripped
9 | (13/13) Accurately ripped
10 | (13/13) Accurately ripped
11 | (13/13) Accurately ripped
[AccurateRip ID: 00170671-00cf810b-980ee50b] found.
Track [ CRC | V2 ] Status
01 [90270349|6679f8f3] (00+20/20) Accurately ripped
02 [80cc7a7d|475b51a7] (00+20/20) Accurately ripped
03 [dfc95cfd|6fb8e5b8] (00+20/20) Accurately ripped
04 [42220624|9fecf359] (00+20/20) Accurately ripped
05 [5d604b3e|8d527687] (00+20/20) Accurately ripped
06 [cc5fe337|9e8f513d] (00+20/20) Accurately ripped
07 [d28d30fd|5f548361] (00+20/20) Accurately ripped
08 [6b550ff3|6d556925] (00+20/20) Accurately ripped
09 [7f36df79|ecbaf8b1] (00+20/20) Accurately ripped
10 [403da8dc|7c44ab0e] (00+20/20) Accurately ripped
11 [786c87dd|a46f140d] (00+20/20) Accurately ripped

Track Peak [ CRC32 ] [W/O NULL] [ LOG ]
– 97,5 [17E87E4F] [41B25E4E] CRC32
01 86,0 [945ABA41] [778DB9D4]
02 86,7 [B9E71737] [001E5D94]
03 81,1 [779A24F1] [E8C36109]
04 75,7 [28F42C00] [73E22AF3]
05 80,6 [8E142CF5] [7D24F3D4]
06 69,9 [244C77A8] [4440B6FE]
07 78,4 [29F3BF77] [AC303D90]
08 81,3 [13EF3A8A] [DF9396BC]
09 95,0 [641EBC75] [4432023F]
10 87,5 [CE82ECEC] [94A12C2F]
11 97,5 [8276AB42] [312763FE]


Tracklist CD8 - :

01. Talkin' World War III Blues 05:40
02. Don't Think Twice, It's All Right 04:12
03. The Lonesome Death Of Hattie Carroll 07:07
04. Mama, You Been On My Mind 03:41
05. Silver Dagger (traditional) 04:05
06. With God On Our Side 06:09
07. It Ain't Me, Babe 05:20
08. All I Really Wanna Do 03:59

Exact Audio Copy V1.1 from 23. June 2015

EAC extraction logfile from 7. May 2016, 8:40

Bob Dylan / Live 1964 AF 2

Used drive : PLEXTOR BD-R PX-B950SA Adapter: 1 ID: 1

Read mode : Secure
Utilize accurate stream : Yes
Defeat audio cache : Yes
Make use of C2 pointers : No

Read offset correction : 6
Overread into Lead-In and Lead-Out : No
Fill up missing offset samples with silence : Yes
Delete leading and trailing silent blocks : No
Null samples used in CRC calculations : Yes
Used interface : Native Win32 interface for Win NT & 2000

Used output format : Internal WAV Routines
Sample format : 44.100 Hz; 16 Bit; Stereo


TOC of the extracted CD

Track | Start | Length | Start sector | End sector
––––––––––––––––––––––––––––-
1 | 0:00.00 | 5:40.37 | 0 | 25536
2 | 5:40.37 | 4:12.53 | 25537 | 44489
3 | 9:53.15 | 7:07.08 | 44490 | 76522
4 | 17:00.23 | 3:41.38 | 76523 | 93135
5 | 20:41.61 | 4:05.74 | 93136 | 111584
6 | 24:47.60 | 6:09.15 | 111585 | 139274
7 | 30:57.00 | 5:20.64 | 139275 | 163338
8 | 36:17.64 | 3:59.71 | 163339 | 181334


Range status and errors

Selected range

Filename C:\Users\Meijin\Desktop\ALLexxess\Bob Dylan\2004 Live 1964 (2 Hybrid Multichannel SACD Audio Fidelity 2016)\CD2\Bob Dylan - Live 1964 AF 2.wav

Peak level 81.1 %
Extraction speed 7.4 X
Range quality 100.0 %
Test CRC F73AB912
Copy CRC F73AB912
Copy OK

No errors occurred


AccurateRip summary

Track 1 accurately ripped (confidence 4) [1825467D] (AR v2)
Track 2 accurately ripped (confidence 4) [53448C98] (AR v2)
Track 3 accurately ripped (confidence 4) [87521860] (AR v2)
Track 4 accurately ripped (confidence 4) [637B4ED8] (AR v2)
Track 5 accurately ripped (confidence 4) [9794F7A1] (AR v2)
Track 6 accurately ripped (confidence 4) [84C64DE8] (AR v2)
Track 7 accurately ripped (confidence 4) [81280001] (AR v2)
Track 8 accurately ripped (confidence 4) [726DD0A0] (AR v2)

All tracks accurately ripped

End of status report

–– CUETools DB Plugin V2.1.6

[CTDB TOCID: DQp1m6U.tf3fuVouD1WXMpSs5aM-] found
Submit result: DQp1m6U.tf3fuVouD1WXMpSs5aM- has been confirmed
Track | CTDB Status
1 | (5/5) Accurately ripped
2 | (5/5) Accurately ripped
3 | (5/5) Accurately ripped
4 | (5/5) Accurately ripped
5 | (5/5) Accurately ripped
6 | (5/5) Accurately ripped
7 | (5/5) Accurately ripped
8 | (5/5) Accurately ripped


==== Log checksum A2ADB5BB525B98B0FE3CE2684F2298FAF40E7CD192EC865FC3DF6080ADA6F7FD ====


[CUETools log; Date: 15.03.2018 20:32:54; Version: 2.1.5]
[CTDB TOCID: DQp1m6U.tf3fuVouD1WXMpSs5aM-] found.
Track | CTDB Status
1 | (14/14) Accurately ripped
2 | (13/14) Accurately ripped
3 | (13/14) Accurately ripped
4 | (13/14) Accurately ripped
5 | (13/14) Accurately ripped
6 | (13/14) Accurately ripped
7 | (13/14) Accurately ripped
8 | (13/14) Accurately ripped
[AccurateRip ID: 000cbe94-00548697-6d097108] found.
Track [ CRC | V2 ] Status
01 [b65558ad|1825467d] (00+20/20) Accurately ripped
02 [094338ae|53448c98] (00+20/20) Accurately ripped
03 [9e6a8efb|87521860] (00+20/20) Accurately ripped
04 [d3305e85|637b4ed8] (00+20/20) Accurately ripped
05 [9032f900|9794f7a1] (00+20/20) Accurately ripped
06 [d6bd3057|84c64de8] (00+20/20) Accurately ripped
07 [5dcf0899|81280001] (00+20/20) Accurately ripped
08 [b89ad2f2|726dd0a0] (00+20/20) Accurately ripped

Track Peak [ CRC32 ] [W/O NULL] [ LOG ]
– 81,1 [F73AB912] [289813D4] CRC32
01 71,6 [86AD4F55] [0FFB0954]
02 74,5 [6644810F] [4C1B1C59]
03 77,5 [8BEC616D] [FE73D247]
04 81,1 [CF9A432A] [F0848CBE]
05 74,9 [AEA77868] [3F117E01]
06 78,5 [07F32BA0] [0DA81FC4]
07 73,3 [2439D41B] [031224F1]
08 73,0 [76A420E9] [98464E67]


All thanks go to ALLexxess

Bob Dylan or Bob Dylan in my Blog

Download Bob Dylan – Albums Collection (1967-2004: