Subcategories

Bob Dylan: 5CD Collection (1963-1974) [2013, BSCD2, Sony Music Japan]

Posted By: v3122
Bob Dylan: 5CD Collection (1963-1974) [2013, BSCD2, Sony Music Japan]

Bob Dylan: 5CD Collection (1963-1974)
EAC | Flac(Image) + Cue + Log & MP3 CBR 320Kbps
5CD | Sony Music Japan, SICP-30025~29 | ~ 1815 or 726 Mb | Scans(png) -> 1207 Mb
Folk Rock, Pop Rock, Blues Rock, Ballad

Bob Dylan (/ˈdɪlən/; born Robert Allen Zimmerman, May 24, 1941) is an American singer-songwriter, author, and painter, who has been an influential figure in popular music and culture for more than five decades. Much of his most celebrated work dates from the 1960s, when he became a reluctant "voice of a generation" with songs such as "Blowin' in the Wind" and "The Times They Are a-Changin'" that became anthems for the Civil Rights Movement and anti-war movement. In 1965, he controversially abandoned his early fan-base in the American folk music revival, recording a six-minute single, "Like a Rolling Stone", which enlarged the scope of popular music.

Dylan's lyrics incorporate a wide range of political, social, philosophical, and literary influences. They defied existing pop-music conventions and appealed to the burgeoning counterculture. Initially inspired by the performances of Little Richard and the songwriting of Woody Guthrie, Robert Johnson, and Hank Williams, Dylan has amplified and personalized musical genres. In his recording career, Dylan has explored many of the traditions in American song—from folk, blues, and country to gospel, and rock and roll, and from rockabilly to English, Scottish, and Irish folk music, embracing even jazz and the Great American Songbook. Dylan performs on guitar, keyboards, and harmonica. Backed by a changing lineup of musicians, he has toured steadily since the late 1980s on what has been dubbed "the Never Ending Tour". His accomplishments as a recording artist and performer have been central to his career, but his songwriting is considered his greatest contribution.

Following his self-titled debut album in 1962, which mainly consisted of traditional folk songs, Dylan made his breakthrough as a songwriter with the release of the 1963 album The Freewheelin' Bob Dylan, featuring "Blowin’ in the Wind" and the thematically complex composition "A Hard Rain's a-Gonna Fall," alongside several other enduring songs of the era. Dylan went on to release the politically charged The Times They Are a-Changin' and the more lyrically abstract and introspective Another Side of Bob Dylan in 1964. In 1965 and 1966 Dylan encountered controversy when he adopted the use of electrically amplified rock instrumentation and in the space of 15 months recorded three of the most important and influential rock albums of the 1960s, Bringing It All Back Home, Highway 61 Revisited and Blonde on Blonde.

In July 1966, Dylan withdrew from touring after being injured in a motorcycle accident. During this period he recorded a large body of songs with members of the Band, who had previously backed Dylan on tour; these were eventually released as the collaborative album The Basement Tapes in 1975. In the late 1960s and early 70s, Dylan explored country music and rural themes in John Wesley Harding, Nashville Skyline and New Morning. In 1975 Dylan released his career-defining album Blood on the Tracks followed by the critically and commercially successful Desire the following year. In the late 1970s, Dylan became a born-again Christian and released a series of albums of contemporary gospel music, notably Slow Train Coming, before returning to his more familiar rock-based idiom with Infidels. Dylan's major works during his later career include Time Out of Mind, "Love and Theft" and Tempest. His most recent recordings have comprised versions of traditional American standards, especially songs recorded by Frank Sinatra.

Since 1994, Dylan has published seven books of drawings and paintings, and his work has been exhibited in major art galleries. Dylan has sold more than 100 million records, making him one of the best-selling music artists of all time. He has also received numerous awards including eleven Grammy Awards, a Golden Globe Award, and an Academy Award. Dylan has been inducted into the Rock and Roll Hall of Fame, Minnesota Music Hall of Fame, Nashville Songwriters Hall of Fame, and Songwriters Hall of Fame. The Pulitzer Prize jury in 2008 awarded him a special citation for "his profound impact on popular music and American culture, marked by lyrical compositions of extraordinary poetic power". In May 2012, Dylan received the Presidential Medal of Freedom from President Barack Obama, and, in 2016, he was awarded the Nobel Prize in Literature "for having created new poetic expressions within the great American song tradition"…

~ wiki
Bob Dylan: 5CD Collection (1963-1974):

Bob Dylan: 5CD Collection (1963-1974) [2013, BSCD2, Sony Music Japan]

Tracklist CD1 - 1963 - The Freewheelin' Bob Dylan [Repost]:
Sony Music Japan, SICP-30025

01. Blowin' In The Wind 02:49
02. Girl From The North Country 03:23
03. Masters Of War 04:38
04. Down The Highway 03:32
05. Bob Dylan's Blues 02:28
06. A Hard Rain's A-Gonna Fall 06:53
07. Don't Think Twice, It's All Right 03:41
08. Bob Dylan's Dream 05:02
09. Oxford Town 01:50
10. Talkin' World War III Blues 06:27
11. Corrina, Corrina 02:44
12. Honey, Just Allow Me One More Chance 02:00
13. I Shall Be Free 04:48

Exact Audio Copy V1.0 beta 3 from 29. August 2011

EAC extraction logfile from 2. September 2013, 21:46

Bob Dylan / The Freewheelin' Bob Dylan BSCD2

Used drive : PLEXTOR BD-R PX-B950SA Adapter: 6 ID: 0

Read mode : Secure
Utilize accurate stream : Yes
Defeat audio cache : Yes
Make use of C2 pointers : No

Read offset correction : 6
Overread into Lead-In and Lead-Out : No
Fill up missing offset samples with silence : Yes
Delete leading and trailing silent blocks : No
Null samples used in CRC calculations : Yes
Used interface : Native Win32 interface for Win NT & 2000

Used output format : Internal WAV Routines
Sample format : 44.100 Hz; 16 Bit; Stereo


TOC of the extracted CD

Track | Start | Length | Start sector | End sector
––––––––––––––––––––––––––––-
1 | 0:00.00 | 2:49.00 | 0 | 12674
2 | 2:49.00 | 3:23.07 | 12675 | 27906
3 | 6:12.07 | 4:38.15 | 27907 | 48771
4 | 10:50.22 | 3:32.08 | 48772 | 64679
5 | 14:22.30 | 2:28.65 | 64680 | 75844
6 | 16:51.20 | 6:53.25 | 75845 | 106844
7 | 23:44.45 | 3:41.00 | 106845 | 123419
8 | 27:25.45 | 5:02.55 | 123420 | 146124
9 | 32:28.25 | 1:50.22 | 146125 | 154396
10 | 34:18.47 | 6:27.43 | 154397 | 183464
11 | 40:46.15 | 2:44.05 | 183465 | 195769
12 | 43:30.20 | 2:00.62 | 195770 | 204831
13 | 45:31.07 | 4:48.73 | 204832 | 226504


Range status and errors

Selected range

Filename C:\Users\Meijin\Desktop\ALLexxess\Bob Dylan\1963 The Freewheelin' Bob Dylan (Sony Music Japan BSCD2 2013)\Bob Dylan - The Freewheelin' Bob Dylan BSCD2.wav

Peak level 99.8 %
Extraction speed 7.1 X
Range quality 100.0 %
Test CRC 156036B5
Copy CRC 156036B5
Copy OK

No errors occurred


AccurateRip summary

Track 1 cannot be verified as accurate (confidence 8) [595D65B6], AccurateRip returned [E95300D3] (AR v2)
Track 2 cannot be verified as accurate (confidence 7) [540BDE42], AccurateRip returned [D84E7A75] (AR v2)
Track 3 cannot be verified as accurate (confidence 7) [8E9B8797], AccurateRip returned [C6E0F7E7] (AR v2)
Track 4 cannot be verified as accurate (confidence 7) [1AF84BCE], AccurateRip returned [777EF3B8] (AR v2)
Track 5 cannot be verified as accurate (confidence 7) [9FB99C55], AccurateRip returned [41467870] (AR v2)
Track 6 cannot be verified as accurate (confidence 7) [FB1E4109], AccurateRip returned [A2ABD845] (AR v2)
Track 7 cannot be verified as accurate (confidence 6) [B4793E02], AccurateRip returned [2B77F91E] (AR v2)
Track 8 cannot be verified as accurate (confidence 7) [572594C1], AccurateRip returned [5777B9A8] (AR v2)
Track 9 cannot be verified as accurate (confidence 7) [72A7AEEF], AccurateRip returned [3B3514D7] (AR v2)
Track 10 cannot be verified as accurate (confidence 7) [C5C6B033], AccurateRip returned [CC1E7288] (AR v2)
Track 11 cannot be verified as accurate (confidence 6) [884AEE7D], AccurateRip returned [2BC84DB0] (AR v2)
Track 12 cannot be verified as accurate (confidence 7) [B95AD423], AccurateRip returned [F241915A] (AR v2)
Track 13 cannot be verified as accurate (confidence 7) [54D636BB], AccurateRip returned [F206ECCF] (AR v2)

No tracks could be verified as accurate
You may have a different pressing from the one(s) in the database

End of status report

==== Log checksum AECA301BDB3044ABF1D2B216417B1E9F6F573184CF388CC5F477D231A7D397D8 ====


[CUETools log; Date: 27.02.2018 18:45:51; Version: 2.1.5]
[CTDB TOCID: Y_v5xFlym0yWirOo2H5983wEbAQ-] found.
Track | CTDB Status
1 | (41/60) Accurately ripped
2 | (41/60) Accurately ripped
3 | (41/60) Accurately ripped
4 | (41/60) Accurately ripped
5 | (41/60) Accurately ripped
6 | (41/60) Accurately ripped
7 | (41/60) Accurately ripped
8 | (41/60) Accurately ripped
9 | (41/60) Accurately ripped
10 | (41/60) Accurately ripped
11 | (40/60) Accurately ripped
12 | (40/60) Accurately ripped
13 | (35/60) Accurately ripped
[AccurateRip ID: 0017f9a6-00f24861-9f0bcc0d] found.
Track [ CRC | V2 ] Status
01 [87131369|595d65b6] (00+06/31) Accurately ripped
02 [e91b277d|540bde42] (00+06/30) Accurately ripped
03 [ec7f6f83|8e9b8797] (00+06/30) Accurately ripped
04 [489a3e30|1af84bce] (00+06/30) Accurately ripped
05 [80296534|9fb99c55] (00+06/30) Accurately ripped
06 [9624a1a6|fb1e4109] (00+06/30) Accurately ripped
07 [68b433a9|b4793e02] (00+06/29) Accurately ripped
08 [615c4948|572594c1] (00+06/30) Accurately ripped
09 [1ee76e08|72a7aeef] (00+06/30) Accurately ripped
10 [40152006|c5c6b033] (00+06/30) Accurately ripped
11 [e554d615|884aee7d] (00+06/28) Accurately ripped
12 [caf78c50|b95ad423] (00+06/29) Accurately ripped
13 [6f3c18ce|54d636bb] (00+06/30) Accurately ripped
Offsetted by 38:
01 [d4984974] (00/31) No match (V2 was not tested)
02 [26f87ed7] (00/30) No match (V2 was not tested)
03 [b2d7c0bd] (00/30) No match (V2 was not tested)
04 [240848f3] (00/30) No match (V2 was not tested)
05 [8ac28ecd] (00/30) No match (V2 was not tested)
06 [b6b8c0b6] (00/30) No match (V2 was not tested)
07 [30a3aadc] (00/29) No match (V2 was not tested)
08 [7756ffb8] (00/30) No match (V2 was not tested)
09 [8f8ccb32] (00/30) No match (V2 was not tested)
10 [5da336ed] (00/30) No match (V2 was not tested)
11 [fafd2623] (00/28) No match (V2 was not tested)
12 [77c2868c] (00/29) No match (V2 was not tested)
13 [a821676d] (00/30) No match (V2 was not tested)

Track Peak [ CRC32 ] [W/O NULL] [ LOG ]
– 99,8 [156036B5] [1D3949AD] CRC32
01 99,8 [4F3288A7] [5F59A34C]
02 99,8 [6B94FCF2] [AA36F720]
03 99,8 [53C1A753] [53EFF435]
04 99,8 [3CA60687] [0D391BCD]
05 99,8 [81555B9F] [6DC7F105]
06 99,8 [15B1BFAE] [2EAB8E77]
07 99,8 [E2572475] [853F50DA]
08 99,8 [8996B0BD] [3A29816D]
09 99,8 [A2A45628] [40462C95]
10 99,8 [E2CF5D06] [0A4759D9]
11 99,8 [C86F9026] [F456397D]
12 99,8 [CCC65CC5] [452CE66D]
13 99,8 [EEF3CFB0] [35D8AD99]


Bob Dylan: 5CD Collection (1963-1974) [2013, BSCD2, Sony Music Japan]

Tracklist CD2 - Bringing It All Back Home:
Sony Music Japan, SICP-30026

01. Subterranean Homesick Blues 02:21
02. She Belongs To Me 02:49
03. Maggie's Farm 03:57
04. Love Minus Zero / No Limit 02:51
05. Outlaw Blues 03:06
06. On The Road Again 02:37
07. Bob Dylan's 115th Dream 06:33
08. Mr. Tambourine Man 05:28
09. Gates Of Eden 05:44
10. It's Alright, Ma (I'm Only Bleeding) 07:33
11. It's All Over Now, Baby Blue 04:16

Exact Audio Copy V1.0 beta 3 from 29. August 2011

EAC extraction logfile from 2. September 2013, 18:14

Bob Dylan / Bringing It All Back Home BSCD2

Used drive : PLEXTOR BD-R PX-B950SA Adapter: 6 ID: 0

Read mode : Secure
Utilize accurate stream : Yes
Defeat audio cache : Yes
Make use of C2 pointers : No

Read offset correction : 6
Overread into Lead-In and Lead-Out : No
Fill up missing offset samples with silence : Yes
Delete leading and trailing silent blocks : No
Null samples used in CRC calculations : Yes
Used interface : Native Win32 interface for Win NT & 2000

Used output format : Internal WAV Routines
Sample format : 44.100 Hz; 16 Bit; Stereo


TOC of the extracted CD

Track | Start | Length | Start sector | End sector
––––––––––––––––––––––––––––-
1 | 0:00.00 | 2:21.45 | 0 | 10619
2 | 2:21.45 | 2:49.57 | 10620 | 23351
3 | 5:11.27 | 3:57.63 | 23352 | 41189
4 | 9:09.15 | 2:51.45 | 41190 | 54059
5 | 12:00.60 | 3:06.07 | 54060 | 68016
6 | 15:06.67 | 2:37.65 | 68017 | 79856
7 | 17:44.57 | 6:33.48 | 79857 | 109379
8 | 24:18.30 | 5:28.00 | 109380 | 133979
9 | 29:46.30 | 5:44.07 | 133980 | 159786
10 | 35:30.37 | 7:33.15 | 159787 | 193776
11 | 43:03.52 | 4:15.57 | 193777 | 212958


Range status and errors

Selected range

Filename C:\Users\Meijin\Desktop\ALLexxess\Bob Dylan\1965 Bringing It All Back Home (Sony Music Japan BSCD2 2013)\Bob Dylan - Bringing It All Back Home BSCD2.wav

Peak level 99.8 %
Extraction speed 7.0 X
Range quality 100.0 %
Test CRC B4687A03
Copy CRC B4687A03
Copy OK

No errors occurred


AccurateRip summary

Track 1 accurately ripped (confidence 3) [7FA36CCE] (AR v2)
Track 2 accurately ripped (confidence 3) [D11B88BD] (AR v2)
Track 3 accurately ripped (confidence 3) [C9988EBE] (AR v2)
Track 4 accurately ripped (confidence 3) [6ABEB78E] (AR v2)
Track 5 accurately ripped (confidence 3) [79F353BB] (AR v2)
Track 6 accurately ripped (confidence 3) [7DEA25CE] (AR v2)
Track 7 accurately ripped (confidence 3) [C5E6C8DB] (AR v2)
Track 8 accurately ripped (confidence 3) [DB4A074F] (AR v2)
Track 9 accurately ripped (confidence 3) [1BEDBEE2] (AR v2)
Track 10 accurately ripped (confidence 3) [B1EF36D6] (AR v2)
Track 11 accurately ripped (confidence 3) [89CC90E1] (AR v2)

All tracks accurately ripped

End of status report

==== Log checksum 043F0131C1B3136825417A3196B1E9196920F4055713DD49C5E7D8476B1E8E14 ====


[CUETools log; Date: 27.02.2018 18:46:22; Version: 2.1.5]
[CTDB TOCID: 4yGiOa6z0z1DZi3iecILOk7IWpc-] found.
Track | CTDB Status
1 | (24/39) Accurately ripped
2 | (24/39) Accurately ripped
3 | (24/39) Accurately ripped
4 | (24/39) Accurately ripped
5 | (24/39) Accurately ripped
6 | (24/39) Accurately ripped
7 | (24/39) Accurately ripped
8 | (24/39) Accurately ripped
9 | (24/39) Accurately ripped
10 | (24/39) Accurately ripped
11 | (24/39) Accurately ripped
[AccurateRip ID: 00109603-009670ab-840b170b] found.
Track [ CRC | V2 ] Status
01 [561e2638|7fa36cce] (00+16/31) Accurately ripped
02 [cad3d66e|d11b88bd] (00+16/30) Accurately ripped
03 [23c77294|c9988ebe] (00+16/30) Accurately ripped
04 [3fda5b9e|6abeb78e] (00+16/30) Accurately ripped
05 [1741d489|79f353bb] (00+16/30) Accurately ripped
06 [1a749245|7dea25ce] (00+16/30) Accurately ripped
07 [5719e648|c5e6c8db] (00+16/30) Accurately ripped
08 [d57ded09|db4a074f] (00+16/31) Accurately ripped
09 [d9b0f0fb|1bedbee2] (00+16/30) Accurately ripped
10 [c6b90e81|b1ef36d6] (00+16/30) Accurately ripped
11 [82b08557|89cc90e1] (00+16/29) Accurately ripped

Track Peak [ CRC32 ] [W/O NULL] [ LOG ]
– 99,8 [B4687A03] [65B37BF0] CRC32
01 99,8 [C02F739E] [F4597156]
02 99,8 [2CAB5BA9] [98C79ECC]
03 99,8 [A9E98CD3] [25EB8325]
04 99,8 [1A287A95] [579A4D56]
05 99,8 [A4EE76B5] [76445A73]
06 99,8 [87D6DE49] [FA73CEBD]
07 99,8 [9D2793BA] [D8C780B5]
08 99,8 [A0DC3649] [396FC5B2]
09 99,8 [12BFB342] [46D50FD4]
10 87,7 [F39354EF] [1A130EDD]
11 99,8 [08C8DAA7] [E4C4923C]


Bob Dylan: 5CD Collection (1963-1974) [2013, BSCD2, Sony Music Japan]

Tracklist CD3 - 1965 - Highway 61 Revisited:
Sony Music Japan, SICP-30027

01. Like A Rolling Stone 06:13
02. Tombstone Blues 05:58
03. It Takes A Lot To Laugh, It Takes A Train To Cry 04:09
04. From A Buick 6 03:19
05. Ballad Of A Thin Man 05:58
06. Queen Jane Approximately 05:31
07. Highway 61 Revisited 03:30
08. Just Like Tom Thumb's Blues 05:31
09. Desolation Row 11:21

Exact Audio Copy V1.0 beta 3 from 29. August 2011

EAC extraction logfile from 2. September 2013, 12:11

Bob Dylan / Highway 61 Revisited BSCD2

Used drive : PLEXTOR BD-R PX-B950SA Adapter: 6 ID: 0

Read mode : Secure
Utilize accurate stream : Yes
Defeat audio cache : Yes
Make use of C2 pointers : No

Read offset correction : 6
Overread into Lead-In and Lead-Out : No
Fill up missing offset samples with silence : Yes
Delete leading and trailing silent blocks : No
Null samples used in CRC calculations : Yes
Used interface : Native Win32 interface for Win NT & 2000

Used output format : Internal WAV Routines
Sample format : 44.100 Hz; 16 Bit; Stereo


TOC of the extracted CD

Track | Start | Length | Start sector | End sector
––––––––––––––––––––––––––––-
1 | 0:00.00 | 6:13.20 | 0 | 27994
2 | 6:13.20 | 5:58.32 | 27995 | 54876
3 | 12:11.52 | 4:09.13 | 54877 | 73564
4 | 16:20.65 | 3:19.02 | 73565 | 88491
5 | 19:39.67 | 5:58.43 | 88492 | 115384
6 | 25:38.35 | 5:31.32 | 115385 | 140241
7 | 31:09.67 | 3:30.13 | 140242 | 156004
8 | 34:40.05 | 5:31.55 | 156005 | 180884
9 | 40:11.60 | 11:21.67 | 180885 | 232026


Range status and errors

Selected range

Filename C:\Users\Meijin\Desktop\ALLexxess\Bob Dylan\1965 Highway 61 Revisited (Sony Music Japan BSCD2 2013)\Bob Dylan - Highway 61 Revisited BSCD2.wav

Peak level 98.7 %
Extraction speed 7.2 X
Range quality 100.0 %
Test CRC 9D0FC463
Copy CRC 9D0FC463
Copy OK

No errors occurred


AccurateRip summary

Track 1 accurately ripped (confidence 4) [2B2B5514] (AR v2)
Track 2 accurately ripped (confidence 4) [C56F3794] (AR v2)
Track 3 accurately ripped (confidence 4) [E9984AFB] (AR v2)
Track 4 accurately ripped (confidence 4) [B65ED2B7] (AR v2)
Track 5 accurately ripped (confidence 4) [3D6FB8B3] (AR v2)
Track 6 accurately ripped (confidence 4) [EE49058A] (AR v2)
Track 7 accurately ripped (confidence 4) [56020C6C] (AR v2)
Track 8 accurately ripped (confidence 4) [40B623DF] (AR v2)
Track 9 accurately ripped (confidence 4) [440A9416] (AR v2)

All tracks accurately ripped

End of status report

==== Log checksum 25B7A14EE8A0FA3F0DFA238B3737B590EC27F028C44BB823BEADA8C95E3BA898 ====


[CUETools log; Date: 27.02.2018 18:47:00; Version: 2.1.5]
[CTDB TOCID: RlTAhgBxRgiyriPGUcAowZNDMoE-] found.
Track | CTDB Status
1 | (57/79) Accurately ripped
2 | (57/79) Accurately ripped
3 | (57/79) Accurately ripped
4 | (57/79) Accurately ripped
5 | (57/79) Accurately ripped
6 | (57/79) Accurately ripped
7 | (57/79) Accurately ripped
8 | (57/79) Accurately ripped
9 | (55/79) Accurately ripped
[AccurateRip ID: 001051a1-007770a5-6d0c1509] found.
Track [ CRC | V2 ] Status
01 [fce4563b|2b2b5514] (07+19/45) Accurately ripped
02 [18abdf85|c56f3794] (07+19/44) Accurately ripped
03 [d2d0c8d2|e9984afb] (07+19/44) Accurately ripped
04 [9bec597f|b65ed2b7] (07+19/44) Accurately ripped
05 [3019e9eb|3d6fb8b3] (07+19/44) Accurately ripped
06 [d3914f75|ee49058a] (07+19/44) Accurately ripped
07 [698ba7e1|56020c6c] (07+19/45) Accurately ripped
08 [727a0cad|40b623df] (07+19/44) Accurately ripped
09 [2e012921|440a9416] (07+18/43) Accurately ripped

Track Peak [ CRC32 ] [W/O NULL] [ LOG ]
– 98,7 [9D0FC463] [C96DA508] CRC32
01 98,7 [172A7502] [2C9BF1C2]
02 98,7 [71B68C89] [A0493C90]
03 90,7 [573C3681] [BD1AB7E5]
04 98,7 [C41CF2F7] [EE1EA759]
05 98,7 [C79525C9] [BB393144]
06 98,7 [5114D991] [ACD0258E]
07 98,7 [E59550CF] [60BD4EBF]
08 98,7 [57E05FAF] [D3AF12E3]
09 98,7 [D742BA1D] [F79448B5]


Bob Dylan: 5CD Collection (1963-1974) [2013, BSCD2, Sony Music Japan]

Tracklist CD4 - 1966 - Blonde On Blonde [Repost]:
Sony Music Japan, SICP-30028

01. Rainy Day Women #12 & 35 04:36
02. Pledging My Time 03:50
03. Visions Of Johanna 07:33
04. One Of Us Must Know (Sooner Or Later) 04:54
05. I Want You 03:07
06. Memphis Blues Again 07:05
07. Leopard-Skin Pill-Box Hat 03:58
08. Just Like A Woman 04:52
09. Most Likely You Go Your Way And I'll Go Mine 03:30
10. Temporary Like Achilles 05:02
11. Absolutely Sweet Marie 04:57
12. 4th Time Around 04:35
13. Obviously 5 Believers 03:35
14. Sad Eyed Lady Of The Lowlands 11:20

Exact Audio Copy V1.0 beta 3 from 29. August 2011

EAC extraction logfile from 2. September 2013, 11:40

Bob Dylan / Blonde On Blonde BSCD2

Used drive : PLEXTOR BD-R PX-B950SA Adapter: 6 ID: 0

Read mode : Secure
Utilize accurate stream : Yes
Defeat audio cache : Yes
Make use of C2 pointers : No

Read offset correction : 6
Overread into Lead-In and Lead-Out : No
Fill up missing offset samples with silence : Yes
Delete leading and trailing silent blocks : No
Null samples used in CRC calculations : Yes
Used interface : Native Win32 interface for Win NT & 2000

Used output format : Internal WAV Routines
Sample format : 44.100 Hz; 16 Bit; Stereo


TOC of the extracted CD

Track | Start | Length | Start sector | End sector
––––––––––––––––––––––––––––-
1 | 0:00.00 | 4:36.50 | 0 | 20749
2 | 4:36.50 | 3:50.05 | 20750 | 38004
3 | 8:26.55 | 7:33.35 | 38005 | 72014
4 | 16:00.15 | 4:54.55 | 72015 | 94119
5 | 20:54.70 | 3:07.57 | 94120 | 108201
6 | 24:02.52 | 7:05.68 | 108202 | 140144
7 | 31:08.45 | 3:58.30 | 140145 | 158024
8 | 35:07.00 | 4:52.55 | 158025 | 179979
9 | 39:59.55 | 3:30.15 | 179980 | 195744
10 | 43:29.70 | 5:02.39 | 195745 | 218433
11 | 48:32.34 | 4:57.03 | 218434 | 240711
12 | 53:29.37 | 4:35.00 | 240712 | 261336
13 | 58:04.37 | 3:35.38 | 261337 | 277499
14 | 61:40.00 | 11:20.50 | 277500 | 328549


Range status and errors

Selected range

Filename C:\Users\Meijin\Desktop\ALLexxess\Bob Dylan\1966 Blonde On Blonde (Sony Music Japan BSCD2 2013)\Bob Dylan - Blonde On Blonde BSCD2.wav

Peak level 99.8 %
Extraction speed 8.8 X
Range quality 100.0 %
Test CRC 43B58A9A
Copy CRC 43B58A9A
Copy OK

No errors occurred


AccurateRip summary

Track 1 accurately ripped (confidence 4) [795249D6] (AR v2)
Track 2 accurately ripped (confidence 4) [71FB75E8] (AR v2)
Track 3 accurately ripped (confidence 4) [4BD39B41] (AR v2)
Track 4 accurately ripped (confidence 4) [32C7A401] (AR v2)
Track 5 accurately ripped (confidence 4) [7540A4DE] (AR v2)
Track 6 accurately ripped (confidence 4) [7B708B8F] (AR v2)
Track 7 accurately ripped (confidence 4) [7BD007A6] (AR v2)
Track 8 accurately ripped (confidence 4) [093B1E4F] (AR v2)
Track 9 accurately ripped (confidence 4) [3256439B] (AR v2)
Track 10 accurately ripped (confidence 4) [F90E2912] (AR v2)
Track 11 accurately ripped (confidence 4) [6D2676F1] (AR v2)
Track 12 accurately ripped (confidence 4) [F1C51D35] (AR v2)
Track 13 accurately ripped (confidence 4) [2349E562] (AR v2)
Track 14 accurately ripped (confidence 4) [723DB7A4] (AR v2)

All tracks accurately ripped

End of status report

==== Log checksum 1412A6DEF959AEEC3D8D158F4BDF09E94843FF3A2E362CEAE5E8A7DDEB4F4A8C ====


[CUETools log; Date: 27.02.2018 18:47:37; Version: 2.1.5]
[CTDB TOCID: l9V9VyM.lfS6Kqxy2G2_Yz35aBA-] found.
Track | CTDB Status
1 | (28/51) Accurately ripped
2 | (28/51) Accurately ripped
3 | (28/51) Accurately ripped
4 | (28/51) Accurately ripped
5 | (28/51) Accurately ripped
6 | (28/51) Accurately ripped
7 | (28/51) Accurately ripped
8 | (28/51) Accurately ripped
9 | (28/51) Accurately ripped
10 | (28/51) Accurately ripped
11 | (28/51) Accurately ripped
12 | (27/51) Accurately ripped
13 | (28/51) Accurately ripped
14 | (27/51) Accurately ripped
[AccurateRip ID: 00239b50-017bc20e-b1111c0e] found.
Track [ CRC | V2 ] Status
01 [465841e7|795249d6] (03+14/31) Accurately ripped
02 [5cbf7280|71fb75e8] (02+14/30) Accurately ripped
03 [d3b1b40c|4bd39b41] (03+14/32) Accurately ripped
04 [00b5283e|32c7a401] (02+15/31) Accurately ripped
05 [2e2c7091|7540a4de] (03+15/32) Accurately ripped
06 [b311f754|7b708b8f] (03+14/31) Accurately ripped
07 [504d9933|7bd007a6] (02+14/30) Accurately ripped
08 [bd48b116|093b1e4f] (03+14/32) Accurately ripped
09 [fb97c0e9|3256439b] (03+14/32) Accurately ripped
10 [81366be0|f90e2912] (02+14/29) Accurately ripped
11 [eadc1b51|6d2676f1] (02+14/30) Accurately ripped
12 [3ceae842|f1c51d35] (02+14/30) Accurately ripped
13 [fb1f8e72|2349e562] (02+14/30) Accurately ripped
14 [80188c2b|723db7a4] (02+14/29) Accurately ripped

Track Peak [ CRC32 ] [W/O NULL] [ LOG ]
– 99,8 [43B58A9A] [CD52B326] CRC32
01 99,8 [84CE967F] [00A7A8E4]
02 99,8 [3EB01351] [12480037]
03 99,8 [13D2D9DF] [9CF797C8]
04 97,1 [94BFE676] [C95E0744]
05 99,8 [216F0C37] [F2B96863]
06 98,7 [4951EE19] [A328CC22]
07 99,8 [D6061E9A] [30C1DEBC]
08 99,8 [7AAA5C61] [E85C7D20]
09 99,8 [47AB1951] [FB7C403A]
10 98,7 [44AD57D3] [029A6A6D]
11 99,8 [6D507E3A] [98551F5C]
12 99,8 [FD319FBB] [5A58094F]
13 94,3 [D54C9AF1] [23B589C0]
14 99,8 [3A77D583] [44132580]


Bob Dylan: 5CD Collection (1963-1974) [2013, BSCD2, Sony Music Japan]

Tracklist CD5 - 1974 - Blood On The Tracks [Repost]:
Sony Music Japan, SICP-30029

01. Tangled Up In Blue 05:40
02. Simple Twist Of Fate 04:17
03. You're A Big Girl Now 04:34
04. Idiot Wind 07:47
05. You're Gonna Make Me Lonesome When You Go 02:55
06. Meet Me In The Morning 04:21
07. Lily, Rosemary And The Jack Of Hearts 08:52
08. If You See Her, Say Hello 04:47
09. Shelter From The Storm 05:00
10. Buckets Of Rain 03:22

Exact Audio Copy V1.0 beta 3 from 29. August 2011

EAC extraction logfile from 1. September 2013, 19:49

Bob Dylan / Blood On The Tracks BSCD2

Used drive : PLEXTOR BD-R PX-B950SA Adapter: 6 ID: 0

Read mode : Secure
Utilize accurate stream : Yes
Defeat audio cache : Yes
Make use of C2 pointers : No

Read offset correction : 6
Overread into Lead-In and Lead-Out : No
Fill up missing offset samples with silence : Yes
Delete leading and trailing silent blocks : No
Null samples used in CRC calculations : Yes
Used interface : Native Win32 interface for Win NT & 2000

Used output format : Internal WAV Routines
Sample format : 44.100 Hz; 16 Bit; Stereo


TOC of the extracted CD

Track | Start | Length | Start sector | End sector
––––––––––––––––––––––––––––-
1 | 0:00.00 | 5:40.67 | 0 | 25566
2 | 5:40.67 | 4:17.53 | 25567 | 44894
3 | 9:58.45 | 4:34.50 | 44895 | 65494
4 | 14:33.20 | 7:47.00 | 65495 | 100519
5 | 22:20.20 | 2:55.05 | 100520 | 113649
6 | 25:15.25 | 4:21.10 | 113650 | 133234
7 | 29:36.35 | 8:52.02 | 133235 | 173136
8 | 38:28.37 | 4:47.65 | 173137 | 194726
9 | 43:16.27 | 5:00.65 | 194727 | 217291
10 | 48:17.17 | 3:22.25 | 217292 | 232466


Range status and errors

Selected range

Filename C:\Users\Meijin\Desktop\ALLexxess\Bob Dylan\1974 Blood On The Tracks (Sony Music Japan BSCD2 2013)\Bob Dylan - Blood On The Tracks BSCD2.wav

Peak level 99.8 %
Extraction speed 7.1 X
Range quality 99.9 %
Test CRC 4BB6F91C
Copy CRC 4BB6F91C
Copy OK

No errors occurred


AccurateRip summary

Track 1 accurately ripped (confidence 3) [482E0E76] (AR v2)
Track 2 accurately ripped (confidence 3) [70588EDE] (AR v2)
Track 3 accurately ripped (confidence 3) [2D196328] (AR v2)
Track 4 accurately ripped (confidence 3) [B55291DD] (AR v2)
Track 5 accurately ripped (confidence 3) [9CC8C81E] (AR v2)
Track 6 accurately ripped (confidence 3) [E534449C] (AR v2)
Track 7 accurately ripped (confidence 3) [67936896] (AR v2)
Track 8 accurately ripped (confidence 3) [38A6BB5F] (AR v2)
Track 9 accurately ripped (confidence 3) [10583FA5] (AR v2)
Track 10 accurately ripped (confidence 2) [015D803D] (AR v2)

All tracks accurately ripped

End of status report

==== Log checksum 1F7E559B7629FEECF5F78FFAAFFFE9F6F3D4CF1BB5B7EBB8B893ED64E890FBA3 ====


[CUETools log; Date: 27.02.2018 18:48:15; Version: 2.1.5]
[CTDB TOCID: TBzLxwNjOrZdAE00AiL87anmvHQ-] found.
Track | CTDB Status
1 | (36/43) Accurately ripped
2 | (36/43) Accurately ripped
3 | (36/43) Accurately ripped
4 | (36/43) Accurately ripped
5 | (36/43) Accurately ripped
6 | (36/43) Accurately ripped
7 | (36/43) Accurately ripped
8 | (36/43) Accurately ripped
9 | (35/43) Accurately ripped
10 | (32/43) Accurately ripped
[AccurateRip ID: 0013d9f9-009f3081-8e0c1b0a] found.
Track [ CRC | V2 ] Status
01 [c56eaf2f|482e0e76] (04+13/24) Accurately ripped
02 [11d06bd0|70588ede] (04+13/24) Accurately ripped
03 [e901e0e4|2d196328] (04+13/24) Accurately ripped
04 [5076d0cd|b55291dd] (04+13/24) Accurately ripped
05 [84541d67|9cc8c81e] (04+13/24) Accurately ripped
06 [e483c591|e534449c] (04+13/24) Accurately ripped
07 [79100f56|67936896] (04+13/24) Accurately ripped
08 [dd4dc3f4|38a6bb5f] (04+13/24) Accurately ripped
09 [38ea69a1|10583fa5] (04+13/23) Accurately ripped
10 [d1eb65bd|015d803d] (04+12/21) Accurately ripped

Track Peak [ CRC32 ] [W/O NULL] [ LOG ]
– 99,8 [4BB6F91C] [48FA69E2] CRC32
01 99,8 [5566A750] [355C2968]
02 99,8 [F5AAF3DF] [6CCCF86E]
03 99,8 [7541A028] [6D4B311B]
04 99,8 [C25ED911] [A3764AD8]
05 99,8 [68BFAFB2] [218580F6]
06 99,8 [7F470DE8] [954F6823]
07 99,8 [4F0B2104] [3170700B]
08 99,8 [1A3C7E37] [0B82C641]
09 99,8 [C9DBD9B2] [6D922BBD]
10 99,8 [8A571ED9] [BA726042]



All thanks go to ALLexxess

Bob Dylan or Bob Dylan in my Blog

Download Bob Dylan: 5CD Collection (1963-1974):